<?xml version="1.0" standalone="no"?>
<!DOCTYPE svg PUBLIC "-//W3C//DTD SVG 1.1//EN" "http://www.w3.org/Graphics/SVG/1.1/DTD/svg11.dtd" >
<svg xmlns="http://www.w3.org/2000/svg" xmlns:xlink="http://www.w3.org/1999/xlink" version="1.1">
<metadata>
Created by FontForge 20170731 at Thu Jul 20 12:08:56 2023
 By Aleksey,,,
(c)2013 Optimo. wf-rip
</metadata>
<defs>
<font id="Plain-Black" horiz-adv-x="1335" >
  <font-face 
    font-family="Plain Black"
    font-weight="900"
    font-stretch="normal"
    units-per-em="2048"
    panose-1="2 11 0 4 2 2 2 2 2 4"
    ascent="1645"
    descent="-403"
    x-height="1075"
    cap-height="1464"
    bbox="-193 -551 2879 2249"
    underline-thickness="102"
    underline-position="-307"
    unicode-range="U+000D-FB02"
  />
<missing-glyph horiz-adv-x="1318" 
d="M102 492v100l633 633q28 -14 53 -47zM102 291v100l711 711v-31q0 -41 -27.5 -76.5t-84.5 -80.5t-76 -64q-47 -47 -74 -111zM213 0h-100l534 535h101l-191 -191h-47v-47zM657 344l560 559v-100l-459 -459h-101zM102 692v101l304 303l79 -4q0 60 41.5 106.5t112.5 46.5h16z
M815 0h-100l67 68h4v4l431 430v-101zM786 272l431 430v-100l-431 -430v100zM102 90v100l422 422v-77h23zM102 1194l402 401h100l-90 -90q-110 -29 -190 -109.5t-111 -191.5l-111 -110v100zM1100 987l117 117v-100l-443 -443v14q0 21 5.5 38.5t11.5 29.5t22.5 27.5t27.5 23.5
t37 26.5t40 29.5q3 3 21 16t28.5 21.5t29.5 25t32 33t27.5 38t25.5 48t18 55.5zM102 1395l201 200h100l-301 -301v101zM1016 0h-101l302 301v-100zM940 1430l166 165h100l-213 -213q-4 4 -23 22t-30 26zM102 893v100l115 115l94 -6zM1036 1325l181 180v-100l-144 -143
q-6 12 -37 63zM414 0h-101l197 197v-101zM809 1499l96 96h101l-127 -127q-38 20 -70 31zM1098 1186l119 119v-101l-107 -106q0 26 -12 88zM629 1520l76 75h100l-78 -77q-36 4 -57 4q-4 0 -13.5 -1t-13.5 -1h-14zM614 0h-100l68 68h100zM1217 100v-100h-101zM102 1595h101
l-101 -100v100z" />
    <glyph glyph-name="fi" unicode="fi" horiz-adv-x="1400" 
d="M164 1075v55q0 353 434 353q116 0 166 -13v-284q-28 4 -49 4q-62 0 -88.5 -26t-26.5 -89h164v-315h-162v-760h-438v760h-115v315h115zM874 1186v278h439v-278h-439zM1313 0h-439v1075h439v-1075z" />
    <glyph glyph-name="fl" unicode="fl" horiz-adv-x="1406" 
d="M164 1075v55q0 353 434 353q116 0 166 -13v-284q-28 4 -49 4q-62 0 -88.5 -26t-26.5 -89h164v-315h-162v-760h-438v760h-115v315h115zM1317 0h-438v1464h438v-1464z" />
    <glyph glyph-name=".notdef" horiz-adv-x="1318" 
d="M102 492v100l633 633q28 -14 53 -47zM102 291v100l711 711v-31q0 -41 -27.5 -76.5t-84.5 -80.5t-76 -64q-47 -47 -74 -111zM213 0h-100l534 535h101l-191 -191h-47v-47zM657 344l560 559v-100l-459 -459h-101zM102 692v101l304 303l79 -4q0 60 41.5 106.5t112.5 46.5h16z
M815 0h-100l67 68h4v4l431 430v-101zM786 272l431 430v-100l-431 -430v100zM102 90v100l422 422v-77h23zM102 1194l402 401h100l-90 -90q-110 -29 -190 -109.5t-111 -191.5l-111 -110v100zM1100 987l117 117v-100l-443 -443v14q0 21 5.5 38.5t11.5 29.5t22.5 27.5t27.5 23.5
t37 26.5t40 29.5q3 3 21 16t28.5 21.5t29.5 25t32 33t27.5 38t25.5 48t18 55.5zM102 1395l201 200h100l-301 -301v101zM1016 0h-101l302 301v-100zM940 1430l166 165h100l-213 -213q-4 4 -23 22t-30 26zM102 893v100l115 115l94 -6zM1036 1325l181 180v-100l-144 -143
q-6 12 -37 63zM414 0h-101l197 197v-101zM809 1499l96 96h101l-127 -127q-38 20 -70 31zM1098 1186l119 119v-101l-107 -106q0 26 -12 88zM629 1520l76 75h100l-78 -77q-36 4 -57 4q-4 0 -13.5 -1t-13.5 -1h-14zM614 0h-100l68 68h100zM1217 100v-100h-101zM102 1595h101
l-101 -100v100z" />
    <glyph glyph-name=".null" horiz-adv-x="0" 
 />
    <glyph glyph-name="nonmarkingreturn" horiz-adv-x="682" 
 />
    <glyph glyph-name="NULL" horiz-adv-x="0" 
 />
    <glyph glyph-name="NULL" horiz-adv-x="0" 
 />
    <glyph glyph-name="CR" unicode="&#xd;" horiz-adv-x="0" 
 />
    <glyph glyph-name="space" unicode=" " horiz-adv-x="411" 
 />
    <glyph glyph-name="exclam" unicode="!" horiz-adv-x="720" 
d="M549 426h-377q-1 16 -17 314t-16 491v233h443v-233q0 -144 -6 -281.5t-15 -287t-12 -236.5zM569 324v-324h-417v324h417z" />
    <glyph glyph-name="quotedbl" unicode="&#x22;" horiz-adv-x="1120" 
d="M481 924h-372q0 10 -13.5 249.5t-13.5 290.5h426q0 -51 -13.5 -290.5t-13.5 -249.5zM1012 924h-373q0 10 -13.5 249.5t-13.5 290.5h426q0 -51 -13 -290.5t-13 -249.5z" />
    <glyph glyph-name="numbersign" unicode="#" 
d="M586 0l82 397h-142l-82 -397h-333l82 397h-170l61 285h166l24 119h-170l62 284h168l78 377h333l-77 -377h141l78 377h334l-78 -377h170l-62 -284h-168l-24 -119h172l-62 -285h-168l-81 -397h-334zM608 801l-24 -119h141l25 119h-142z" />
    <glyph glyph-name="dollar" unicode="$" 
d="M1303 1008h-474q-27 157 -170 157q-65 0 -101 -26t-36 -66q0 -52 49 -77t191 -62l82 -23q269 -75 379 -173.5t110 -276.5q0 -173 -112 -287.5t-322 -155.5v-282h-461v284q-206 42 -315 163.5t-123 310.5h502q18 -170 188 -170q77 0 121.5 26.5t44.5 79.5q0 19 -8.5 33.5
t-18.5 23.5t-36 20t-44 16.5t-59 17.5l-174 47q-261 68 -369 175.5t-108 285.5q0 160 101.5 267t297.5 148v250h461v-254q181 -43 284 -156.5t120 -295.5z" />
    <glyph glyph-name="percent" unicode="%" horiz-adv-x="1914" 
d="M440 662q-187 0 -287 109.5t-100 303.5q0 192 99.5 302t285.5 110t285.5 -110.5t99.5 -303.5q0 -195 -98 -303t-285 -108zM336 1071q0 -96 23.5 -144t78.5 -48t78 47.5t23 144.5q0 104 -22 151.5t-79 47.5t-79.5 -49.5t-22.5 -149.5zM551 0l563 1464h256l-563 -1464h-256
zM1479 -33q-187 0 -287 109.5t-100 304.5q0 192 99.5 302t285.5 110t285.5 -110.5t99.5 -303.5q0 -195 -98.5 -303.5t-284.5 -108.5zM1374 377q0 -96 24 -144.5t79 -48.5t77.5 48t22.5 145q0 104 -21.5 151t-78.5 47t-80 -49t-23 -149z" />
    <glyph glyph-name="ampersand" unicode="&#x26;" horiz-adv-x="1480" 
d="M573 1128q0 -76 89 -159q57 39 85.5 76t28.5 85q0 42 -26.5 67.5t-73.5 25.5q-49 0 -76 -26t-27 -69zM1475 188l-277 -235q-112 105 -149 151q-81 -61 -196 -99t-230 -38q-269 0 -415.5 124t-146.5 335q0 130 78 235.5t209 174.5q-135 125 -135 282q0 168 125.5 271.5
t343.5 103.5q203 0 325.5 -98t122.5 -258q0 -107 -65 -201.5t-180 -165.5q67 -66 143 -137q26 69 47 190l379 -16q-18 -129 -59.5 -253t-94.5 -196q6 -6 33 -34t58.5 -58.5t83.5 -77.5zM801 348l-230 236q-46 -33 -69 -69t-23 -87q0 -61 47.5 -100t120.5 -39q92 0 154 59z
" />
    <glyph glyph-name="quotesingle" unicode="'" horiz-adv-x="589" 
d="M481 924h-372q0 10 -13.5 249.5t-13.5 290.5h426q0 -51 -13.5 -290.5t-13.5 -249.5z" />
    <glyph glyph-name="parenleft" unicode="(" horiz-adv-x="745" 
d="M47 606q0 341 163.5 582t453.5 354v-422q-119 -103 -172.5 -227.5t-53.5 -282.5q0 -314 226 -508v-426q-290 119 -453.5 356.5t-163.5 573.5z" />
    <glyph glyph-name="parenright" unicode=")" horiz-adv-x="745" 
d="M698 606q0 -336 -163 -573.5t-453 -356.5v426q225 193 225 508q0 158 -53 282.5t-172 227.5v422q290 -112 453 -353.5t163 -582.5z" />
    <glyph glyph-name="asterisk" unicode="*" horiz-adv-x="876" 
d="M602 1464l-33 -168l152 82l100 -311l-168 -23l123 -116l-264 -193l-74 154l-73 -154l-265 193l123 116l-168 23l101 311l149 -82l-31 168h328z" />
    <glyph glyph-name="plus" unicode="+" 
d="M145 498v376h330v332h381v-332h332v-376h-332v-336h-381v336h-330z" />
    <glyph glyph-name="comma" unicode="," horiz-adv-x="655" 
d="M598 387l-211 -569h-389l156 569h444z" />
    <glyph glyph-name="hyphen" unicode="-" horiz-adv-x="804" 
d="M92 424v371h621v-371h-621z" />
    <glyph glyph-name="period" unicode="." horiz-adv-x="630" 
d="M92 0v408h447v-408h-447z" />
    <glyph glyph-name="slash" unicode="/" horiz-adv-x="1067" 
d="M41 -215l594 1679h393l-590 -1679h-397z" />
    <glyph glyph-name="zero" unicode="0" 
d="M668 334q88 0 118.5 85t30.5 300q0 228 -30 322t-119 94q-90 0 -121 -94t-31 -322q0 -214 31 -299.5t121 -85.5zM668 1499q142 0 251 -40.5t178.5 -109.5t113.5 -170.5t61.5 -213t17.5 -246.5t-16.5 -242.5t-59 -205t-111.5 -162t-179 -102.5t-256 -38t-256.5 38
t-180 102.5t-112.5 162t-59.5 205t-16.5 242.5t17.5 246.5t62 213t114 170.5t179 109.5t252.5 40.5z" />
    <glyph glyph-name="one" unicode="1" 
d="M547 887h-367v334h43q303 0 367 243h438v-1464h-481v887z" />
    <glyph glyph-name="two" unicode="2" 
d="M508 920h-455q0 265 160.5 422t454.5 157q288 0 433.5 -119t145.5 -340q0 -312 -356 -569q-25 -16 -82 -59.5t-72 -51.5h539v-360h-1219v346q264 170 508 359q118 90 165.5 155t47.5 133q0 55 -33 88t-92 33q-77 0 -110 -50.5t-35 -143.5z" />
    <glyph glyph-name="three" unicode="3" 
d="M520 999h-436q5 228 159.5 364t418.5 136q259 0 409 -115t150 -299q0 -113 -44 -181.5t-124 -119.5q227 -123 227 -344q0 -215 -169.5 -344t-455.5 -129q-293 0 -453 142.5t-165 406.5h436q8 -100 54 -148.5t137 -48.5q83 0 125 39t42 107q0 74 -65.5 113.5t-183.5 39.5
h-80v293h37q131 0 184 36t53 102q0 47 -33.5 74.5t-87.5 27.5q-129 0 -135 -152z" />
    <glyph glyph-name="four" unicode="4" 
d="M1282 596v-344h-158v-252h-434v252h-661v344l577 868h518v-868h158zM446 637l-30 -43q49 2 147 2h121v152q0 216 6 296h-2q-56 -113 -104 -192l-76 -123q-44 -67 -62 -92z" />
    <glyph glyph-name="five" unicode="5" 
d="M51 473l463 -2q6 -70 51 -108.5t113 -38.5q72 0 115 44.5t43 118.5q0 75 -43 121.5t-119 46.5q-53 0 -92 -24.5t-56 -67.5l-432 58l99 843h989v-344h-645l-19 -180q109 53 246 53q146 0 260.5 -54.5t184 -167.5t69.5 -269q0 -248 -166.5 -391.5t-445.5 -143.5
q-258 0 -424 139t-191 367z" />
    <glyph glyph-name="six" unicode="6" 
d="M1268 1034h-457q-12 55 -43 80t-90 25q-48 0 -81 -20.5t-49.5 -58t-23 -79t-6.5 -94.5h4q106 80 273 80q217 0 352 -125.5t135 -354.5q0 -109 -41.5 -203.5t-117 -164.5t-188.5 -110t-249 -40q-301 0 -468 185t-167 518q0 829 658 829q141 0 250.5 -40.5t174.5 -108.5
t98.5 -148.5t35.5 -169.5zM686 324q72 0 115 44.5t43 118.5q0 75 -43 121.5t-119 46.5q-73 0 -116.5 -45t-43.5 -118q0 -78 45.5 -123t118.5 -45z" />
    <glyph glyph-name="seven" unicode="7" 
d="M731 0h-524q94 289 215 537t303 557q-2 0 -2 2q-60 -4 -254 -4h-356v372h1134v-352q-282 -399 -516 -1112z" />
    <glyph glyph-name="eight" unicode="8" 
d="M492 467q0 -66 47.5 -111t130.5 -45q84 0 130 43.5t46 112.5t-46 112.5t-130 43.5q-83 0 -130.5 -45t-47.5 -111zM520 1049q0 -56 40.5 -93.5t111.5 -37.5q70 0 109.5 37t39.5 94t-39.5 94t-109.5 37q-71 0 -111.5 -37.5t-40.5 -93.5zM668 -31q-308 0 -464.5 119
t-156.5 334q0 238 234 360q-84 57 -132.5 131t-48.5 185q0 176 150.5 288.5t417.5 112.5t417 -112.5t150 -288.5q0 -111 -48 -185t-132 -131q233 -121 233 -360q0 -215 -157 -334t-463 -119z" />
    <glyph glyph-name="nine" unicode="9" 
d="M66 436h456q12 -55 43 -79.5t90 -24.5q48 0 81 21t49.5 59t23 80t6.5 96h-4q-106 -80 -272 -80q-142 0 -250.5 51.5t-173 160.5t-64.5 263q0 109 41.5 203.5t117 164.5t188.5 110t249 40q301 0 468 -184.5t167 -517.5q0 -830 -657 -830q-141 0 -250.5 40.5t-174.5 108.5
t-98.5 148.5t-35.5 169.5zM647 1151q-72 0 -115 -45t-43 -119q0 -75 43 -121.5t119 -46.5q73 0 116.5 45.5t43.5 118.5q0 78 -45.5 123t-118.5 45z" />
    <glyph glyph-name="colon" unicode=":" horiz-adv-x="630" 
d="M92 0v387h447v-387h-447zM92 616v388h447v-388h-447z" />
    <glyph glyph-name="semicolon" unicode=";" horiz-adv-x="681" 
d="M137 616v388h447v-388h-447zM600 387l-211 -569h-389l156 569h444z" />
    <glyph glyph-name="less" unicode="&#x3c;" 
d="M1079 1294v-428l-409 -174v-6l409 -176v-432l-891 444v324z" />
    <glyph glyph-name="equal" unicode="=" 
d="M158 311v334h1020v-334h-1020zM158 731v332h1020v-332h-1020z" />
    <glyph glyph-name="greater" unicode="&#x3e;" 
d="M256 866v428l891 -448v-324l-891 -444v432l410 176v6z" />
    <glyph glyph-name="question" unicode="?" horiz-adv-x="1284" 
d="M498 979h-447q2 113 40 206t110 164t188 110.5t266 39.5q280 0 429 -116t149 -304q0 -121 -53.5 -209.5t-163.5 -171.5l-31 -22q-48 -35 -68 -52t-42 -46t-28.5 -62t-6.5 -84h-428q0 84 10.5 142.5t39 105.5t61 80t93.5 82l86 69q39 35 56.5 62.5t17.5 70.5
q0 49 -33.5 79t-97.5 30q-73 0 -110 -46t-37 -128zM850 338v-338h-449v338h449z" />
    <glyph glyph-name="at" unicode="@" horiz-adv-x="1650" 
d="M1051 1085h231l-88 -473q-14 -66 -14 -84q0 -20 22 -20q68 0 122 93.5t54 225.5q0 220 -135 343.5t-379 123.5q-253 0 -414 -161.5t-161 -413.5t164 -410.5t426 -158.5q226 0 432 131l127 -138q-261 -196 -566 -196q-240 0 -424.5 97t-285.5 272.5t-101 402.5
q0 161 60 304.5t165 247.5t254.5 165t321.5 61q163 0 300 -49.5t230.5 -135.5t145 -205t51.5 -257q0 -238 -124.5 -391.5t-307.5 -153.5q-111 0 -168 72q-95 -80 -231 -80q-154 0 -248 102t-94 269q0 191 117 325.5t301 134.5q118 0 210 -79zM854 903q-88 0 -140 -67.5
t-52 -165.5q0 -70 34.5 -113t98.5 -43q87 0 139.5 72t52.5 174q0 143 -133 143z" />
    <glyph glyph-name="A" unicode="A" horiz-adv-x="1531" 
d="M432 0h-473q249 703 537 1464h548q198 -555 531 -1464h-485l-103 291h-457zM635 647h250q-7 24 -29.5 94t-34.5 109t-29.5 100t-29.5 113h-6q-14 -63 -33 -129.5t-49.5 -163.5t-38.5 -123z" />
    <glyph glyph-name="B" unicode="B" horiz-adv-x="1456" 
d="M106 0v1464h584q130 0 193 -2q479 -16 479 -370q0 -125 -73 -207.5t-195 -112.5q62 -9 115.5 -33t101 -64.5t75 -106.5t27.5 -150q0 -181 -102 -276.5t-285 -127.5q-88 -14 -219 -14h-701zM588 594v-250h94q117 0 172 26t55 103q0 68 -47.5 94.5t-136.5 26.5h-137z
M588 1120v-227h100q103 0 147 25.5t44 95.5q0 63 -42 84.5t-130 21.5h-119z" />
    <glyph glyph-name="C" unicode="C" horiz-adv-x="1579" 
d="M1049 479h510q-67 -244 -253.5 -375t-482.5 -131q-354 0 -567 203.5t-213 554.5q0 346 215.5 553t566.5 207q306 0 492.5 -138.5t247.5 -391.5h-500q-37 83 -93 125t-145 42q-143 0 -215.5 -104.5t-72.5 -294.5q0 -182 73 -283.5t217 -101.5q148 0 220 135z" />
    <glyph glyph-name="D" unicode="D" horiz-adv-x="1597" 
d="M106 0v1464h521q141 0 213 -2q330 -12 521 -202t191 -523q0 -193 -82.5 -362.5t-214.5 -253.5q-123 -72 -266.5 -96.5t-363.5 -24.5h-519zM596 1112v-758h53q103 0 187 23q111 32 164 118.5t53 239.5q0 287 -215 355q-74 22 -187 22h-55z" />
    <glyph glyph-name="E" unicode="E" horiz-adv-x="1288" 
d="M596 551v-191h623v-360h-1113v1464h1104v-360h-614v-176h561v-377h-561z" />
    <glyph glyph-name="F" unicode="F" horiz-adv-x="1220" 
d="M596 0h-490v1464h1065v-360h-575v-176h539v-379h-539v-549z" />
    <glyph glyph-name="G" unicode="G" horiz-adv-x="1626" 
d="M1554 977h-497q-64 151 -232 151q-140 0 -212 -103.5t-72 -291.5q0 -189 75.5 -293t221.5 -104q103 0 168 44t94 109q-42 -4 -168 -4h-184v357h804v-842h-376q0 48 1 83.5t1 39.5q-164 -150 -433 -150q-149 0 -277 51.5t-222.5 147t-148.5 239.5t-54 320
q0 172 57.5 314.5t160.5 240t247.5 151.5t316.5 54q301 0 483.5 -133.5t245.5 -380.5z" />
    <glyph glyph-name="H" unicode="H" horiz-adv-x="1581" 
d="M602 0h-496v1464h496v-499h379v499h494v-1464h-494v537h-379v-537z" />
    <glyph glyph-name="I" unicode="I" horiz-adv-x="708" 
d="M602 0h-496v1464h496v-1464z" />
    <glyph glyph-name="J" unicode="J" horiz-adv-x="1165" 
d="M512 -31q-257 0 -382.5 114.5t-125.5 330.5h410q5 -46 23.5 -69t62.5 -23q59 0 77.5 44t18.5 154v944h475v-962q0 -271 -143.5 -402t-415.5 -131z" />
    <glyph glyph-name="K" unicode="K" horiz-adv-x="1572" 
d="M602 0h-496v1464h496v-598h4q190 272 424 598h563q-106 -136 -310 -379.5t-243 -291.5q300 -418 586 -793h-571q-259 386 -449 684h-4v-684z" />
    <glyph glyph-name="L" unicode="L" horiz-adv-x="1222" 
d="M1200 0h-1094v1464h496v-1095h598v-369z" />
    <glyph glyph-name="M" unicode="M" horiz-adv-x="2070" 
d="M106 0v1464h750l68 -336q18 -82 36.5 -190t45 -277.5t28.5 -179.5h6q67 446 111 656l63 327h750v-1464h-467v539q0 313 10 538h-8q-4 -19 -40 -207t-64 -295l-129 -575h-465l-131 573q-34 137 -105 504h-8q10 -225 10 -532v-545h-461z" />
    <glyph glyph-name="N" unicode="N" horiz-adv-x="1652" 
d="M1546 1464v-1464h-622l-230 530q-95 220 -147 392h-6q16 -219 16 -410v-512h-451v1464h642l170 -420q72 -176 180 -460q1 0 3 1t3 1q-8 175 -8 356v522h450z" />
    <glyph glyph-name="O" unicode="O" horiz-adv-x="1656" 
d="M827 1491q232 0 410.5 -92.5t277.5 -265.5t99 -402q0 -233 -98 -405.5t-276 -262.5t-415 -90q-233 0 -409.5 90t-274.5 262.5t-98 405.5q0 229 99 402t276.5 265.5t408.5 92.5zM827 344q140 0 213.5 102t73.5 285q0 189 -73 293t-214 104q-143 0 -215.5 -104.5
t-72.5 -294.5q0 -182 72.5 -283.5t215.5 -101.5z" />
    <glyph glyph-name="P" unicode="P" horiz-adv-x="1384" 
d="M106 0v1464h578q109 0 158 -2q245 -7 380.5 -138.5t135.5 -350.5q0 -120 -45 -220t-129 -161q-82 -63 -195 -85t-289 -22h-98v-485h-496zM602 1116v-280h92q189 0 189 141q0 72 -46.5 105.5t-148.5 33.5h-86z" />
    <glyph glyph-name="Q" unicode="Q" horiz-adv-x="1656" 
d="M827 1491q232 0 410.5 -92.5t277.5 -265.5t99 -402q0 -324 -187 -526l283 -307h-522l-31 30l-74 78q-115 -33 -258 -33q-233 0 -409.5 90t-274.5 262.5t-98 405.5q0 229 99 402t276.5 265.5t408.5 92.5zM643 528l442 7q29 92 29 196q0 189 -73 293t-214 104
q-143 0 -215.5 -104.5t-72.5 -294.5q0 -178 70 -279.5t208 -105.5z" />
    <glyph glyph-name="R" unicode="R" horiz-adv-x="1458" 
d="M600 500v-500h-494v1464h721q139 0 234.5 -19.5t169.5 -70.5q81 -61 126.5 -154t45.5 -204q0 -91 -23.5 -166.5t-65 -129.5t-89 -91t-105.5 -64l346 -565h-526l-268 500h-72zM600 1112v-272h129q182 0 182 143q0 70 -48 99.5t-146 29.5h-117z" />
    <glyph glyph-name="S" unicode="S" horiz-adv-x="1394" 
d="M1329 1004h-473q-27 159 -170 159q-66 0 -101.5 -25.5t-35.5 -68.5q0 -19 5.5 -33.5t21 -27.5t31 -22t47.5 -19.5t58.5 -18t75.5 -20.5l82 -23q269 -74 379.5 -176.5t110.5 -284.5q0 -218 -175.5 -344.5t-484.5 -126.5q-316 0 -485.5 131.5t-187.5 374.5h501
q18 -174 189 -174q77 0 121.5 28t44.5 81q0 19 -8 33.5t-19 24t-36 20t-44 16.5t-59 18l-174 47q-263 73 -370 180.5t-107 290.5q0 206 163 326.5t461 120.5q286 0 452.5 -124t186.5 -363z" />
    <glyph glyph-name="T" unicode="T" horiz-adv-x="1261" 
d="M879 0h-496v1096h-358v368h1212v-368h-358v-1096z" />
    <glyph glyph-name="U" unicode="U" horiz-adv-x="1540" 
d="M1450 1464v-852q0 -167 -39.5 -278.5t-120.5 -192.5q-175 -172 -520 -172t-520 172q-81 81 -120.5 192.5t-39.5 278.5v852h496v-829q0 -116 48.5 -177t135.5 -61q186 0 186 248v819h494z" />
    <glyph glyph-name="V" unicode="V" horiz-adv-x="1495" 
d="M1049 0h-605q-133 389 -477 1464h512l137 -497q61 -215 127 -523h7q95 381 143 539l135 481h504q-60 -189 -178 -548t-209.5 -632.5t-95.5 -283.5z" />
    <glyph glyph-name="W" unicode="W" horiz-adv-x="2109" 
d="M2111 1464l-299 -1464h-624l-88 557q-21 113 -43 371h-8q-3 -25 -11.5 -109t-16.5 -154.5t-15 -107.5l-97 -557h-614l-297 1464h534l91 -581q21 -123 43 -371h8q1 13 6 61t6.5 62t6 52.5t7.5 59.5l8 56t10.5 68t12.5 71l94 522h490l84 -497q40 -250 55 -447h8
q4 40 11 116.5t13.5 133.5t16.5 117l103 577h505z" />
    <glyph glyph-name="X" unicode="X" horiz-adv-x="1429" 
d="M1442 1464l-455 -690l488 -774h-584l-109 225q-47 95 -69 142h-4q-14 -32 -37.5 -72t-38.5 -70l-117 -225h-561l485 745l-450 719h573l86 -182q13 -27 35.5 -70t38.5 -75h4q12 30 22 49.5t25.5 45.5t26.5 46l92 186h549z" />
    <glyph glyph-name="Y" unicode="Y" horiz-adv-x="1355" 
d="M881 1464h516l-281 -546l-192 -373v-545h-498v545l-166 336q-244 487 -295 583h527q41 -88 106 -253t88 -218h4q16 39 50 127.5t67 169.5t74 174z" />
    <glyph glyph-name="Z" unicode="Z" horiz-adv-x="1333" 
d="M55 0v342l445 571q23 28 72.5 89.5t80.5 97.5q-2 2 -2 4q-61 -4 -248 -4h-327v364h1175v-346l-409 -536q-23 -28 -82.5 -103.5t-95.5 -116.5q0 -2 2 -4q64 4 245 4h371v-362h-1227z" />
    <glyph glyph-name="bracketleft" unicode="[" horiz-adv-x="770" 
d="M719 18v-249h-574v1695h574v-250h-201v-1196h201z" />
    <glyph glyph-name="backslash" unicode="\" horiz-adv-x="1067" 
d="M432 1464l594 -1679h-397l-590 1679h393z" />
    <glyph glyph-name="bracketright" unicode="]" horiz-adv-x="770" 
d="M51 -231v249h201v1196h-201v250h574v-1695h-574z" />
    <glyph glyph-name="asciicircum" unicode="^" 
d="M530 1401h273q54 -103 191.5 -380.5t219.5 -430.5h-413q-29 59 -73.5 159.5t-55.5 120.5h-6l-27.5 -60.5t-51 -108.5t-55.5 -111h-411q82 151 217.5 427t191.5 384z" />
    <glyph glyph-name="underscore" unicode="_" horiz-adv-x="1142" 
d="M84 -369v310h975v-310h-975z" />
    <glyph glyph-name="grave" unicode="`" horiz-adv-x="526" 
d="M766 1186h-444l-297 278h530z" />
    <glyph glyph-name="a" unicode="a" horiz-adv-x="1198" 
d="M1147 0h-377q-6 41 -6 115h-4q-102 -138 -338 -138q-181 0 -286 87.5t-105 240.5q0 124 81 200.5t240 119.5q130 38 373 51q0 88 -30.5 124t-94.5 36q-61 0 -92.5 -33t-38.5 -86h-395q17 189 158 291t370 102q127 0 220.5 -25t163 -81.5t104 -152.5t34.5 -233v-266
q0 -99 1 -147t6 -107t16 -98zM719 451l-68 -11q-125 -19 -170 -44.5t-45 -78.5q0 -48 31 -74t90 -26q74 0 118 44.5t44 141.5v48z" />
    <glyph glyph-name="b" unicode="b" 
d="M508 0h-420v1464h438v-282q0 -28 -1 -105t-1 -104q110 133 307 133q211 0 336 -148.5t125 -410.5q0 -258 -128 -415t-343 -157q-65 0 -117.5 13.5t-90 38t-61 47t-46.5 53.5q2 -35 2 -127zM670 805q-76 0 -113 -70.5t-37 -193.5q0 -262 152 -262q149 0 149 260
q0 266 -151 266z" />
    <glyph glyph-name="c" unicode="c" horiz-adv-x="1232" 
d="M776 397h436q-38 -199 -184.5 -314.5t-398.5 -115.5q-274 0 -432 157.5t-158 412.5q0 256 163 415.5t437 159.5q237 0 387 -115.5t182 -318.5h-432q-28 127 -139 127q-158 0 -158 -264q0 -132 38.5 -197t121.5 -65q110 0 137 118z" />
    <glyph glyph-name="d" unicode="d" 
d="M1247 0h-420q0 92 2 127q-114 -152 -325 -152q-213 0 -337 152.5t-124 409.5q0 261 125.5 415t335.5 154q197 0 307 -133q0 27 -1 104t-1 105v282h438v-1464zM664 805q-76 0 -113 -70.5t-37 -193.5q0 -262 152 -262q149 0 149 260q0 266 -151 266z" />
    <glyph glyph-name="e" unicode="e" horiz-adv-x="1253" 
d="M788 352h429q-56 -176 -205 -280.5t-387 -104.5q-275 0 -430.5 156.5t-155.5 423.5q0 249 167 407t431 158q270 0 431 -159t161 -447q0 -33 -2 -60h-762q4 -92 48 -140t122 -48q66 0 103 28.5t50 65.5zM467 670h336q-18 170 -162 170q-76 0 -119.5 -45t-54.5 -125z" />
    <glyph glyph-name="f" unicode="f" horiz-adv-x="780" 
d="M164 1075v55q0 353 434 353q116 0 166 -13v-284q-28 4 -49 4q-62 0 -88.5 -26t-26.5 -89h164v-315h-162v-760h-438v760h-115v315h115z" />
    <glyph glyph-name="g" unicode="g" horiz-adv-x="1337" 
d="M74 -2h432q14 -55 45.5 -85t97.5 -30q166 0 166 297h-4q-54 -61 -125.5 -94t-189.5 -33q-200 0 -325.5 136t-125.5 380q0 152 56 274t159 192.5t234 70.5q115 0 201 -42.5t126 -111.5q-4 29 -4 123h432v-956q0 -136 -47 -237t-132.5 -161.5t-196.5 -90t-248 -29.5
q-254 0 -389.5 105t-161.5 292zM668 805q-152 0 -152 -246q0 -240 150 -240q81 0 116 62.5t35 179.5q0 244 -149 244z" />
    <glyph glyph-name="h" unicode="h" horiz-adv-x="1310" 
d="M522 979h2q44 55 126.5 89t193.5 34q236 0 332 -172q35 -63 46 -138.5t11 -222.5v-569h-438v549q0 125 -27.5 178t-99.5 53q-79 0 -110.5 -60t-31.5 -208v-512h-438v1464h438v-223q0 -118 -4 -262z" />
    <glyph glyph-name="i" unicode="i" horiz-adv-x="614" 
d="M88 1186v278h438v-278h-438zM526 0h-438v1075h438v-1075z" />
    <glyph glyph-name="j" unicode="j" horiz-adv-x="616" 
d="M90 1075h438v-1075q0 -113 -25.5 -190t-80 -121.5t-129 -63t-182.5 -18.5q-116 0 -197 18v297q16 -2 43 -2q74 0 103.5 38.5t29.5 127.5v989zM90 1186v278h438v-278h-438z" />
    <glyph glyph-name="k" unicode="k" horiz-adv-x="1339" 
d="M526 0h-438v1464h438v-841h2q37 49 146.5 215.5t152.5 236.5h510q-233 -280 -391 -493q64 -95 192 -270t234 -312h-534q-88 138 -186 299t-124 209h-2v-508z" />
    <glyph glyph-name="l" unicode="l" horiz-adv-x="618" 
d="M528 0h-438v1464h438v-1464z" />
    <glyph glyph-name="m" unicode="m" horiz-adv-x="2004" 
d="M86 1075h408q0 -11 0.5 -35.5t0.5 -49t-1 -48.5h4q38 71 124.5 115.5t213.5 44.5q110 0 195 -42t132 -120h2q121 162 361 162q248 0 344 -172q35 -63 46 -138.5t11 -222.5v-569h-438v549q0 125 -26.5 178t-98.5 53q-77 0 -107 -54t-30 -185v-541h-439v584
q0 104 -28.5 150t-95.5 46q-78 0 -108 -60t-30 -208v-512h-438v897q0 119 -2 178z" />
    <glyph glyph-name="n" unicode="n" horiz-adv-x="1310" 
d="M86 1075h408q0 -11 0.5 -35.5t0.5 -49t-1 -48.5h4q38 70 126.5 115t215.5 45q116 0 202.5 -44t133.5 -128q35 -63 46 -138.5t11 -222.5v-569h-438v549q0 125 -27.5 178t-99.5 53q-79 0 -110.5 -60t-31.5 -208v-512h-438v897q0 119 -2 178z" />
    <glyph glyph-name="o" unicode="o" horiz-adv-x="1286" 
d="M641 1112q279 0 442.5 -158.5t163.5 -416.5q0 -256 -162 -413t-442 -157q-283 0 -443.5 157t-160.5 415q0 257 161.5 415t440.5 158zM639 805q-83 0 -119.5 -67.5t-36.5 -196.5q0 -132 36.5 -197t121.5 -65q83 0 119.5 65t36.5 195t-37 198t-121 68z" />
    <glyph glyph-name="p" unicode="p" 
d="M88 1075h420q0 -79 -2 -114q113 151 319 151q214 0 340.5 -156.5t126.5 -414.5q0 -261 -127.5 -410t-339.5 -149q-191 0 -301 133q0 -27 1 -104t1 -105v-275h-438v1444zM670 805q-76 0 -113 -70.5t-37 -193.5q0 -262 152 -262q149 0 149 260q0 266 -151 266z" />
    <glyph glyph-name="q" unicode="q" 
d="M827 1075h420v-1444h-438v275q0 28 1 102.5t1 102.5q-111 -134 -309 -134q-207 0 -333 146.5t-126 411.5q0 258 126.5 415.5t340.5 157.5q205 0 319 -152q-2 35 -2 119zM664 805q-76 0 -113 -70.5t-37 -193.5q0 -262 152 -262q149 0 149 260q0 266 -151 266z" />
    <glyph glyph-name="r" unicode="r" horiz-adv-x="892" 
d="M88 0v881q0 126 -2 194h408q0 -112 -2 -151h4q31 80 113 129t192 49q37 0 65 -4v-383q-36 8 -84 8q-59 0 -101 -10t-70.5 -35.5t-45 -56.5t-25.5 -88t-11.5 -113.5t-2.5 -147.5v-272h-438z" />
    <glyph glyph-name="s" unicode="s" horiz-adv-x="1187" 
d="M25 369h407q24 -136 176 -136q125 0 125 70q0 30 -28.5 45t-110.5 35l-164 37q-198 43 -285.5 123.5t-87.5 224.5q0 161 138 253.5t389 92.5q508 0 542 -377h-391q-12 62 -48 90.5t-103 28.5q-56 0 -84.5 -17.5t-28.5 -47.5q0 -31 29.5 -47.5t128.5 -41.5l131 -32
q213 -54 305 -131.5t92 -216.5q0 -176 -142.5 -265.5t-414.5 -89.5q-266 0 -404 98t-171 304z" />
    <glyph glyph-name="t" unicode="t" horiz-adv-x="839" 
d="M172 760h-147v315h147v287h438v-287h174v-315h-174v-205q0 -51 0.5 -76.5t2.5 -59.5t6.5 -49t12.5 -33t20.5 -25t29.5 -12t41 -5q22 0 49 6v-307q-72 -14 -180 -14q-112 0 -187 17t-129 60t-79 117t-25 186v400z" />
    <glyph glyph-name="u" unicode="u" horiz-adv-x="1302" 
d="M1217 0h-408q0 11 -0.5 34.5t-0.5 47t1 47.5h-4q-38 -65 -133 -110.5t-219 -45.5q-107 0 -189 44t-129 128q-35 63 -46 138.5t-11 222.5v569h438v-553q0 -125 26.5 -176t96.5 -51q75 0 106 59t31 205v516h438v-897q0 -90 3 -178z" />
    <glyph glyph-name="v" unicode="v" horiz-adv-x="1230" 
d="M877 0h-525q-70 202 -198.5 579t-169.5 496h471q28 -101 54.5 -210t57.5 -243.5t49 -209.5h7q7 31 41.5 180.5t62.5 262t59 220.5h463q-35 -101 -168 -483.5t-204 -591.5z" />
    <glyph glyph-name="w" unicode="w" horiz-adv-x="1908" 
d="M823 0h-520q-96 327 -305 1075h448l72 -323q4 -19 66 -349h6q30 174 72 367l67 305h455l69 -307q14 -59 39 -189.5t35 -175.5h4q39 212 72 365l65 307h445q-51 -186 -155 -543.5t-152 -531.5h-523l-61 268q-28 118 -66 326h-6q-6 -30 -26.5 -141.5t-38.5 -182.5z" />
    <glyph glyph-name="x" unicode="x" horiz-adv-x="1216" 
d="M-16 0l368 547l-366 528h493q20 -39 64.5 -113.5t68.5 -119.5q23 46 68.5 124.5t62.5 108.5h469q-53 -85 -178.5 -271.5t-169.5 -254.5q59 -94 195.5 -283.5t185.5 -265.5h-481q-45 79 -94 156.5t-62 101.5q-58 -109 -151 -258h-473z" />
    <glyph glyph-name="y" unicode="y" horiz-adv-x="1224" 
d="M776 1075h463q-67 -185 -266.5 -745.5t-249.5 -698.5h-459q9 29 61.5 171t67.5 194q-27 68 -128.5 320t-170 427.5t-125.5 331.5h475q31 -122 86 -307.5t76 -261.5h10z" />
    <glyph glyph-name="z" unicode="z" horiz-adv-x="1146" 
d="M57 0v295l469 467l-2 2q-59 -4 -256 -4h-194v315h995v-295q-289 -289 -473 -465v-2q184 4 276 4h220v-317h-1035z" />
    <glyph glyph-name="braceleft" unicode="{" horiz-adv-x="729" 
d="M49 510v213q52 16 77.5 35.5t40.5 63.5t15 124v268q0 149 59 204t228 55q4 0 44 -1.5t67 -1.5h84v-241q-74 -5 -100.5 -37t-26.5 -129v-166q0 -56 -3 -95t-12 -68t-17.5 -45.5t-29 -30.5t-36 -21t-48.5 -19v-4q36 -11 55.5 -20.5t40 -28.5t29.5 -47.5t15 -73.5t6 -112
v-170q0 -66 12.5 -99.5t37.5 -45.5t77 -15v-242q-31 -2 -84 -2h-111q-169 0 -228 54.5t-59 203.5v271q0 80 -15 124t-40.5 63.5t-77.5 35.5z" />
    <glyph glyph-name="bar" unicode="|" horiz-adv-x="669" 
d="M145 -127v1624h379v-1624h-379z" />
    <glyph glyph-name="braceright" unicode="}" horiz-adv-x="729" 
d="M680 723v-213q-52 -16 -77.5 -35.5t-40.5 -63.5t-15 -124v-271q0 -149 -59 -203.5t-228 -54.5h-110q-53 0 -84 2v242q52 3 77 15t37.5 45.5t12.5 99.5v170q0 67 5.5 112t15 73.5t29.5 47.5t39.5 28.5t55.5 20.5v4q-32 11 -49 18.5t-36.5 21t-28.5 31t-17.5 46t-11 67.5
t-2.5 95v166q0 97 -26.5 129t-100.5 37v241h84q27 0 66 1.5t44 1.5q169 0 228 -55t59 -204v-268q0 -80 15 -124t40.5 -63.5t77.5 -35.5z" />
    <glyph glyph-name="asciitilde" unicode="~" 
d="M852 786q33 0 64.5 26.5t72.5 102.5l238 -190q-68 -132 -162.5 -214.5t-208.5 -82.5q-15 0 -28.5 1t-24 2t-23.5 4t-20.5 4.5t-21 6.5t-19 7t-21 9.5t-20 10t-23 11.5t-24.5 12l-39 18q-84 41 -117 41q-34 0 -65.5 -27.5t-71.5 -103.5l-232 178q64 133 158 221t207 88
q60 0 108.5 -14.5t116.5 -50.5l39 -21q73 -39 117 -39z" />
    <glyph glyph-name="uni00A0" unicode="&#xa0;" horiz-adv-x="411" 
 />
    <glyph glyph-name="exclamdown" unicode="&#xa1;" horiz-adv-x="688" 
d="M158 645h379q3 -86 12 -238t14.5 -290t5.5 -283v-235h-444v235q0 144 6 283t15 289.5t12 238.5zM557 1075v-325h-420v325h420z" />
    <glyph glyph-name="cent" unicode="&#xa2;" 
d="M823 397h437q-30 -153 -121 -256.5t-246 -144.5v-164h-420v164q-185 54 -286 196.5t-101 344.5t101.5 345.5t285.5 198.5v193h420v-191q150 -43 243.5 -147.5t118.5 -257.5h-432q-28 127 -139 127q-158 0 -158 -264q0 -132 38.5 -197t121.5 -65q110 0 137 118z" />
    <glyph glyph-name="sterling" unicode="&#xa3;" 
d="M1294 1022h-442q-6 62 -35 95.5t-78 33.5q-54 0 -79 -35.5t-25 -93.5q0 -55 14 -109h363v-313h-246q37 -87 37 -145q0 -80 -33 -136h506v-319h-1184v289q250 26 250 186q0 49 -27 125h-274v307h152q-21 61 -21 142q0 93 32.5 172.5t98.5 143t179.5 100t262.5 36.5
q145 0 250 -33t168.5 -97t95 -150t35.5 -199z" />
    <glyph glyph-name="currency" unicode="&#xa4;" 
d="M991 133l-117 115q-100 -41 -206 -41q-109 0 -209 41l-117 -117l-283 283l121 121q-39 91 -39 198t41 207l-123 125l283 283l125 -127q96 41 201 41q102 0 198 -41l125 125l283 -283l-121 -121q43 -105 43 -209q0 -105 -41 -201l119 -116zM471 733q0 -82 57.5 -139
t139.5 -57q84 0 141 57t57 139q0 85 -56.5 142t-141.5 57q-82 0 -139.5 -57.5t-57.5 -141.5z" />
    <glyph glyph-name="yen" unicode="&#xa5;" 
d="M868 1464h516l-219 -428h103v-313h-264q-12 -25 -36.5 -70t-31.5 -61h332v-313h-357v-279h-497v279h-348v313h323l-63 131h-260v313h104q-58 118 -217 428h526q41 -89 107 -254.5t88 -216.5h4q17 42 49.5 128t66 168.5t74.5 174.5z" />
    <glyph glyph-name="brokenbar" unicode="&#xa6;" horiz-adv-x="673" 
d="M526 856h-379v641h379v-641zM147 514h379v-641h-379v641z" />
    <glyph glyph-name="section" unicode="&#xa7;" 
d="M711 1079l112 -32q51 -15 88 -28t85 -33t81.5 -40.5t68.5 -50.5t56.5 -63.5t35 -78.5t13.5 -96q0 -103 -43 -172t-104 -104q117 -82 117 -236q0 -175 -144.5 -264.5t-417.5 -89.5q-266 0 -404 98t-171 304h408q24 -136 176 -136q125 0 125 70q0 9 -2 15.5t-8.5 12.5
t-12.5 10.5t-20 10.5t-25 10t-33 12.5t-39 14.5l-207 68q-183 61 -269.5 151.5t-86.5 229.5q0 152 146 260q-97 82 -97 223q0 161 140.5 253.5t392.5 92.5q508 0 542 -377h-391q-12 62 -48 90.5t-103 28.5q-55 0 -84 -18t-29 -48q0 -29 26 -43.5t126 -44.5zM662 586
q26 -9 74 -28.5t69 -27.5q39 17 39 76q0 29 -30 51.5t-109 51.5l-170 61q-37 -12 -37 -65q0 -39 33 -62t131 -57z" />
    <glyph glyph-name="dieresis" unicode="&#xa8;" horiz-adv-x="1005" 
d="M195 1186v278h315v-278h-315zM633 1186v278h313v-278h-313z" />
    <glyph glyph-name="copyright" unicode="&#xa9;" horiz-adv-x="1665" 
d="M1604 737q0 -159 -61 -302t-164 -246t-247 -163.5t-303 -60.5q-157 0 -299.5 61t-245 164t-163 246t-60.5 301q0 157 60 299.5t163 245.5t246.5 164t303.5 61q157 0 299.5 -61t245.5 -164t164 -245.5t61 -299.5zM1432 737q0 122 -47.5 234t-128 193t-191 129t-231.5 48
q-165 0 -303 -81.5t-216.5 -220t-78.5 -302.5q0 -165 78.5 -304.5t215.5 -221.5t301 -82q162 0 300.5 81.5t219.5 221.5t81 305zM961 586h296q-39 -142 -146.5 -217.5t-279.5 -75.5q-205 0 -328.5 117.5t-123.5 320.5q0 201 125.5 320.5t329.5 119.5q177 0 284.5 -79
t143.5 -228h-293q-39 99 -135 99q-83 0 -124.5 -61.5t-41.5 -170.5q0 -106 42 -164.5t126 -58.5q82 0 125 78z" />
    <glyph glyph-name="ordfeminine" unicode="&#xaa;" horiz-adv-x="966" 
d="M885 367h-287v16l-6 57q-70 -90 -242 -90q-139 0 -218 65t-79 181q0 91 63.5 151.5t178.5 90.5q95 29 276 39q-6 114 -92 114q-83 0 -94 -88h-301q12 144 117.5 220.5t279.5 76.5q196 0 294.5 -84t98.5 -285v-313q0 -82 11 -151zM567 702l-49 -6q-86 -13 -122 -34
t-36 -56t22.5 -54.5t63.5 -19.5q54 0 87.5 34t33.5 104v32z" />
    <glyph glyph-name="guillemotleft" unicode="&#xab;" horiz-adv-x="1236" 
d="M657 969l-196 -383l196 -385h-387l-217 385l217 383h387zM1171 969l-196 -383l196 -385h-387l-217 385l217 383h387z" />
    <glyph glyph-name="logicalnot" unicode="&#xac;" 
d="M135 608v375h1034v-700h-378v325h-656z" />
    <glyph glyph-name="uni00AD" unicode="&#xad;" horiz-adv-x="804" 
d="M92 424v371h621v-371h-621z" />
    <glyph glyph-name="registered" unicode="&#xae;" horiz-adv-x="1075" 
d="M1016 1028q0 -131 -64 -241t-174 -174t-241 -64q-129 0 -239 63.5t-174.5 174t-64.5 241.5q0 198 139.5 337.5t340.5 139.5q96 0 184.5 -38t152.5 -102t102 -152.5t38 -184.5zM909 1028q0 154 -109 264.5t-261 110.5q-155 0 -263 -110.5t-108 -264.5q0 -156 108 -266.5
t261 -110.5q154 0 263 111t109 266zM483 946v-180h-178v526h260q100 0 146 -32q61 -42 61 -127q0 -114 -102 -164l125 -203h-191l-94 180h-27zM483 1165v-96h45q66 0 66 51q0 25 -16.5 35t-53.5 10h-41z" />
    <glyph glyph-name="macron" unicode="&#xaf;" horiz-adv-x="876" 
d="M164 1202v256h559v-256h-559z" />
    <glyph glyph-name="degree" unicode="&#xb0;" horiz-adv-x="774" 
d="M387 819q-143 0 -242.5 97t-99.5 239t99.5 240t242.5 98q144 0 242 -97.5t98 -240.5t-97.5 -239.5t-242.5 -96.5zM285 1155q0 -43 29 -71.5t73 -28.5q43 0 71.5 28.5t28.5 71.5q0 44 -28.5 73t-71.5 29q-44 0 -73 -29t-29 -73z" />
    <glyph glyph-name="plusminus" unicode="&#xb1;" 
d="M145 664v376h330v234h381v-234h332v-376h-332v-224h-381v224h-330zM145 0v377h1043v-377h-1043z" />
    <glyph glyph-name="twosuperior" unicode="&#xb2;" horiz-adv-x="921" 
d="M373 1118h-293q0 170 98 269.5t289 99.5q180 0 271 -75.5t91 -213.5q0 -107 -58 -189.5t-165 -164.5q-47 -37 -88 -62h318v-229h-750v211q114 73 315 225q129 102 129 180q0 31 -19 49.5t-54 18.5q-84 0 -84 -119z" />
    <glyph glyph-name="threesuperior" unicode="&#xb3;" horiz-adv-x="915" 
d="M354 1178h-274q2 142 99 225.5t263 83.5t260.5 -71.5t94.5 -184.5q0 -71 -27.5 -113t-79.5 -76q66 -36 106 -85.5t40 -127.5q0 -134 -106.5 -213t-289.5 -79q-186 0 -287 88t-106 252h277q5 -61 33 -91t87 -30q53 0 80 24t27 66q0 46 -42 70t-116 24h-51v182h23
q85 0 118 21.5t33 62.5q0 30 -21.5 47t-54.5 17q-83 0 -86 -92z" />
    <glyph glyph-name="acute" unicode="&#xb4;" horiz-adv-x="874" 
d="M592 1186h-445l211 278h531z" />
    <glyph glyph-name="mu" unicode="&#xb5;" horiz-adv-x="1312" 
d="M526 -369h-438v1444h438v-553q0 -125 26.5 -176t96.5 -51q75 0 106 59t31 205v516h439v-899q0 -119 2 -176h-410v121q-21 -46 -60 -77.5t-80 -43t-83 -16.5t-68 4v-357z" />
    <glyph glyph-name="paragraph" unicode="&#xb6;" horiz-adv-x="1429" 
d="M827 1184v-1415h-282v727q-99 9 -188.5 47t-158.5 99.5t-110 150t-41 190.5q0 249 193 381q87 59 186 80.5t240 21.5l645 -2v-280h-88v-1415h-283v1415h-113z" />
    <glyph glyph-name="periodcentered" unicode="&#xb7;" horiz-adv-x="630" 
d="M92 473v408h447v-408h-447z" />
    <glyph glyph-name="cedilla" unicode="&#xb8;" horiz-adv-x="755" 
d="M88 -334l199 244h446l-160 -244h-485z" />
    <glyph glyph-name="onesuperior" unicode="&#xb9;" horiz-adv-x="630" 
d="M264 1120h-231v189h20q92 0 152.5 40t83.5 115h237v-899h-262v555z" />
    <glyph glyph-name="ordmasculine" unicode="&#xba;" horiz-adv-x="1001" 
d="M498 1206q211 0 333.5 -118.5t122.5 -313.5q0 -193 -121 -309.5t-333 -116.5t-332.5 116.5t-120.5 311.5q0 194 121 312t330 118zM496 975q-113 0 -113 -197q0 -97 27 -145.5t88 -48.5t87.5 48t26.5 144q0 97 -26.5 148t-89.5 51z" />
    <glyph glyph-name="guillemotright" unicode="&#xbb;" horiz-adv-x="1236" 
d="M776 586l-196 383h387l217 -383l-217 -385h-387zM262 586l-196 383h387l217 -383l-217 -385h-387z" />
    <glyph glyph-name="onequarter" unicode="&#xbc;" horiz-adv-x="1742" 
d="M1335 152h-430v196l254 346l90 131l51 76h285v-543h103v-206h-103v-152h-250v152zM1329 358v146q0 47 4 125l-69 -109q-28 -43 -60 -88t-51 -74h176zM414 0l563 1464h256l-563 -1464h-256zM285 1120h-232v189h21q187 0 235 155h238v-899h-262v555z" />
    <glyph glyph-name="onehalf" unicode="&#xbd;" horiz-adv-x="1843" 
d="M399 0l564 1464h256l-564 -1464h-256zM285 1120h-232v189h21q187 0 235 155h238v-899h-262v555zM1311 565h-293q0 165 98.5 265t288.5 100q176 0 269 -74.5t93 -210.5q0 -106 -58.5 -188.5t-166.5 -165.5q-47 -37 -88 -62h320v-229h-750v211q114 73 315 225
q129 102 129 180q0 31 -19 49.5t-54 18.5q-84 0 -84 -119z" />
    <glyph glyph-name="threequarters" unicode="&#xbe;" horiz-adv-x="1974" 
d="M1571 152h-430v196l254 346l90 131l51 76h285v-543h102v-206h-102v-152h-250v152zM1565 358v146q0 47 4 125l-70 -109q-28 -43 -59.5 -88t-50.5 -74h176zM649 0l563 1464h256l-563 -1464h-256zM362 1178h-274q2 142 99 225.5t264 83.5q166 0 260 -71.5t94 -184.5
q0 -71 -27.5 -113t-79.5 -76q66 -36 106 -85.5t40 -127.5q0 -134 -106.5 -213t-288.5 -79q-186 0 -287.5 88t-106.5 252h277q5 -61 33.5 -91t87.5 -30q53 0 79.5 24t26.5 66q0 46 -42 70t-116 24h-51v182h23q85 0 118 21.5t33 62.5q0 30 -21 47t-54 17q-84 0 -87 -92z" />
    <glyph glyph-name="questiondown" unicode="&#xbf;" horiz-adv-x="1277" 
d="M784 96h447q-2 -113 -40 -206t-110 -164t-188 -110.5t-266 -39.5q-280 0 -429 116t-149 304q0 121 53.5 209.5t163.5 171.5l31 22q48 35 68 52t42 46t28.5 62t6.5 84h428q0 -84 -10.5 -142.5t-39 -105.5t-61 -80t-93.5 -82l-86 -69q-39 -35 -56.5 -62.5t-17.5 -70.5
q0 -49 33.5 -79t97.5 -30q73 0 110 46t37 128zM432 737v338h449v-338h-449z" />
    <glyph glyph-name="Agrave" unicode="&#xc0;" horiz-adv-x="1531" 
d="M432 0h-473q249 703 537 1464h548q198 -555 531 -1464h-485l-103 291h-457zM635 647h250q-7 24 -29.5 94t-34.5 109t-29.5 100t-29.5 113h-6q-14 -63 -33 -129.5t-49.5 -163.5t-38.5 -123zM1036 1540h-444l-291 256h530z" />
    <glyph glyph-name="Aacute" unicode="&#xc1;" horiz-adv-x="1531" 
d="M432 0h-473q249 703 537 1464h548q198 -555 531 -1464h-485l-103 291h-457zM635 647h250q-7 24 -29.5 94t-34.5 109t-29.5 100t-29.5 113h-6q-14 -63 -33 -129.5t-49.5 -163.5t-38.5 -123zM958 1540h-444l205 256h530z" />
    <glyph glyph-name="Acircumflex" unicode="&#xc2;" horiz-adv-x="1531" 
d="M432 0h-473q249 703 537 1464h548q198 -555 531 -1464h-485l-103 291h-457zM635 647h250q-7 24 -29.5 94t-34.5 109t-29.5 100t-29.5 113h-6q-14 -63 -33 -129.5t-49.5 -163.5t-38.5 -123zM543 1796h434l211 -256h-336l-90 92l-92 -92h-334z" />
    <glyph glyph-name="Atilde" unicode="&#xc3;" horiz-adv-x="1531" 
d="M432 0h-473q249 703 537 1464h548q198 -555 531 -1464h-485l-103 291h-457zM635 647h250q-7 24 -29.5 94t-34.5 109t-29.5 100t-29.5 113h-6q-14 -63 -33 -129.5t-49.5 -163.5t-38.5 -123zM610 1540h-211q0 126 63.5 199t168.5 73q65 0 147 -40q62 -33 82 -33q45 0 47 57
h211q0 -130 -58 -201t-169 -71q-66 0 -131 30l-21 11q-60 32 -82 32q-45 0 -47 -57z" />
    <glyph glyph-name="Adieresis" unicode="&#xc4;" horiz-adv-x="1531" 
d="M432 0h-473q249 703 537 1464h548q198 -555 531 -1464h-485l-103 291h-457zM635 647h250q-7 24 -29.5 94t-34.5 109t-29.5 100t-29.5 113h-6q-14 -63 -33 -129.5t-49.5 -163.5t-38.5 -123zM393 1540v256h305v-256h-305zM821 1540v256h303v-256h-303z" />
    <glyph glyph-name="Aring" unicode="&#xc5;" horiz-adv-x="1531" 
d="M432 0h-473q249 703 537 1464h548q198 -555 531 -1464h-485l-103 291h-457zM635 647h250q-7 24 -29.5 94t-34.5 109t-29.5 100t-29.5 113h-6q-14 -63 -33 -129.5t-49.5 -163.5t-38.5 -123zM756 1511q-95 0 -161.5 69t-66.5 163q0 92 68 159.5t162 67.5t161.5 -67.5
t67.5 -159.5q0 -95 -67.5 -163.5t-163.5 -68.5zM688 1743q0 -29 19.5 -49.5t48.5 -20.5t48 19.5t19 50.5q0 27 -19 46t-48 19t-48.5 -19t-19.5 -46z" />
    <glyph glyph-name="AE" unicode="&#xc6;" horiz-adv-x="2209" 
d="M2132 1464v-360h-635l6 -176h578v-377h-572l4 -191h627v-360h-1089l-9 281h-448l-154 -281h-499l850 1464h1341zM784 647h254q-3 109 -3 248t-3 221h-2q-144 -287 -246 -469z" />
    <glyph glyph-name="Ccedilla" unicode="&#xc7;" horiz-adv-x="1579" 
d="M1049 479h510q-67 -244 -253.5 -375t-482.5 -131q-354 0 -567 203.5t-213 554.5q0 346 215.5 553t566.5 207q306 0 492.5 -138.5t247.5 -391.5h-500q-37 83 -93 125t-145 42q-143 0 -215.5 -104.5t-72.5 -294.5q0 -182 73 -283.5t217 -101.5q148 0 220 135zM410 -334
l198 244h447l-160 -244h-485z" />
    <glyph glyph-name="Egrave" unicode="&#xc8;" horiz-adv-x="1288" 
d="M596 551v-191h623v-360h-1113v1464h1104v-360h-614v-176h561v-377h-561zM952 1540h-444l-291 256h531z" />
    <glyph glyph-name="Eacute" unicode="&#xc9;" horiz-adv-x="1288" 
d="M596 551v-191h623v-360h-1113v1464h1104v-360h-614v-176h561v-377h-561zM827 1540h-444l205 256h530z" />
    <glyph glyph-name="Ecircumflex" unicode="&#xca;" horiz-adv-x="1288" 
d="M596 551v-191h623v-360h-1113v1464h1104v-360h-614v-176h561v-377h-561zM444 1796h435l211 -256h-336l-90 92l-93 -92h-333z" />
    <glyph glyph-name="Edieresis" unicode="&#xcb;" horiz-adv-x="1288" 
d="M596 551v-191h623v-360h-1113v1464h1104v-360h-614v-176h561v-377h-561zM293 1540v256h305v-256h-305zM721 1540v256h303v-256h-303z" />
    <glyph glyph-name="Igrave" unicode="&#xcc;" horiz-adv-x="708" 
d="M602 0h-496v1464h496v-1464zM588 1540h-445l-290 256h530z" />
    <glyph glyph-name="Iacute" unicode="&#xcd;" horiz-adv-x="708" 
d="M602 0h-496v1464h496v-1464zM561 1540h-444l205 256h530z" />
    <glyph glyph-name="Icircumflex" unicode="&#xce;" horiz-adv-x="708" 
d="M602 0h-496v1464h496v-1464zM139 1796h434l211 -256h-335l-91 92l-92 -92h-334z" />
    <glyph glyph-name="Idieresis" unicode="&#xcf;" horiz-adv-x="708" 
d="M602 0h-496v1464h496v-1464zM-4 1540v256h305v-256h-305zM424 1540v256h303v-256h-303z" />
    <glyph glyph-name="Eth" unicode="&#xd0;" horiz-adv-x="1622" 
d="M8 563v361h123v540h520q141 0 213 -2q330 -12 521.5 -202.5t191.5 -522.5q0 -193 -82.5 -362.5t-214.5 -253.5q-123 -72 -267 -96.5t-364 -24.5h-518v563h-123zM621 1112v-188h145v-361h-145v-209h53q102 0 186 23q111 32 164 118.5t53 239.5q0 287 -215 355
q-74 22 -186 22h-55z" />
    <glyph glyph-name="Ntilde" unicode="&#xd1;" horiz-adv-x="1652" 
d="M1546 1464v-1464h-622l-230 530q-95 220 -147 392h-6q16 -219 16 -410v-512h-451v1464h642l170 -420q72 -176 180 -460q1 0 3 1t3 1q-8 175 -8 356v522h450zM694 1540h-211q0 126 63.5 199t168.5 73q65 0 147 -40q62 -33 82 -33q45 0 47 57h211q0 -130 -58 -201t-169 -71
q-66 0 -131 30l-21 11q-60 32 -82 32q-45 0 -47 -57z" />
    <glyph glyph-name="Ograve" unicode="&#xd2;" horiz-adv-x="1656" 
d="M827 1491q232 0 410.5 -92.5t277.5 -265.5t99 -402q0 -233 -98 -405.5t-276 -262.5t-415 -90q-233 0 -409.5 90t-274.5 262.5t-98 405.5q0 229 99 402t276.5 265.5t408.5 92.5zM827 344q140 0 213.5 102t73.5 285q0 189 -73 293t-214 104q-143 0 -215.5 -104.5
t-72.5 -294.5q0 -182 72.5 -283.5t215.5 -101.5zM1106 1540h-444l-291 256h530z" />
    <glyph glyph-name="Oacute" unicode="&#xd3;" horiz-adv-x="1656" 
d="M827 1491q232 0 410.5 -92.5t277.5 -265.5t99 -402q0 -233 -98 -405.5t-276 -262.5t-415 -90q-233 0 -409.5 90t-274.5 262.5t-98 405.5q0 229 99 402t276.5 265.5t408.5 92.5zM827 344q140 0 213.5 102t73.5 285q0 189 -73 293t-214 104q-143 0 -215.5 -104.5
t-72.5 -294.5q0 -182 72.5 -283.5t215.5 -101.5zM1012 1540h-445l205 256h531z" />
    <glyph glyph-name="Ocircumflex" unicode="&#xd4;" horiz-adv-x="1656" 
d="M827 1491q232 0 410.5 -92.5t277.5 -265.5t99 -402q0 -233 -98 -405.5t-276 -262.5t-415 -90q-233 0 -409.5 90t-274.5 262.5t-98 405.5q0 229 99 402t276.5 265.5t408.5 92.5zM827 344q140 0 213.5 102t73.5 285q0 189 -73 293t-214 104q-143 0 -215.5 -104.5
t-72.5 -294.5q0 -182 72.5 -283.5t215.5 -101.5zM608 1796h434l211 -256h-335l-91 92l-92 -92h-334z" />
    <glyph glyph-name="Otilde" unicode="&#xd5;" horiz-adv-x="1656" 
d="M827 1491q232 0 410.5 -92.5t277.5 -265.5t99 -402q0 -233 -98 -405.5t-276 -262.5t-415 -90q-233 0 -409.5 90t-274.5 262.5t-98 405.5q0 229 99 402t276.5 265.5t408.5 92.5zM827 344q140 0 213.5 102t73.5 285q0 189 -73 293t-214 104q-143 0 -215.5 -104.5
t-72.5 -294.5q0 -182 72.5 -283.5t215.5 -101.5zM684 1540h-211q0 126 63.5 199t168.5 73q65 0 147 -40q62 -33 82 -33q45 0 47 57h211q0 -130 -58 -201t-169 -71q-66 0 -131 30l-21 11q-60 32 -82 32q-45 0 -47 -57z" />
    <glyph glyph-name="Odieresis" unicode="&#xd6;" horiz-adv-x="1656" 
d="M827 1491q232 0 410.5 -92.5t277.5 -265.5t99 -402q0 -233 -98 -405.5t-276 -262.5t-415 -90q-233 0 -409.5 90t-274.5 262.5t-98 405.5q0 229 99 402t276.5 265.5t408.5 92.5zM827 344q140 0 213.5 102t73.5 285q0 189 -73 293t-214 104q-143 0 -215.5 -104.5
t-72.5 -294.5q0 -182 72.5 -283.5t215.5 -101.5zM467 1540v256h305v-256h-305zM895 1540v256h303v-256h-303z" />
    <glyph glyph-name="multiply" unicode="&#xd7;" 
d="M926 1174l260 -261l-260 -260l258 -258l-258 -258l-258 258l-258 -258l-260 260l258 258l-258 258l258 258l258 -258z" />
    <glyph glyph-name="Oslash" unicode="&#xd8;" horiz-adv-x="1656" 
d="M827 1491q92 0 183 -16l84 149l374 -199l-77 -137q223 -207 223 -557q0 -233 -98 -405.5t-276 -262.5t-415 -90q-93 0 -178 15l-88 -158l-375 199l80 141q-221 208 -221 561q0 229 99 402t276.5 265.5t408.5 92.5zM539 729q0 -28 4 -90l280 489q-140 -1 -212 -106
t-72 -293zM1114 731q0 28 -4 90l-272 -477q135 4 205.5 106t70.5 281z" />
    <glyph glyph-name="Ugrave" unicode="&#xd9;" horiz-adv-x="1540" 
d="M1450 1464v-852q0 -167 -39.5 -278.5t-120.5 -192.5q-175 -172 -520 -172t-520 172q-81 81 -120.5 192.5t-39.5 278.5v852h496v-829q0 -116 48.5 -177t135.5 -61q186 0 186 248v819h494zM1030 1540h-444l-291 256h530z" />
    <glyph glyph-name="Uacute" unicode="&#xda;" horiz-adv-x="1540" 
d="M1450 1464v-852q0 -167 -39.5 -278.5t-120.5 -192.5q-175 -172 -520 -172t-520 172q-81 81 -120.5 192.5t-39.5 278.5v852h496v-829q0 -116 48.5 -177t135.5 -61q186 0 186 248v819h494zM928 1540h-445l205 256h531z" />
    <glyph glyph-name="Ucircumflex" unicode="&#xdb;" horiz-adv-x="1540" 
d="M1450 1464v-852q0 -167 -39.5 -278.5t-120.5 -192.5q-175 -172 -520 -172t-520 172q-81 81 -120.5 192.5t-39.5 278.5v852h496v-829q0 -116 48.5 -177t135.5 -61q186 0 186 248v819h494zM551 1796h434l211 -256h-336l-90 92l-92 -92h-334z" />
    <glyph glyph-name="Udieresis" unicode="&#xdc;" horiz-adv-x="1540" 
d="M1450 1464v-852q0 -167 -39.5 -278.5t-120.5 -192.5q-175 -172 -520 -172t-520 172q-81 81 -120.5 192.5t-39.5 278.5v852h496v-829q0 -116 48.5 -177t135.5 -61q186 0 186 248v819h494zM414 1540v256h305v-256h-305zM842 1540v256h303v-256h-303z" />
    <glyph glyph-name="Yacute" unicode="&#xdd;" horiz-adv-x="1355" 
d="M881 1464h516l-281 -546l-192 -373v-545h-498v545l-166 336q-244 487 -295 583h527q41 -88 106 -253t88 -218h4q16 39 50 127.5t67 169.5t74 174zM852 1540h-444l204 256h531z" />
    <glyph glyph-name="Thorn" unicode="&#xde;" horiz-adv-x="1361" 
d="M106 1462h496v-207h82q109 0 158 -2q245 -7 380.5 -138.5t135.5 -350.5q0 -120 -45 -220t-129 -161q-82 -63 -195 -85t-289 -22h-98v-276h-496v1462zM602 907v-280h92q189 0 189 141q0 72 -46.5 105.5t-148.5 33.5h-86z" />
    <glyph glyph-name="germandbls" unicode="&#xdf;" horiz-adv-x="1267" 
d="M578 -2l-3 305q28 -4 48 -4q74 0 125 47.5t51 145.5q0 46 -15 80.5t-35.5 52.5t-49.5 29t-50 13.5t-43 2.5h-16v278q145 0 145 121q0 50 -28 77.5t-74 27.5q-58 0 -84 -39q-23 -35 -23 -113v-1022h-438v946q0 147 32 243.5t101 164.5q132 129 414 129q237 0 379 -92
q69 -47 106 -119t37 -158q0 -201 -153 -297q101 -48 162 -138t61 -224q0 -118 -40 -208.5t-111.5 -146.5t-164.5 -84t-204 -28q-64 0 -129 10z" />
    <glyph glyph-name="agrave" unicode="&#xe0;" horiz-adv-x="1198" 
d="M1147 0h-377q-6 41 -6 115h-4q-102 -138 -338 -138q-181 0 -286 87.5t-105 240.5q0 124 81 200.5t240 119.5q130 38 373 51q0 88 -30.5 124t-94.5 36q-61 0 -92.5 -33t-38.5 -86h-395q17 189 158 291t370 102q127 0 220.5 -25t163 -81.5t104 -152.5t34.5 -233v-266
q0 -99 1 -147t6 -107t16 -98zM719 451l-68 -11q-125 -19 -170 -44.5t-45 -78.5q0 -48 31 -74t90 -26q74 0 118 44.5t44 141.5v48zM899 1186h-444l-297 278h530z" />
    <glyph glyph-name="aacute" unicode="&#xe1;" horiz-adv-x="1198" 
d="M1147 0h-377q-6 41 -6 115h-4q-102 -138 -338 -138q-181 0 -286 87.5t-105 240.5q0 124 81 200.5t240 119.5q130 38 373 51q0 88 -30.5 124t-94.5 36q-61 0 -92.5 -33t-38.5 -86h-395q17 189 158 291t370 102q127 0 220.5 -25t163 -81.5t104 -152.5t34.5 -233v-266
q0 -99 1 -147t6 -107t16 -98zM719 451l-68 -11q-125 -19 -170 -44.5t-45 -78.5q0 -48 31 -74t90 -26q74 0 118 44.5t44 141.5v48zM797 1186h-445l211 278h531z" />
    <glyph glyph-name="acircumflex" unicode="&#xe2;" horiz-adv-x="1198" 
d="M1147 0h-377q-6 41 -6 115h-4q-102 -138 -338 -138q-181 0 -286 87.5t-105 240.5q0 124 81 200.5t240 119.5q130 38 373 51q0 88 -30.5 124t-94.5 36q-61 0 -92.5 -33t-38.5 -86h-395q17 189 158 291t370 102q127 0 220.5 -25t163 -81.5t104 -152.5t34.5 -233v-266
q0 -99 1 -147t6 -107t16 -98zM719 451l-68 -11q-125 -19 -170 -44.5t-45 -78.5q0 -48 31 -74t90 -26q74 0 118 44.5t44 141.5v48zM389 1464h451l221 -278h-354l-91 96l-92 -96h-350z" />
    <glyph glyph-name="atilde" unicode="&#xe3;" horiz-adv-x="1198" 
d="M1147 0h-377q-6 41 -6 115h-4q-102 -138 -338 -138q-181 0 -286 87.5t-105 240.5q0 124 81 200.5t240 119.5q130 38 373 51q0 88 -30.5 124t-94.5 36q-61 0 -92.5 -33t-38.5 -86h-395q17 189 158 291t370 102q127 0 220.5 -25t163 -81.5t104 -152.5t34.5 -233v-266
q0 -99 1 -147t6 -107t16 -98zM719 451l-68 -11q-125 -19 -170 -44.5t-45 -78.5q0 -48 31 -74t90 -26q74 0 118 44.5t44 141.5v48zM451 1186h-226q0 134 67.5 214.5t178.5 80.5q75 0 156 -43q65 -33 88 -33t35.5 12.5t13.5 46.5h225q0 -140 -61 -217.5t-180 -77.5
q-78 0 -140 33l-20 10q-67 33 -88 33q-23 0 -35.5 -12.5t-13.5 -46.5z" />
    <glyph glyph-name="adieresis" unicode="&#xe4;" horiz-adv-x="1198" 
d="M1147 0h-377q-6 41 -6 115h-4q-102 -138 -338 -138q-181 0 -286 87.5t-105 240.5q0 124 81 200.5t240 119.5q130 38 373 51q0 88 -30.5 124t-94.5 36q-61 0 -92.5 -33t-38.5 -86h-395q17 189 158 291t370 102q127 0 220.5 -25t163 -81.5t104 -152.5t34.5 -233v-266
q0 -99 1 -147t6 -107t16 -98zM719 451l-68 -11q-125 -19 -170 -44.5t-45 -78.5q0 -48 31 -74t90 -26q74 0 118 44.5t44 141.5v48zM252 1186v278h315v-278h-315zM690 1186v278h314v-278h-314z" />
    <glyph glyph-name="aring" unicode="&#xe5;" horiz-adv-x="1198" 
d="M1147 0h-377q-6 41 -6 115h-4q-102 -138 -338 -138q-181 0 -286 87.5t-105 240.5q0 124 81 200.5t240 119.5q130 38 373 51q0 88 -30.5 124t-94.5 36q-61 0 -92.5 -33t-38.5 -86h-395q17 189 158 291t370 102q127 0 220.5 -25t163 -81.5t104 -152.5t34.5 -233v-266
q0 -99 1 -147t6 -107t16 -98zM719 451l-68 -11q-125 -19 -170 -44.5t-45 -78.5q0 -48 31 -74t90 -26q74 0 118 44.5t44 141.5v48zM612 1155q-95 0 -161 68.5t-66 162.5q0 92 67.5 160t161.5 68t162 -68t68 -160q0 -94 -68 -162.5t-164 -68.5zM545 1386q0 -29 19 -49t48 -20
q30 0 49 19.5t19 49.5q0 27 -19.5 46.5t-48.5 19.5t-48 -19.5t-19 -46.5z" />
    <glyph glyph-name="ae" unicode="&#xe6;" horiz-adv-x="1914" 
d="M1450 352h428q-52 -175 -204 -280t-388 -105q-268 0 -422 148q-60 -60 -167 -99t-255 -39q-199 0 -305 86.5t-106 241.5q0 124 81 200.5t240 119.5q130 38 373 51q0 88 -30.5 124t-94.5 36q-61 0 -92.5 -33t-38.5 -86h-395q17 189 158 291t370 102q231 0 354 -92
q153 94 349 94q265 0 425 -159.5t160 -446.5q0 -33 -2 -60h-762q4 -92 48 -140t122 -48q66 0 103.5 28.5t50.5 65.5zM719 451l-68 -11q-125 -19 -170 -44.5t-45 -78.5q0 -48 31 -74t90 -26q74 0 118 44.5t44 141.5v48zM1128 670h336q-18 170 -161 170q-76 0 -120 -45
t-55 -125z" />
    <glyph glyph-name="ccedilla" unicode="&#xe7;" horiz-adv-x="1232" 
d="M776 397h436q-38 -199 -184.5 -314.5t-398.5 -115.5q-274 0 -432 157.5t-158 412.5q0 256 163 415.5t437 159.5q237 0 387 -115.5t182 -318.5h-432q-28 127 -139 127q-158 0 -158 -264q0 -132 38.5 -197t121.5 -65q110 0 137 118zM233 -334l199 244h447l-160 -244h-486z
" />
    <glyph glyph-name="egrave" unicode="&#xe8;" horiz-adv-x="1253" 
d="M788 352h429q-56 -176 -205 -280.5t-387 -104.5q-275 0 -430.5 156.5t-155.5 423.5q0 249 167 407t431 158q270 0 431 -159t161 -447q0 -33 -2 -60h-762q4 -92 48 -140t122 -48q66 0 103 28.5t50 65.5zM467 670h336q-18 170 -162 170q-76 0 -119.5 -45t-54.5 -125z
M918 1186h-445l-297 278h531z" />
    <glyph glyph-name="eacute" unicode="&#xe9;" horiz-adv-x="1253" 
d="M788 352h429q-56 -176 -205 -280.5t-387 -104.5q-275 0 -430.5 156.5t-155.5 423.5q0 249 167 407t431 158q270 0 431 -159t161 -447q0 -33 -2 -60h-762q4 -92 48 -140t122 -48q66 0 103 28.5t50 65.5zM467 670h336q-18 170 -162 170q-76 0 -119.5 -45t-54.5 -125z
M807 1186h-445l211 278h531z" />
    <glyph glyph-name="ecircumflex" unicode="&#xea;" horiz-adv-x="1253" 
d="M788 352h429q-56 -176 -205 -280.5t-387 -104.5q-275 0 -430.5 156.5t-155.5 423.5q0 249 167 407t431 158q270 0 431 -159t161 -447q0 -33 -2 -60h-762q4 -92 48 -140t122 -48q66 0 103 28.5t50 65.5zM467 670h336q-18 170 -162 170q-76 0 -119.5 -45t-54.5 -125z
M414 1464h450l221 -278h-354l-90 96l-92 -96h-350z" />
    <glyph glyph-name="edieresis" unicode="&#xeb;" horiz-adv-x="1253" 
d="M788 352h429q-56 -176 -205 -280.5t-387 -104.5q-275 0 -430.5 156.5t-155.5 423.5q0 249 167 407t431 158q270 0 431 -159t161 -447q0 -33 -2 -60h-762q4 -92 48 -140t122 -48q66 0 103 28.5t50 65.5zM467 670h336q-18 170 -162 170q-76 0 -119.5 -45t-54.5 -125z
M270 1186v278h316v-278h-316zM709 1186v278h313v-278h-313z" />
    <glyph glyph-name="igrave" unicode="&#xec;" horiz-adv-x="614" 
d="M526 0h-438v1075h438v-1075zM549 1186h-445l-297 278h531z" />
    <glyph glyph-name="iacute" unicode="&#xed;" horiz-adv-x="614" 
d="M526 0h-438v1075h438v-1075zM532 1186h-444l211 278h530z" />
    <glyph glyph-name="icircumflex" unicode="&#xee;" horiz-adv-x="614" 
d="M526 0h-438v1075h438v-1075zM84 1464h451l221 -278h-355l-90 96l-92 -96h-350z" />
    <glyph glyph-name="idieresis" unicode="&#xef;" horiz-adv-x="614" 
d="M526 0h-438v1075h438v-1075zM-70 1186v278h316v-278h-316zM369 1186v278h313v-278h-313z" />
    <glyph glyph-name="eth" unicode="&#xf0;" horiz-adv-x="1296" 
d="M84 1464h633l20 -12l121 53l168 -155l-98 -43q321 -304 321 -719q0 -311 -161.5 -466t-450.5 -155q-269 0 -433.5 155.5t-164.5 416.5q0 108 31.5 201.5t84 159.5t121 113.5t144 70t151.5 22.5q36 0 64 -4l4 4l-51 51l-111 -47l-188 145l102 45q-98 61 -307 164zM639 805
q-83 0 -119.5 -67.5t-36.5 -196.5q0 -132 36.5 -197t121.5 -65q83 0 119.5 65t36.5 195t-37 198t-121 68z" />
    <glyph glyph-name="ntilde" unicode="&#xf1;" horiz-adv-x="1310" 
d="M86 1075h408q0 -11 0.5 -35.5t0.5 -49t-1 -48.5h4q38 70 126.5 115t215.5 45q116 0 202.5 -44t133.5 -128q35 -63 46 -138.5t11 -222.5v-569h-438v549q0 125 -27.5 178t-99.5 53q-79 0 -110.5 -60t-31.5 -208v-512h-438v897q0 119 -2 178zM518 1186h-225
q0 134 67.5 214.5t178.5 80.5q74 0 155 -43q65 -33 88 -33t35.5 12.5t13.5 46.5h226q0 -139 -61.5 -217t-180.5 -78q-77 0 -139 33l-21 10q-67 33 -88 33q-23 0 -35.5 -12.5t-13.5 -46.5z" />
    <glyph glyph-name="ograve" unicode="&#xf2;" horiz-adv-x="1286" 
d="M641 1112q279 0 442.5 -158.5t163.5 -416.5q0 -256 -162 -413t-442 -157q-283 0 -443.5 157t-160.5 415q0 257 161.5 415t440.5 158zM639 805q-83 0 -119.5 -67.5t-36.5 -196.5q0 -132 36.5 -197t121.5 -65q83 0 119.5 65t36.5 195t-37 198t-121 68zM909 1186h-444
l-297 278h530z" />
    <glyph glyph-name="oacute" unicode="&#xf3;" horiz-adv-x="1286" 
d="M641 1112q279 0 442.5 -158.5t163.5 -416.5q0 -256 -162 -413t-442 -157q-283 0 -443.5 157t-160.5 415q0 257 161.5 415t440.5 158zM639 805q-83 0 -119.5 -67.5t-36.5 -196.5q0 -132 36.5 -197t121.5 -65q83 0 119.5 65t36.5 195t-37 198t-121 68zM801 1186h-445
l211 278h531z" />
    <glyph glyph-name="ocircumflex" unicode="&#xf4;" horiz-adv-x="1286" 
d="M641 1112q279 0 442.5 -158.5t163.5 -416.5q0 -256 -162 -413t-442 -157q-283 0 -443.5 157t-160.5 415q0 257 161.5 415t440.5 158zM639 805q-83 0 -119.5 -67.5t-36.5 -196.5q0 -132 36.5 -197t121.5 -65q83 0 119.5 65t36.5 195t-37 198t-121 68zM414 1464h450
l221 -278h-354l-90 96l-92 -96h-350z" />
    <glyph glyph-name="otilde" unicode="&#xf5;" horiz-adv-x="1286" 
d="M641 1112q279 0 442.5 -158.5t163.5 -416.5q0 -256 -162 -413t-442 -157q-283 0 -443.5 157t-160.5 415q0 257 161.5 415t440.5 158zM639 805q-83 0 -119.5 -67.5t-36.5 -196.5q0 -132 36.5 -197t121.5 -65q83 0 119.5 65t36.5 195t-37 198t-121 68zM479 1186h-225
q0 134 67.5 214.5t178.5 80.5q74 0 155 -43q65 -33 88 -33t36 12.5t14 46.5h225q0 -139 -61.5 -217t-180.5 -78q-77 0 -139 33l-21 10q-67 33 -88 33q-23 0 -35.5 -12.5t-13.5 -46.5z" />
    <glyph glyph-name="odieresis" unicode="&#xf6;" horiz-adv-x="1286" 
d="M641 1112q279 0 442.5 -158.5t163.5 -416.5q0 -256 -162 -413t-442 -157q-283 0 -443.5 157t-160.5 415q0 257 161.5 415t440.5 158zM639 805q-83 0 -119.5 -67.5t-36.5 -196.5q0 -132 36.5 -197t121.5 -65q83 0 119.5 65t36.5 195t-37 198t-121 68zM262 1186v278h316
v-278h-316zM700 1186v278h314v-278h-314z" />
    <glyph glyph-name="divide" unicode="&#xf7;" 
d="M158 467v356h1020v-356h-1020zM457 88v322h420v-322h-420zM457 879v321h420v-321h-420z" />
    <glyph glyph-name="oslash" unicode="&#xf8;" horiz-adv-x="1286" 
d="M641 1112q70 0 111 -8l73 129l314 -158l-66 -112q174 -157 174 -426q0 -256 -162 -413t-442 -157q-62 0 -127 10l-70 -122l-313 161l64 111q-158 152 -158 412q0 257 161.5 415t440.5 158zM797 539q0 27 -2 41l-170 -301h16q83 0 119.5 65t36.5 195zM645 805h-6
q-83 0 -119.5 -67.5t-36.5 -196.5v-23z" />
    <glyph glyph-name="ugrave" unicode="&#xf9;" horiz-adv-x="1302" 
d="M1217 0h-408q0 11 -0.5 34.5t-0.5 47t1 47.5h-4q-38 -65 -133 -110.5t-219 -45.5q-107 0 -189 44t-129 128q-35 63 -46 138.5t-11 222.5v569h438v-553q0 -125 26.5 -176t96.5 -51q75 0 106 59t31 205v516h438v-897q0 -90 3 -178zM938 1186h-444l-297 278h530z" />
    <glyph glyph-name="uacute" unicode="&#xfa;" horiz-adv-x="1302" 
d="M1217 0h-408q0 11 -0.5 34.5t-0.5 47t1 47.5h-4q-38 -65 -133 -110.5t-219 -45.5q-107 0 -189 44t-129 128q-35 63 -46 138.5t-11 222.5v569h438v-553q0 -125 26.5 -176t96.5 -51q75 0 106 59t31 205v516h438v-897q0 -90 3 -178zM797 1186h-445l211 278h531z" />
    <glyph glyph-name="ucircumflex" unicode="&#xfb;" horiz-adv-x="1302" 
d="M1217 0h-408q0 11 -0.5 34.5t-0.5 47t1 47.5h-4q-38 -65 -133 -110.5t-219 -45.5q-107 0 -189 44t-129 128q-35 63 -46 138.5t-11 222.5v569h438v-553q0 -125 26.5 -176t96.5 -51q75 0 106 59t31 205v516h438v-897q0 -90 3 -178zM416 1464h450l221 -278h-354l-90 96
l-92 -96h-350z" />
    <glyph glyph-name="udieresis" unicode="&#xfc;" horiz-adv-x="1302" 
d="M1217 0h-408q0 11 -0.5 34.5t-0.5 47t1 47.5h-4q-38 -65 -133 -110.5t-219 -45.5q-107 0 -189 44t-129 128q-35 63 -46 138.5t-11 222.5v569h438v-553q0 -125 26.5 -176t96.5 -51q75 0 106 59t31 205v516h438v-897q0 -90 3 -178zM270 1186v278h316v-278h-316zM709 1186
v278h313v-278h-313z" />
    <glyph glyph-name="yacute" unicode="&#xfd;" horiz-adv-x="1224" 
d="M776 1075h463q-67 -185 -266.5 -745.5t-249.5 -698.5h-459q9 29 61.5 171t67.5 194q-27 68 -128.5 320t-170 427.5t-125.5 331.5h475q31 -122 86 -307.5t76 -261.5h10zM780 1186h-444l211 278h530z" />
    <glyph glyph-name="thorn" unicode="&#xfe;" 
d="M88 1462h438v-274q0 -46 -1 -114t-1 -89q103 127 301 127q214 0 340.5 -156.5t126.5 -414.5q0 -261 -127.5 -410t-339.5 -149q-191 0 -301 133q0 -27 1 -104t1 -105v-275h-438v1831zM670 805q-76 0 -113 -70.5t-37 -193.5q0 -262 152 -262q149 0 149 260q0 266 -151 266z
" />
    <glyph glyph-name="ydieresis" unicode="&#xff;" horiz-adv-x="1224" 
d="M776 1075h463q-67 -185 -266.5 -745.5t-249.5 -698.5h-459q9 29 61.5 171t67.5 194q-27 68 -128.5 320t-170 427.5t-125.5 331.5h475q31 -122 86 -307.5t76 -261.5h10zM229 1186v278h316v-278h-316zM668 1186v278h313v-278h-313z" />
    <glyph glyph-name="Amacron" unicode="&#x100;" horiz-adv-x="1531" 
d="M432 0h-473q249 703 537 1464h548q198 -555 531 -1464h-485l-103 291h-457zM635 647h250q-7 24 -29.5 94t-34.5 109t-29.5 100t-29.5 113h-6q-14 -63 -33 -129.5t-49.5 -163.5t-38.5 -123zM479 1540v246h559v-246h-559z" />
    <glyph glyph-name="amacron" unicode="&#x101;" horiz-adv-x="1198" 
d="M1147 0h-377q-6 41 -6 115h-4q-102 -138 -338 -138q-181 0 -286 87.5t-105 240.5q0 124 81 200.5t240 119.5q130 38 373 51q0 88 -30.5 124t-94.5 36q-61 0 -92.5 -33t-38.5 -86h-395q17 189 158 291t370 102q127 0 220.5 -25t163 -81.5t104 -152.5t34.5 -233v-266
q0 -99 1 -147t6 -107t16 -98zM719 451l-68 -11q-125 -19 -170 -44.5t-45 -78.5q0 -48 31 -74t90 -26q74 0 118 44.5t44 141.5v48zM332 1202v256h559v-256h-559z" />
    <glyph glyph-name="Abreve" unicode="&#x102;" horiz-adv-x="1531" 
d="M432 0h-473q249 703 537 1464h548q198 -555 531 -1464h-485l-103 291h-457zM635 647h250q-7 24 -29.5 94t-34.5 109t-29.5 100t-29.5 113h-6q-14 -63 -33 -129.5t-49.5 -163.5t-38.5 -123zM762 1516q-137 0 -222.5 73.5t-95.5 206.5h238q10 -65 80 -65q65 0 80 65h235
q-12 -134 -95.5 -207t-219.5 -73z" />
    <glyph glyph-name="abreve" unicode="&#x103;" horiz-adv-x="1198" 
d="M1147 0h-377q-6 41 -6 115h-4q-102 -138 -338 -138q-181 0 -286 87.5t-105 240.5q0 124 81 200.5t240 119.5q130 38 373 51q0 88 -30.5 124t-94.5 36q-61 0 -92.5 -33t-38.5 -86h-395q17 189 158 291t370 102q127 0 220.5 -25t163 -81.5t104 -152.5t34.5 -233v-266
q0 -99 1 -147t6 -107t16 -98zM719 451l-68 -11q-125 -19 -170 -44.5t-45 -78.5q0 -48 31 -74t90 -26q74 0 118 44.5t44 141.5v48zM621 1171q-143 0 -231.5 77t-98.5 216h246q13 -67 84 -67q67 0 84 67h243q-12 -140 -98.5 -216.5t-228.5 -76.5z" />
    <glyph glyph-name="Aogonek" unicode="&#x104;" horiz-adv-x="1531" 
d="M432 0h-473q249 703 537 1464h548q198 -555 531 -1464h-485l-103 291h-457zM635 647h250q-7 24 -29.5 94t-34.5 109t-29.5 100t-29.5 113h-6q-14 -63 -33 -129.5t-49.5 -163.5t-38.5 -123zM1540 -90l199 -244h-486l-159 244h446z" />
    <glyph glyph-name="aogonek" unicode="&#x105;" horiz-adv-x="1198" 
d="M1147 0h-377q-6 41 -6 115h-4q-102 -138 -338 -138q-181 0 -286 87.5t-105 240.5q0 124 81 200.5t240 119.5q130 38 373 51q0 88 -30.5 124t-94.5 36q-61 0 -92.5 -33t-38.5 -86h-395q17 189 158 291t370 102q127 0 220.5 -25t163 -81.5t104 -152.5t34.5 -233v-266
q0 -99 1 -147t6 -107t16 -98zM719 451l-68 -11q-125 -19 -170 -44.5t-45 -78.5q0 -48 31 -74t90 -26q74 0 118 44.5t44 141.5v48zM1176 -90l198 -244h-485l-160 244h447z" />
    <glyph glyph-name="Cacute" unicode="&#x106;" horiz-adv-x="1579" 
d="M1049 479h510q-67 -244 -253.5 -375t-482.5 -131q-354 0 -567 203.5t-213 554.5q0 346 215.5 553t566.5 207q306 0 492.5 -138.5t247.5 -391.5h-500q-37 83 -93 125t-145 42q-143 0 -215.5 -104.5t-72.5 -294.5q0 -182 73 -283.5t217 -101.5q148 0 220 135zM1032 1540
h-444l205 256h530z" />
    <glyph glyph-name="cacute" unicode="&#x107;" horiz-adv-x="1232" 
d="M776 397h436q-38 -199 -184.5 -314.5t-398.5 -115.5q-274 0 -432 157.5t-158 412.5q0 256 163 415.5t437 159.5q237 0 387 -115.5t182 -318.5h-432q-28 127 -139 127q-158 0 -158 -264q0 -132 38.5 -197t121.5 -65q110 0 137 118zM829 1186h-444l211 278h530z" />
    <glyph glyph-name="Ccircumflex" unicode="&#x108;" horiz-adv-x="1579" 
d="M1049 479h510q-67 -244 -253.5 -375t-482.5 -131q-354 0 -567 203.5t-213 554.5q0 346 215.5 553t566.5 207q306 0 492.5 -138.5t247.5 -391.5h-500q-37 83 -93 125t-145 42q-143 0 -215.5 -104.5t-72.5 -294.5q0 -182 73 -283.5t217 -101.5q148 0 220 135zM600 1796h434
l211 -256h-336l-90 92l-92 -92h-334z" />
    <glyph glyph-name="ccircumflex" unicode="&#x109;" horiz-adv-x="1232" 
d="M776 397h436q-38 -199 -184.5 -314.5t-398.5 -115.5q-274 0 -432 157.5t-158 412.5q0 256 163 415.5t437 159.5q237 0 387 -115.5t182 -318.5h-432q-28 127 -139 127q-158 0 -158 -264q0 -132 38.5 -197t121.5 -65q110 0 137 118zM418 1464h450l222 -278h-355l-90 96
l-92 -96h-350z" />
    <glyph glyph-name="Cdotaccent" unicode="&#x10a;" horiz-adv-x="1579" 
d="M1049 479h510q-67 -244 -253.5 -375t-482.5 -131q-354 0 -567 203.5t-213 554.5q0 346 215.5 553t566.5 207q306 0 492.5 -138.5t247.5 -391.5h-500q-37 83 -93 125t-145 42q-143 0 -215.5 -104.5t-72.5 -294.5q0 -182 73 -283.5t217 -101.5q148 0 220 135zM676 1540v256
h315v-256h-315z" />
    <glyph glyph-name="cdotaccent" unicode="&#x10b;" horiz-adv-x="1232" 
d="M776 397h436q-38 -199 -184.5 -314.5t-398.5 -115.5q-274 0 -432 157.5t-158 412.5q0 256 163 415.5t437 159.5q237 0 387 -115.5t182 -318.5h-432q-28 127 -139 127q-158 0 -158 -264q0 -132 38.5 -197t121.5 -65q110 0 137 118zM481 1186v278h326v-278h-326z" />
    <glyph glyph-name="Ccaron" unicode="&#x10c;" horiz-adv-x="1579" 
d="M1049 479h510q-67 -244 -253.5 -375t-482.5 -131q-354 0 -567 203.5t-213 554.5q0 346 215.5 553t566.5 207q306 0 492.5 -138.5t247.5 -391.5h-500q-37 83 -93 125t-145 42q-143 0 -215.5 -104.5t-72.5 -294.5q0 -182 73 -283.5t217 -101.5q148 0 220 135zM1042 1540
h-434l-207 256h334l92 -92l91 92h335z" />
    <glyph glyph-name="ccaron" unicode="&#x10d;" horiz-adv-x="1232" 
d="M776 397h436q-38 -199 -184.5 -314.5t-398.5 -115.5q-274 0 -432 157.5t-158 412.5q0 256 163 415.5t437 159.5q237 0 387 -115.5t182 -318.5h-432q-28 127 -139 127q-158 0 -158 -264q0 -132 38.5 -197t121.5 -65q110 0 137 118zM877 1186h-451l-215 278h350l92 -96
l90 96h355z" />
    <glyph glyph-name="Dcaron" unicode="&#x10e;" horiz-adv-x="1597" 
d="M106 0v1464h521q141 0 213 -2q330 -12 521 -202t191 -523q0 -193 -82.5 -362.5t-214.5 -253.5q-123 -72 -266.5 -96.5t-363.5 -24.5h-519zM596 1112v-758h53q103 0 187 23q111 32 164 118.5t53 239.5q0 287 -215 355q-74 22 -187 22h-55zM940 1540h-434l-207 256h334
l92 -92l90 92h336z" />
    <glyph glyph-name="dcaron" unicode="&#x10f;" horiz-adv-x="1665" 
d="M1247 0h-420q0 92 2 127q-114 -152 -325 -152q-213 0 -337 152.5t-124 409.5q0 261 125.5 415t335.5 154q197 0 307 -133q0 27 -1 104t-1 105v282h438v-1464zM664 805q-76 0 -113 -70.5t-37 -193.5q0 -262 152 -262q149 0 149 260q0 266 -151 266zM1876 1464l-199 -522
h-372l143 522h428z" />
    <glyph glyph-name="Dcroat" unicode="&#x110;" horiz-adv-x="1622" 
d="M8 563v361h123v540h520q141 0 213 -2q330 -12 521.5 -202.5t191.5 -522.5q0 -193 -82.5 -362.5t-214.5 -253.5q-123 -72 -267 -96.5t-364 -24.5h-518v563h-123zM621 1112v-188h145v-361h-145v-209h53q102 0 186 23q111 32 164 118.5t53 239.5q0 287 -215 355
q-74 22 -186 22h-55z" />
    <glyph glyph-name="dcroat" unicode="&#x111;" 
d="M721 1118v277h88v69h438v-69h51v-277h-51v-1118h-420q0 92 2 127q-114 -152 -325 -152q-213 0 -337 152.5t-124 409.5q0 261 125.5 415t335.5 154q197 0 307 -133q0 15 -1 66t-1 79h-88zM664 805q-76 0 -113 -70.5t-37 -193.5q0 -262 152 -262q149 0 149 260
q0 266 -151 266z" />
    <glyph glyph-name="Emacron" unicode="&#x112;" horiz-adv-x="1288" 
d="M596 551v-191h623v-360h-1113v1464h1104v-360h-614v-176h561v-377h-561zM389 1540v246h559v-246h-559z" />
    <glyph glyph-name="emacron" unicode="&#x113;" horiz-adv-x="1253" 
d="M788 352h429q-56 -176 -205 -280.5t-387 -104.5q-275 0 -430.5 156.5t-155.5 423.5q0 249 167 407t431 158q270 0 431 -159t161 -447q0 -33 -2 -60h-762q4 -92 48 -140t122 -48q66 0 103 28.5t50 65.5zM467 670h336q-18 170 -162 170q-76 0 -119.5 -45t-54.5 -125z
M360 1202v256h560v-256h-560z" />
    <glyph glyph-name="Ebreve" unicode="&#x114;" horiz-adv-x="1288" 
d="M596 551v-191h623v-360h-1113v1464h1104v-360h-614v-176h561v-377h-561zM653 1516q-137 0 -222 73.5t-95 206.5h237q10 -65 80 -65q65 0 80 65h236q-12 -134 -96 -207t-220 -73z" />
    <glyph glyph-name="ebreve" unicode="&#x115;" horiz-adv-x="1253" 
d="M788 352h429q-56 -176 -205 -280.5t-387 -104.5q-275 0 -430.5 156.5t-155.5 423.5q0 249 167 407t431 158q270 0 431 -159t161 -447q0 -33 -2 -60h-762q4 -92 48 -140t122 -48q66 0 103 28.5t50 65.5zM467 670h336q-18 170 -162 170q-76 0 -119.5 -45t-54.5 -125z
M639 1171q-143 0 -231.5 77t-98.5 216h246q13 -67 84 -67q67 0 84 67h244q-12 -140 -99 -216.5t-229 -76.5z" />
    <glyph glyph-name="Edotaccent" unicode="&#x116;" horiz-adv-x="1288" 
d="M596 551v-191h623v-360h-1113v1464h1104v-360h-614v-176h561v-377h-561zM506 1540v256h315v-256h-315z" />
    <glyph glyph-name="edotaccent" unicode="&#x117;" horiz-adv-x="1253" 
d="M788 352h429q-56 -176 -205 -280.5t-387 -104.5q-275 0 -430.5 156.5t-155.5 423.5q0 249 167 407t431 158q270 0 431 -159t161 -447q0 -33 -2 -60h-762q4 -92 48 -140t122 -48q66 0 103 28.5t50 65.5zM467 670h336q-18 170 -162 170q-76 0 -119.5 -45t-54.5 -125z
M477 1186v278h326v-278h-326z" />
    <glyph glyph-name="Eogonek" unicode="&#x118;" horiz-adv-x="1288" 
d="M596 551v-191h623v-360h-1113v1464h1104v-360h-614v-176h561v-377h-561zM836 -90l198 -244h-485l-160 244h447z" />
    <glyph glyph-name="eogonek" unicode="&#x119;" horiz-adv-x="1253" 
d="M788 352h429q-56 -176 -205 -280.5t-387 -104.5q-275 0 -430.5 156.5t-155.5 423.5q0 249 167 407t431 158q270 0 431 -159t161 -447q0 -33 -2 -60h-762q4 -92 48 -140t122 -48q66 0 103 28.5t50 65.5zM467 670h336q-18 170 -162 170q-76 0 -119.5 -45t-54.5 -125z
M821 -90l199 -244h-485l-160 244h446z" />
    <glyph glyph-name="Ecaron" unicode="&#x11a;" horiz-adv-x="1288" 
d="M596 551v-191h623v-360h-1113v1464h1104v-360h-614v-176h561v-377h-561zM872 1540h-434l-207 256h334l92 -92l91 92h335z" />
    <glyph glyph-name="ecaron" unicode="&#x11b;" horiz-adv-x="1253" 
d="M788 352h429q-56 -176 -205 -280.5t-387 -104.5q-275 0 -430.5 156.5t-155.5 423.5q0 249 167 407t431 158q270 0 431 -159t161 -447q0 -33 -2 -60h-762q4 -92 48 -140t122 -48q66 0 103 28.5t50 65.5zM467 670h336q-18 170 -162 170q-76 0 -119.5 -45t-54.5 -125z
M860 1186h-450l-215 278h350l92 -96l90 96h354z" />
    <glyph glyph-name="Gcircumflex" unicode="&#x11c;" horiz-adv-x="1626" 
d="M1554 977h-497q-64 151 -232 151q-140 0 -212 -103.5t-72 -291.5q0 -189 75.5 -293t221.5 -104q103 0 168 44t94 109q-42 -4 -168 -4h-184v357h804v-842h-376q0 48 1 83.5t1 39.5q-164 -150 -433 -150q-149 0 -277 51.5t-222.5 147t-148.5 239.5t-54 320
q0 172 57.5 314.5t160.5 240t247.5 151.5t316.5 54q301 0 483.5 -133.5t245.5 -380.5zM606 1796h434l211 -256h-336l-90 92l-92 -92h-334z" />
    <glyph glyph-name="gcircumflex" unicode="&#x11d;" horiz-adv-x="1337" 
d="M74 -2h432q14 -55 45.5 -85t97.5 -30q166 0 166 297h-4q-54 -61 -125.5 -94t-189.5 -33q-200 0 -325.5 136t-125.5 380q0 152 56 274t159 192.5t234 70.5q115 0 201 -42.5t126 -111.5q-4 29 -4 123h432v-956q0 -136 -47 -237t-132.5 -161.5t-196.5 -90t-248 -29.5
q-254 0 -389.5 105t-161.5 292zM668 805q-152 0 -152 -246q0 -240 150 -240q81 0 116 62.5t35 179.5q0 244 -149 244zM465 1464h450l222 -278h-355l-90 96l-92 -96h-350z" />
    <glyph glyph-name="Gbreve" unicode="&#x11e;" horiz-adv-x="1626" 
d="M1554 977h-497q-64 151 -232 151q-140 0 -212 -103.5t-72 -291.5q0 -189 75.5 -293t221.5 -104q103 0 168 44t94 109q-42 -4 -168 -4h-184v357h804v-842h-376q0 48 1 83.5t1 39.5q-164 -150 -433 -150q-149 0 -277 51.5t-222.5 147t-148.5 239.5t-54 320
q0 172 57.5 314.5t160.5 240t247.5 151.5t316.5 54q301 0 483.5 -133.5t245.5 -380.5zM827 1516q-137 0 -222 73.5t-95 206.5h238q10 -65 79 -65q65 0 80 65h236q-12 -134 -96 -207t-220 -73z" />
    <glyph glyph-name="gbreve" unicode="&#x11f;" horiz-adv-x="1337" 
d="M74 -2h432q14 -55 45.5 -85t97.5 -30q166 0 166 297h-4q-54 -61 -125.5 -94t-189.5 -33q-200 0 -325.5 136t-125.5 380q0 152 56 274t159 192.5t234 70.5q115 0 201 -42.5t126 -111.5q-4 29 -4 123h432v-956q0 -136 -47 -237t-132.5 -161.5t-196.5 -90t-248 -29.5
q-254 0 -389.5 105t-161.5 292zM668 805q-152 0 -152 -246q0 -240 150 -240q81 0 116 62.5t35 179.5q0 244 -149 244zM676 1171q-143 0 -231.5 77t-98.5 216h246q13 -67 84 -67q67 0 84 67h244q-12 -140 -99 -216.5t-229 -76.5z" />
    <glyph glyph-name="Gdotaccent" unicode="&#x120;" horiz-adv-x="1626" 
d="M1554 977h-497q-64 151 -232 151q-140 0 -212 -103.5t-72 -291.5q0 -189 75.5 -293t221.5 -104q103 0 168 44t94 109q-42 -4 -168 -4h-184v357h804v-842h-376q0 48 1 83.5t1 39.5q-164 -150 -433 -150q-149 0 -277 51.5t-222.5 147t-148.5 239.5t-54 320
q0 172 57.5 314.5t160.5 240t247.5 151.5t316.5 54q301 0 483.5 -133.5t245.5 -380.5zM674 1540v256h315v-256h-315z" />
    <glyph glyph-name="gdotaccent" unicode="&#x121;" horiz-adv-x="1337" 
d="M74 -2h432q14 -55 45.5 -85t97.5 -30q166 0 166 297h-4q-54 -61 -125.5 -94t-189.5 -33q-200 0 -325.5 136t-125.5 380q0 152 56 274t159 192.5t234 70.5q115 0 201 -42.5t126 -111.5q-4 29 -4 123h432v-956q0 -136 -47 -237t-132.5 -161.5t-196.5 -90t-248 -29.5
q-254 0 -389.5 105t-161.5 292zM668 805q-152 0 -152 -246q0 -240 150 -240q81 0 116 62.5t35 179.5q0 244 -149 244zM512 1186v278h326v-278h-326z" />
    <glyph glyph-name="Gcommaaccent" unicode="&#x122;" horiz-adv-x="1626" 
d="M1554 977h-497q-64 151 -232 151q-140 0 -212 -103.5t-72 -291.5q0 -189 75.5 -293t221.5 -104q103 0 168 44t94 109q-42 -4 -168 -4h-184v357h804v-842h-376q0 48 1 83.5t1 39.5q-164 -150 -433 -150q-149 0 -277 51.5t-222.5 147t-148.5 239.5t-54 320
q0 172 57.5 314.5t160.5 240t247.5 151.5t316.5 54q301 0 483.5 -133.5t245.5 -380.5zM430 -334l199 244h446l-160 -244h-485z" />
    <glyph glyph-name="gcommaaccent" unicode="&#x123;" horiz-adv-x="1337" 
d="M74 -2h432q14 -55 45.5 -85t97.5 -30q166 0 166 297h-4q-54 -61 -125.5 -94t-189.5 -33q-200 0 -325.5 136t-125.5 380q0 152 56 274t159 192.5t234 70.5q115 0 201 -42.5t126 -111.5q-4 29 -4 123h432v-956q0 -136 -47 -237t-132.5 -161.5t-196.5 -90t-248 -29.5
q-254 0 -389.5 105t-161.5 292zM668 805q-152 0 -152 -246q0 -240 150 -240q81 0 116 62.5t35 179.5q0 244 -149 244zM1059 1464l-199 -243h-446l159 243h486z" />
    <glyph glyph-name="Hcircumflex" unicode="&#x124;" horiz-adv-x="1581" 
d="M602 0h-496v1464h496v-499h379v499h494v-1464h-494v537h-379v-537zM575 1796h435l211 -256h-336l-90 92l-93 -92h-333z" />
    <glyph glyph-name="hcircumflex" unicode="&#x125;" horiz-adv-x="1310" 
d="M522 979h2q44 55 126.5 89t193.5 34q236 0 332 -172q35 -63 46 -138.5t11 -222.5v-569h-438v549q0 125 -27.5 178t-99.5 53q-79 0 -110.5 -60t-31.5 -208v-512h-438v1464h438v-223q0 -118 -4 -262zM100 1796h435l210 -256h-335l-91 92l-92 -92h-333z" />
    <glyph glyph-name="Hbar" unicode="&#x126;" horiz-adv-x="1581" 
d="M602 0h-496v1464h496v-102h379v102h494v-1464h-494v537h-379v-537zM602 965h379v98h-379v-98z" />
    <glyph glyph-name="hbar" unicode="&#x127;" horiz-adv-x="1310" 
d="M27 1118v277h61v69h438v-69h78v-277h-78q0 -57 -4 -139h2q44 55 127.5 89t196.5 34q111 0 196 -44t132 -128q35 -63 46 -138.5t11 -222.5v-569h-438v549q0 125 -27.5 178t-99.5 53q-79 0 -110.5 -60t-31.5 -208v-512h-438v1118h-61z" />
    <glyph glyph-name="Itilde" unicode="&#x128;" horiz-adv-x="708" 
d="M602 0h-496v1464h496v-1464zM203 1540h-211q0 126 63 199t168 73q66 0 148 -40q62 -33 82 -33q45 0 47 57h211q0 -130 -58.5 -201t-169.5 -71q-66 0 -131 30l-20 11q-60 32 -82 32q-45 0 -47 -57z" />
    <glyph glyph-name="itilde" unicode="&#x129;" horiz-adv-x="614" 
d="M526 0h-438v1075h438v-1075zM156 1186h-226q0 134 67.5 214.5t178.5 80.5q75 0 156 -43q65 -33 88 -33t35.5 12.5t13.5 46.5h225q0 -140 -61 -217.5t-180 -77.5q-78 0 -140 33l-20 10q-67 33 -88 33q-23 0 -35.5 -12.5t-13.5 -46.5z" />
    <glyph glyph-name="Imacron" unicode="&#x12a;" horiz-adv-x="708" 
d="M602 0h-496v1464h496v-1464zM78 1540v246h559v-246h-559z" />
    <glyph glyph-name="imacron" unicode="&#x12b;" horiz-adv-x="614" 
d="M526 0h-438v1075h438v-1075zM33 1202v256h559v-256h-559z" />
    <glyph glyph-name="Ibreve" unicode="&#x12c;" horiz-adv-x="708" 
d="M602 0h-496v1464h496v-1464zM356 1516q-137 0 -222 73.5t-95 206.5h237q10 -65 80 -65q65 0 80 65h236q-12 -134 -96 -207t-220 -73z" />
    <glyph glyph-name="ibreve" unicode="&#x12d;" horiz-adv-x="614" 
d="M526 0h-438v1075h438v-1075zM309 1171q-143 0 -231 77t-98 216h245q13 -67 84 -67q67 0 84 67h244q-12 -140 -99 -216.5t-229 -76.5z" />
    <glyph glyph-name="Iogonek" unicode="&#x12e;" horiz-adv-x="708" 
d="M602 0h-496v1464h496v-1464zM573 -90l199 -244h-485l-160 244h446z" />
    <glyph glyph-name="iogonek" unicode="&#x12f;" horiz-adv-x="614" 
d="M88 1186v278h438v-278h-438zM526 0h-438v1075h438v-1075zM530 -90l199 -244h-485l-160 244h446z" />
    <glyph glyph-name="Idotaccent" unicode="&#x130;" horiz-adv-x="708" 
d="M602 0h-496v1464h496v-1464zM203 1540v256h315v-256h-315z" />
    <glyph glyph-name="dotlessi" unicode="&#x131;" horiz-adv-x="614" 
d="M526 0h-438v1075h438v-1075z" />
    <glyph glyph-name="IJ" unicode="&#x132;" horiz-adv-x="1873" 
d="M602 0h-496v1464h496v-1464zM1221 -31q-257 0 -382.5 114.5t-125.5 330.5h409q5 -46 23.5 -69t62.5 -23q59 0 78 44.5t19 153.5v944h475v-962q0 -271 -143.5 -402t-415.5 -131z" />
    <glyph glyph-name="ij" unicode="&#x133;" horiz-adv-x="1230" 
d="M88 1186v278h438v-278h-438zM526 0h-438v1075h438v-1075zM705 1075h438v-1075q0 -113 -26 -190t-80.5 -121.5t-129 -63t-182.5 -18.5q-116 0 -197 18v297q16 -2 43 -2q74 0 104 38.5t30 127.5v989zM705 1186v278h438v-278h-438z" />
    <glyph glyph-name="Jcircumflex" unicode="&#x134;" horiz-adv-x="1165" 
d="M512 -31q-257 0 -382.5 114.5t-125.5 330.5h410q5 -46 23.5 -69t62.5 -23q59 0 77.5 44t18.5 154v944h475v-962q0 -271 -143.5 -402t-415.5 -131zM610 1796h434l211 -256h-335l-91 92l-92 -92h-334z" />
    <glyph glyph-name="jcircumflex" unicode="&#x135;" horiz-adv-x="616" 
d="M90 1075h438v-1075q0 -113 -25.5 -190t-80 -121.5t-129 -63t-182.5 -18.5q-116 0 -197 18v297q16 -2 43 -2q74 0 103.5 38.5t29.5 127.5v989zM78 1464h450l222 -278h-355l-90 96l-92 -96h-350z" />
    <glyph glyph-name="Kcommaaccent" unicode="&#x136;" horiz-adv-x="1572" 
d="M602 0h-496v1464h496v-598h4q190 272 424 598h563q-106 -136 -310 -379.5t-243 -291.5q300 -418 586 -793h-571q-259 386 -449 684h-4v-684zM426 -334l199 244h446l-160 -244h-485z" />
    <glyph glyph-name="kcommaaccent" unicode="&#x137;" horiz-adv-x="1339" 
d="M526 0h-438v1464h438v-841h2q37 49 146.5 215.5t152.5 236.5h510q-233 -280 -391 -493q64 -95 192 -270t234 -312h-534q-88 138 -186 299t-124 209h-2v-508zM287 -334l198 244h447l-160 -244h-485z" />
    <glyph glyph-name="kgreenlandic" unicode="&#x138;" horiz-adv-x="1339" 
d="M526 0h-438v1075h438v-452h2q37 49 146.5 215.5t152.5 236.5h510q-233 -280 -391 -493q64 -95 192 -270t234 -312h-534q-88 138 -186 299t-124 209h-2v-508z" />
    <glyph glyph-name="Lacute" unicode="&#x139;" horiz-adv-x="1222" 
d="M1200 0h-1094v1464h496v-1095h598v-369zM573 1540h-444l205 256h530z" />
    <glyph glyph-name="lacute" unicode="&#x13a;" horiz-adv-x="618" 
d="M528 0h-438v1464h438v-1464zM510 1540h-444l204 256h531z" />
    <glyph glyph-name="Lcommaaccent" unicode="&#x13b;" horiz-adv-x="1222" 
d="M1200 0h-1094v1464h496v-1095h598v-369zM264 -334l199 244h446l-159 -244h-486z" />
    <glyph glyph-name="lcommaaccent" unicode="&#x13c;" horiz-adv-x="618" 
d="M528 0h-438v1464h438v-1464zM-86 -334l199 244h446l-160 -244h-485z" />
    <glyph glyph-name="Lcaron" unicode="&#x13d;" horiz-adv-x="1230" 
d="M1200 0h-1094v1464h496v-1095h598v-369zM1243 1464l-199 -522h-372l143 522h428z" />
    <glyph glyph-name="lcaron" unicode="&#x13e;" horiz-adv-x="956" 
d="M528 0h-438v1464h438v-1464zM1167 1464l-198 -522h-373l143 522h428z" />
    <glyph glyph-name="Ldot" unicode="&#x13f;" horiz-adv-x="1226" 
d="M1200 0h-1094v1464h496v-1095h598v-369zM733 541v407h447v-407h-447z" />
    <glyph glyph-name="ldot" unicode="&#x140;" horiz-adv-x="1093" 
d="M528 0h-438v1464h438v-1464zM633 541v407h446v-407h-446z" />
    <glyph glyph-name="Lslash" unicode="&#x141;" horiz-adv-x="1241" 
d="M14 326v397l111 72v669h496v-346l122 80v-397l-122 -80v-352h598v-369h-1094v397z" />
    <glyph glyph-name="lslash" unicode="&#x142;" horiz-adv-x="651" 
d="M543 0h-439v465l-81 -51v360l81 51v639h439v-358l88 57v-360l-88 -58v-745z" />
    <glyph glyph-name="Nacute" unicode="&#x143;" horiz-adv-x="1652" 
d="M1546 1464v-1464h-622l-230 530q-95 220 -147 392h-6q16 -219 16 -410v-512h-451v1464h642l170 -420q72 -176 180 -460q1 0 3 1t3 1q-8 175 -8 356v522h450zM979 1540h-444l204 256h531z" />
    <glyph glyph-name="nacute" unicode="&#x144;" horiz-adv-x="1310" 
d="M86 1075h408q0 -11 0.5 -35.5t0.5 -49t-1 -48.5h4q38 70 126.5 115t215.5 45q116 0 202.5 -44t133.5 -128q35 -63 46 -138.5t11 -222.5v-569h-438v549q0 125 -27.5 178t-99.5 53q-79 0 -110.5 -60t-31.5 -208v-512h-438v897q0 119 -2 178zM827 1186h-444l211 278h530z
" />
    <glyph glyph-name="Ncommaaccent" unicode="&#x145;" horiz-adv-x="1652" 
d="M1546 1464v-1464h-622l-230 530q-95 220 -147 392h-6q16 -219 16 -410v-512h-451v1464h642l170 -420q72 -176 180 -460q1 0 3 1t3 1q-8 175 -8 356v522h450zM455 -334l198 244h447l-160 -244h-485z" />
    <glyph glyph-name="ncommaaccent" unicode="&#x146;" horiz-adv-x="1310" 
d="M86 1075h408q0 -11 0.5 -35.5t0.5 -49t-1 -48.5h4q38 70 126.5 115t215.5 45q116 0 202.5 -44t133.5 -128q35 -63 46 -138.5t11 -222.5v-569h-438v549q0 125 -27.5 178t-99.5 53q-79 0 -110.5 -60t-31.5 -208v-512h-438v897q0 119 -2 178zM291 -334l198 244h447
l-160 -244h-485z" />
    <glyph glyph-name="Ncaron" unicode="&#x147;" horiz-adv-x="1652" 
d="M1546 1464v-1464h-622l-230 530q-95 220 -147 392h-6q16 -219 16 -410v-512h-451v1464h642l170 -420q72 -176 180 -460q1 0 3 1t3 1q-8 175 -8 356v522h450zM1044 1540h-434l-207 256h334l92 -92l91 92h335z" />
    <glyph glyph-name="ncaron" unicode="&#x148;" horiz-adv-x="1310" 
d="M86 1075h408q0 -11 0.5 -35.5t0.5 -49t-1 -48.5h4q38 70 126.5 115t215.5 45q116 0 202.5 -44t133.5 -128q35 -63 46 -138.5t11 -222.5v-569h-438v549q0 125 -27.5 178t-99.5 53q-79 0 -110.5 -60t-31.5 -208v-512h-438v897q0 119 -2 178zM897 1186h-451l-215 278h351
l92 -96l90 96h354z" />
    <glyph glyph-name="napostrophe" unicode="&#x149;" horiz-adv-x="1646" 
d="M422 1075h407q0 -11 0.5 -35.5t0.5 -49t-1 -48.5h5q38 70 126.5 115t215.5 45q239 0 335 -172q35 -64 46.5 -139.5t11.5 -221.5v-569h-439v549q0 125 -27 178t-99 53q-79 0 -110.5 -60t-31.5 -208v-512h-438v897q0 119 -2 178zM524 1464l-198 -522h-373l143 522h428z" />
    <glyph glyph-name="Eng" unicode="&#x14a;" horiz-adv-x="1652" 
d="M563 -27h363q7 -41 26 -63.5t62 -22.5q46 0 67 27t29 86h-227l-189 530q-95 220 -147 392h-6q16 -219 16 -410v-512h-451v1464h642l170 -420q72 -176 180 -460q1 0 3 1t3 1q-8 175 -8 356v522h450v-1364q0 -253 -122 -372t-390 -119q-221 0 -339 93t-132 271z" />
    <glyph glyph-name="eng" unicode="&#x14b;" horiz-adv-x="1310" 
d="M1233 569v-569q0 -113 -26 -190t-81 -121.5t-130.5 -63t-184.5 -18.5q-112 0 -193 18v297q16 -2 44 -2q74 0 103.5 38.5t29.5 127.5v463q0 125 -27.5 178t-99.5 53q-79 0 -110.5 -60t-31.5 -208v-512h-438v897q0 119 -2 178h408q0 -11 0.5 -35.5t0.5 -49t-1 -48.5h4
q38 70 127.5 115t218.5 45q112 0 198.5 -44t133.5 -128q35 -63 46 -138.5t11 -222.5z" />
    <glyph glyph-name="Omacron" unicode="&#x14c;" horiz-adv-x="1656" 
d="M827 1491q232 0 410.5 -92.5t277.5 -265.5t99 -402q0 -233 -98 -405.5t-276 -262.5t-415 -90q-233 0 -409.5 90t-274.5 262.5t-98 405.5q0 229 99 402t276.5 265.5t408.5 92.5zM827 344q140 0 213.5 102t73.5 285q0 189 -73 293t-214 104q-143 0 -215.5 -104.5
t-72.5 -294.5q0 -182 72.5 -283.5t215.5 -101.5zM549 1540v246h559v-246h-559z" />
    <glyph glyph-name="omacron" unicode="&#x14d;" horiz-adv-x="1286" 
d="M641 1112q279 0 442.5 -158.5t163.5 -416.5q0 -256 -162 -413t-442 -157q-283 0 -443.5 157t-160.5 415q0 257 161.5 415t440.5 158zM639 805q-83 0 -119.5 -67.5t-36.5 -196.5q0 -132 36.5 -197t121.5 -65q83 0 119.5 65t36.5 195t-37 198t-121 68zM360 1202v256h560
v-256h-560z" />
    <glyph glyph-name="Obreve" unicode="&#x14e;" horiz-adv-x="1656" 
d="M827 1491q232 0 410.5 -92.5t277.5 -265.5t99 -402q0 -233 -98 -405.5t-276 -262.5t-415 -90q-233 0 -409.5 90t-274.5 262.5t-98 405.5q0 229 99 402t276.5 265.5t408.5 92.5zM827 344q140 0 213.5 102t73.5 285q0 189 -73 293t-214 104q-143 0 -215.5 -104.5
t-72.5 -294.5q0 -182 72.5 -283.5t215.5 -101.5zM831 1516q-137 0 -222 73.5t-95 206.5h238q10 -65 79 -65q65 0 80 65h236q-12 -134 -96 -207t-220 -73z" />
    <glyph glyph-name="obreve" unicode="&#x14f;" horiz-adv-x="1286" 
d="M641 1112q279 0 442.5 -158.5t163.5 -416.5q0 -256 -162 -413t-442 -157q-283 0 -443.5 157t-160.5 415q0 257 161.5 415t440.5 158zM639 805q-83 0 -119.5 -67.5t-36.5 -196.5q0 -132 36.5 -197t121.5 -65q83 0 119.5 65t36.5 195t-37 198t-121 68zM641 1171
q-143 0 -231.5 77t-98.5 216h246q13 -67 84 -67q67 0 84 67h244q-12 -140 -99 -216.5t-229 -76.5z" />
    <glyph glyph-name="Ohungarumlaut" unicode="&#x150;" horiz-adv-x="1656" 
d="M827 1491q232 0 410.5 -92.5t277.5 -265.5t99 -402q0 -233 -98 -405.5t-276 -262.5t-415 -90q-233 0 -409.5 90t-274.5 262.5t-98 405.5q0 229 99 402t276.5 265.5t408.5 92.5zM827 344q140 0 213.5 102t73.5 285q0 189 -73 293t-214 104q-143 0 -215.5 -104.5
t-72.5 -294.5q0 -182 72.5 -283.5t215.5 -101.5zM698 1540h-413l204 256h500zM1296 1540h-413l204 256h500z" />
    <glyph glyph-name="ohungarumlaut" unicode="&#x151;" horiz-adv-x="1286" 
d="M641 1112q279 0 442.5 -158.5t163.5 -416.5q0 -256 -162 -413t-442 -157q-283 0 -443.5 157t-160.5 415q0 257 161.5 415t440.5 158zM639 805q-83 0 -119.5 -67.5t-36.5 -196.5q0 -132 36.5 -197t121.5 -65q83 0 119.5 65t36.5 195t-37 198t-121 68zM518 1186h-414
l211 278h500zM1110 1186h-414l211 278h500z" />
    <glyph glyph-name="OE" unicode="&#x152;" horiz-adv-x="2304" 
d="M1616 551v-191h618v-360h-1063v57q-154 -82 -354 -82q-173 0 -317.5 54.5t-245 153t-156 239t-55.5 307.5q0 223 97 397t270.5 269.5t394.5 95.5q191 0 366 -86v59h1055v-360h-610v-176h557v-377h-557zM829 344q140 0 212.5 102t72.5 285q0 189 -72.5 293t-212.5 104
q-143 0 -215.5 -104.5t-72.5 -294.5q0 -182 72.5 -283.5t215.5 -101.5z" />
    <glyph glyph-name="oe" unicode="&#x153;" horiz-adv-x="2009" 
d="M637 1112q227 0 383 -117q156 117 373 117q270 0 431 -159t161 -447q0 -19 -3 -60h-761q4 -92 48 -140t122 -48q66 0 103 28.5t50 65.5h428q-52 -175 -204 -280t-388 -105q-222 0 -366 105q-153 -105 -371 -105q-283 0 -443.5 157t-160.5 415q0 256 162 414.5t436 158.5z
M639 805q-83 0 -119.5 -67.5t-36.5 -196.5q0 -132 36.5 -197t121.5 -65q83 0 119.5 65t36.5 195t-37 198t-121 68zM1223 670h336q-18 170 -162 170q-76 0 -119.5 -45t-54.5 -125z" />
    <glyph glyph-name="Racute" unicode="&#x154;" horiz-adv-x="1458" 
d="M600 500v-500h-494v1464h721q139 0 234.5 -19.5t169.5 -70.5q81 -61 126.5 -154t45.5 -204q0 -91 -23.5 -166.5t-65 -129.5t-89 -91t-105.5 -64l346 -565h-526l-268 500h-72zM600 1112v-272h129q182 0 182 143q0 70 -48 99.5t-146 29.5h-117zM864 1540h-444l205 256h530z
" />
    <glyph glyph-name="racute" unicode="&#x155;" horiz-adv-x="892" 
d="M88 0v881q0 126 -2 194h408q0 -112 -2 -151h4q31 80 113 129t192 49q37 0 65 -4v-383q-36 8 -84 8q-59 0 -101 -10t-70.5 -35.5t-45 -56.5t-25.5 -88t-11.5 -113.5t-2.5 -147.5v-272h-438zM545 1186h-445l211 278h531z" />
    <glyph glyph-name="Rcommaaccent" unicode="&#x156;" horiz-adv-x="1458" 
d="M600 500v-500h-494v1464h721q139 0 234.5 -19.5t169.5 -70.5q81 -61 126.5 -154t45.5 -204q0 -91 -23.5 -166.5t-65 -129.5t-89 -91t-105.5 -64l346 -565h-526l-268 500h-72zM600 1112v-272h129q182 0 182 143q0 70 -48 99.5t-146 29.5h-117zM334 -334l198 244h447
l-160 -244h-485z" />
    <glyph glyph-name="rcommaaccent" unicode="&#x157;" horiz-adv-x="892" 
d="M88 0v881q0 126 -2 194h408q0 -112 -2 -151h4q31 80 113 129t192 49q37 0 65 -4v-383q-36 8 -84 8q-59 0 -101 -10t-70.5 -35.5t-45 -56.5t-25.5 -88t-11.5 -113.5t-2.5 -147.5v-272h-438zM-53 -334l198 244h447l-160 -244h-485z" />
    <glyph glyph-name="Rcaron" unicode="&#x158;" horiz-adv-x="1458" 
d="M600 500v-500h-494v1464h721q139 0 234.5 -19.5t169.5 -70.5q81 -61 126.5 -154t45.5 -204q0 -91 -23.5 -166.5t-65 -129.5t-89 -91t-105.5 -64l346 -565h-526l-268 500h-72zM600 1112v-272h129q182 0 182 143q0 70 -48 99.5t-146 29.5h-117zM930 1540h-434l-207 256h334
l92 -92l90 92h336z" />
    <glyph glyph-name="rcaron" unicode="&#x159;" horiz-adv-x="892" 
d="M88 0v881q0 126 -2 194h408q0 -112 -2 -151h4q31 80 113 129t192 49q37 0 65 -4v-383q-36 8 -84 8q-59 0 -101 -10t-70.5 -35.5t-45 -56.5t-25.5 -88t-11.5 -113.5t-2.5 -147.5v-272h-438zM565 1186h-450l-215 278h350l92 -96l90 96h354z" />
    <glyph glyph-name="Sacute" unicode="&#x15a;" horiz-adv-x="1394" 
d="M1329 1004h-473q-27 159 -170 159q-66 0 -101.5 -25.5t-35.5 -68.5q0 -19 5.5 -33.5t21 -27.5t31 -22t47.5 -19.5t58.5 -18t75.5 -20.5l82 -23q269 -74 379.5 -176.5t110.5 -284.5q0 -218 -175.5 -344.5t-484.5 -126.5q-316 0 -485.5 131.5t-187.5 374.5h501
q18 -174 189 -174q77 0 121.5 28t44.5 81q0 19 -8 33.5t-19 24t-36 20t-44 16.5t-59 18l-174 47q-263 73 -370 180.5t-107 290.5q0 206 163 326.5t461 120.5q286 0 452.5 -124t186.5 -363zM879 1540h-445l205 256h530z" />
    <glyph glyph-name="sacute" unicode="&#x15b;" horiz-adv-x="1187" 
d="M25 369h407q24 -136 176 -136q125 0 125 70q0 30 -28.5 45t-110.5 35l-164 37q-198 43 -285.5 123.5t-87.5 224.5q0 161 138 253.5t389 92.5q508 0 542 -377h-391q-12 62 -48 90.5t-103 28.5q-56 0 -84.5 -17.5t-28.5 -47.5q0 -31 29.5 -47.5t128.5 -41.5l131 -32
q213 -54 305 -131.5t92 -216.5q0 -176 -142.5 -265.5t-414.5 -89.5q-266 0 -404 98t-171 304zM768 1186h-444l211 278h530z" />
    <glyph glyph-name="Scircumflex" unicode="&#x15c;" horiz-adv-x="1394" 
d="M1329 1004h-473q-27 159 -170 159q-66 0 -101.5 -25.5t-35.5 -68.5q0 -19 5.5 -33.5t21 -27.5t31 -22t47.5 -19.5t58.5 -18t75.5 -20.5l82 -23q269 -74 379.5 -176.5t110.5 -284.5q0 -218 -175.5 -344.5t-484.5 -126.5q-316 0 -485.5 131.5t-187.5 374.5h501
q18 -174 189 -174q77 0 121.5 28t44.5 81q0 19 -8 33.5t-19 24t-36 20t-44 16.5t-59 18l-174 47q-263 73 -370 180.5t-107 290.5q0 206 163 326.5t461 120.5q286 0 452.5 -124t186.5 -363zM473 1796h434l211 -256h-336l-90 92l-92 -92h-334z" />
    <glyph glyph-name="scircumflex" unicode="&#x15d;" horiz-adv-x="1187" 
d="M25 369h407q24 -136 176 -136q125 0 125 70q0 30 -28.5 45t-110.5 35l-164 37q-198 43 -285.5 123.5t-87.5 224.5q0 161 138 253.5t389 92.5q508 0 542 -377h-391q-12 62 -48 90.5t-103 28.5q-56 0 -84.5 -17.5t-28.5 -47.5q0 -31 29.5 -47.5t128.5 -41.5l131 -32
q213 -54 305 -131.5t92 -216.5q0 -176 -142.5 -265.5t-414.5 -89.5q-266 0 -404 98t-171 304zM367 1464h450l221 -278h-354l-90 96l-92 -96h-350z" />
    <glyph glyph-name="Scedilla" unicode="&#x15e;" horiz-adv-x="1394" 
d="M1329 1004h-473q-27 159 -170 159q-66 0 -101.5 -25.5t-35.5 -68.5q0 -19 5.5 -33.5t21 -27.5t31 -22t47.5 -19.5t58.5 -18t75.5 -20.5l82 -23q269 -74 379.5 -176.5t110.5 -284.5q0 -218 -175.5 -344.5t-484.5 -126.5q-316 0 -485.5 131.5t-187.5 374.5h501
q18 -174 189 -174q77 0 121.5 28t44.5 81q0 19 -8 33.5t-19 24t-36 20t-44 16.5t-59 18l-174 47q-263 73 -370 180.5t-107 290.5q0 206 163 326.5t461 120.5q286 0 452.5 -124t186.5 -363zM297 -334l199 244h446l-160 -244h-485z" />
    <glyph glyph-name="scedilla" unicode="&#x15f;" horiz-adv-x="1187" 
d="M25 369h407q24 -136 176 -136q125 0 125 70q0 30 -28.5 45t-110.5 35l-164 37q-198 43 -285.5 123.5t-87.5 224.5q0 161 138 253.5t389 92.5q508 0 542 -377h-391q-12 62 -48 90.5t-103 28.5q-56 0 -84.5 -17.5t-28.5 -47.5q0 -31 29.5 -47.5t128.5 -41.5l131 -32
q213 -54 305 -131.5t92 -216.5q0 -176 -142.5 -265.5t-414.5 -89.5q-266 0 -404 98t-171 304zM209 -334l199 244h446l-160 -244h-485z" />
    <glyph glyph-name="Scaron" unicode="&#x160;" horiz-adv-x="1394" 
d="M1329 1004h-473q-27 159 -170 159q-66 0 -101.5 -25.5t-35.5 -68.5q0 -19 5.5 -33.5t21 -27.5t31 -22t47.5 -19.5t58.5 -18t75.5 -20.5l82 -23q269 -74 379.5 -176.5t110.5 -284.5q0 -218 -175.5 -344.5t-484.5 -126.5q-316 0 -485.5 131.5t-187.5 374.5h501
q18 -174 189 -174q77 0 121.5 28t44.5 81q0 19 -8 33.5t-19 24t-36 20t-44 16.5t-59 18l-174 47q-263 73 -370 180.5t-107 290.5q0 206 163 326.5t461 120.5q286 0 452.5 -124t186.5 -363zM911 1540h-434l-207 256h334l92 -92l90 92h336z" />
    <glyph glyph-name="scaron" unicode="&#x161;" horiz-adv-x="1187" 
d="M25 369h407q24 -136 176 -136q125 0 125 70q0 30 -28.5 45t-110.5 35l-164 37q-198 43 -285.5 123.5t-87.5 224.5q0 161 138 253.5t389 92.5q508 0 542 -377h-391q-12 62 -48 90.5t-103 28.5q-56 0 -84.5 -17.5t-28.5 -47.5q0 -31 29.5 -47.5t128.5 -41.5l131 -32
q213 -54 305 -131.5t92 -216.5q0 -176 -142.5 -265.5t-414.5 -89.5q-266 0 -404 98t-171 304zM823 1186h-450l-215 278h350l92 -96l90 96h354z" />
    <glyph glyph-name="uni0162" unicode="&#x162;" horiz-adv-x="1261" 
d="M879 0h-496v1096h-358v368h1212v-368h-358v-1096zM233 -334l199 244h447l-160 -244h-486z" />
    <glyph glyph-name="uni0163" unicode="&#x163;" horiz-adv-x="839" 
d="M80 -334l199 244h446l-160 -244h-485zM172 760h-147v315h147v287h438v-287h174v-315h-174v-205q0 -51 0.5 -76.5t2.5 -59.5t6.5 -49t12.5 -33t20.5 -25t29.5 -12t41 -5q22 0 49 6v-307q-72 -14 -180 -14q-112 0 -187 17t-129 60t-79 117t-25 186v400z" />
    <glyph glyph-name="Tcaron" unicode="&#x164;" horiz-adv-x="1261" 
d="M879 0h-496v1096h-358v368h1212v-368h-358v-1096zM848 1540h-434l-207 256h334l92 -92l90 92h336z" />
    <glyph glyph-name="tcaron" unicode="&#x165;" horiz-adv-x="1130" 
d="M172 760h-147v315h147v287h438v-287h174v-315h-174v-205q0 -51 0.5 -76.5t2.5 -59.5t6.5 -49t12.5 -33t20.5 -25t29.5 -12t41 -5q22 0 49 6v-307q-72 -14 -180 -14q-112 0 -187 17t-129 60t-79 117t-25 186v400zM1382 1464l-198 -522h-373l143 522h428z" />
    <glyph glyph-name="Tbar" unicode="&#x166;" horiz-adv-x="1275" 
d="M178 539v358h213v199h-358v368h1212v-368h-358v-199h192v-358h-192v-539h-496v539h-213z" />
    <glyph glyph-name="tbar" unicode="&#x167;" horiz-adv-x="843" 
d="M31 381v307h143v72h-147v315h147v287h438v-287h174v-315h-174v-72h179v-307h-173q11 -48 34 -67t73 -19q22 0 49 6v-307q-72 -14 -180 -14q-112 0 -187 17t-129 60t-79 117t-25 186v21h-143z" />
    <glyph glyph-name="Utilde" unicode="&#x168;" horiz-adv-x="1540" 
d="M1450 1464v-852q0 -167 -39.5 -278.5t-120.5 -192.5q-175 -172 -520 -172t-520 172q-81 81 -120.5 192.5t-39.5 278.5v852h496v-829q0 -116 48.5 -177t135.5 -61q186 0 186 248v819h494zM627 1540h-211q0 126 63 199t168 73q66 0 148 -40q62 -33 82 -33q45 0 47 57h211
q0 -130 -58.5 -201t-169.5 -71q-66 0 -131 30l-20 11q-60 32 -82 32q-45 0 -47 -57z" />
    <glyph glyph-name="utilde" unicode="&#x169;" horiz-adv-x="1302" 
d="M1217 0h-408q0 11 -0.5 34.5t-0.5 47t1 47.5h-4q-38 -65 -133 -110.5t-219 -45.5q-107 0 -189 44t-129 128q-35 63 -46 138.5t-11 222.5v569h438v-553q0 -125 26.5 -176t96.5 -51q75 0 106 59t31 205v516h438v-897q0 -90 3 -178zM494 1186h-226q0 134 67.5 214.5
t178.5 80.5q75 0 156 -43q65 -33 88 -33t35.5 12.5t13.5 46.5h225q0 -140 -61 -217.5t-180 -77.5q-78 0 -140 33l-20 10q-67 33 -88 33q-23 0 -35.5 -12.5t-13.5 -46.5z" />
    <glyph glyph-name="Umacron" unicode="&#x16a;" horiz-adv-x="1540" 
d="M1450 1464v-852q0 -167 -39.5 -278.5t-120.5 -192.5q-175 -172 -520 -172t-520 172q-81 81 -120.5 192.5t-39.5 278.5v852h496v-829q0 -116 48.5 -177t135.5 -61q186 0 186 248v819h494zM500 1540v246h559v-246h-559z" />
    <glyph glyph-name="umacron" unicode="&#x16b;" horiz-adv-x="1302" 
d="M1217 0h-408q0 11 -0.5 34.5t-0.5 47t1 47.5h-4q-38 -65 -133 -110.5t-219 -45.5q-107 0 -189 44t-129 128q-35 63 -46 138.5t-11 222.5v569h438v-553q0 -125 26.5 -176t96.5 -51q75 0 106 59t31 205v516h438v-897q0 -90 3 -178zM371 1202v256h559v-256h-559z" />
    <glyph glyph-name="Ubreve" unicode="&#x16c;" horiz-adv-x="1540" 
d="M1450 1464v-852q0 -167 -39.5 -278.5t-120.5 -192.5q-175 -172 -520 -172t-520 172q-81 81 -120.5 192.5t-39.5 278.5v852h496v-829q0 -116 48.5 -177t135.5 -61q186 0 186 248v819h494zM776 1516q-137 0 -222 73.5t-95 206.5h237q10 -65 80 -65q65 0 80 65h236
q-12 -134 -96 -207t-220 -73z" />
    <glyph glyph-name="ubreve" unicode="&#x16d;" horiz-adv-x="1302" 
d="M1217 0h-408q0 11 -0.5 34.5t-0.5 47t1 47.5h-4q-38 -65 -133 -110.5t-219 -45.5q-107 0 -189 44t-129 128q-35 63 -46 138.5t-11 222.5v569h438v-553q0 -125 26.5 -176t96.5 -51q75 0 106 59t31 205v516h438v-897q0 -90 3 -178zM657 1171q-143 0 -231 77t-98 216h245
q13 -67 84 -67q67 0 84 67h244q-12 -140 -99 -216.5t-229 -76.5z" />
    <glyph glyph-name="Uring" unicode="&#x16e;" horiz-adv-x="1540" 
d="M1450 1464v-852q0 -167 -39.5 -278.5t-120.5 -192.5q-175 -172 -520 -172t-520 172q-81 81 -120.5 192.5t-39.5 278.5v852h496v-829q0 -116 48.5 -177t135.5 -61q186 0 186 248v819h494zM774 1511q-94 0 -160.5 68.5t-66.5 163.5q0 92 67.5 159.5t161.5 67.5t162 -67.5
t68 -159.5q0 -94 -68 -163t-164 -69zM707 1743q0 -30 19 -50t48 -20t48.5 19.5t19.5 50.5q0 27 -19.5 46t-48.5 19t-48 -19t-19 -46z" />
    <glyph glyph-name="uring" unicode="&#x16f;" horiz-adv-x="1302" 
d="M1217 0h-408q0 11 -0.5 34.5t-0.5 47t1 47.5h-4q-38 -65 -133 -110.5t-219 -45.5q-107 0 -189 44t-129 128q-35 63 -46 138.5t-11 222.5v569h438v-553q0 -125 26.5 -176t96.5 -51q75 0 106 59t31 205v516h438v-897q0 -90 3 -178zM639 1155q-95 0 -161 68.5t-66 162.5
q0 92 68 160t161 68t161 -68t68 -160q0 -94 -67.5 -162.5t-163.5 -68.5zM571 1386q0 -29 19.5 -49t48.5 -20t48.5 19.5t19.5 49.5q0 27 -19.5 46.5t-48.5 19.5t-48.5 -19.5t-19.5 -46.5z" />
    <glyph glyph-name="Uhungarumlaut" unicode="&#x170;" horiz-adv-x="1540" 
d="M1450 1464v-852q0 -167 -39.5 -278.5t-120.5 -192.5q-175 -172 -520 -172t-520 172q-81 81 -120.5 192.5t-39.5 278.5v852h496v-829q0 -116 48.5 -177t135.5 -61q186 0 186 248v819h494zM633 1540h-414l205 256h500zM1231 1540h-414l205 256h500z" />
    <glyph glyph-name="uhungarumlaut" unicode="&#x171;" horiz-adv-x="1302" 
d="M1217 0h-408q0 11 -0.5 34.5t-0.5 47t1 47.5h-4q-38 -65 -133 -110.5t-219 -45.5q-107 0 -189 44t-129 128q-35 63 -46 138.5t-11 222.5v569h438v-553q0 -125 26.5 -176t96.5 -51q75 0 106 59t31 205v516h438v-897q0 -90 3 -178zM537 1186h-414l211 278h500zM1128 1186
h-413l211 278h499z" />
    <glyph glyph-name="Uogonek" unicode="&#x172;" horiz-adv-x="1540" 
d="M1450 1464v-852q0 -167 -39.5 -278.5t-120.5 -192.5q-175 -172 -520 -172t-520 172q-81 81 -120.5 192.5t-39.5 278.5v852h496v-829q0 -116 48.5 -177t135.5 -61q186 0 186 248v819h494zM952 -90l199 -244h-485l-160 244h446z" />
    <glyph glyph-name="uogonek" unicode="&#x173;" horiz-adv-x="1302" 
d="M1217 0h-408q0 11 -0.5 34.5t-0.5 47t1 47.5h-4q-38 -65 -133 -110.5t-219 -45.5q-107 0 -189 44t-129 128q-35 63 -46 138.5t-11 222.5v569h438v-553q0 -125 26.5 -176t96.5 -51q75 0 106 59t31 205v516h438v-897q0 -90 3 -178zM811 -90l199 -244h-486l-159 244h446z
" />
    <glyph glyph-name="Wcircumflex" unicode="&#x174;" horiz-adv-x="2109" 
d="M2111 1464l-299 -1464h-624l-88 557q-21 113 -43 371h-8q-3 -25 -11.5 -109t-16.5 -154.5t-15 -107.5l-97 -557h-614l-297 1464h534l91 -581q21 -123 43 -371h8q1 13 6 61t6.5 62t6 52.5t7.5 59.5l8 56t10.5 68t12.5 71l94 522h490l84 -497q40 -250 55 -447h8
q4 40 11 116.5t13.5 133.5t16.5 117l103 577h505zM846 1796h434l211 -256h-336l-90 92l-92 -92h-334z" />
    <glyph glyph-name="wcircumflex" unicode="&#x175;" horiz-adv-x="1908" 
d="M823 0h-520q-96 327 -305 1075h448l72 -323q4 -19 66 -349h6q30 174 72 367l67 305h455l69 -307q14 -59 39 -189.5t35 -175.5h4q39 212 72 365l65 307h445q-51 -186 -155 -543.5t-152 -531.5h-523l-61 268q-28 118 -66 326h-6q-6 -30 -26.5 -141.5t-38.5 -182.5z
M725 1464h451l221 -278h-355l-90 96l-92 -96h-350z" />
    <glyph glyph-name="Ycircumflex" unicode="&#x176;" horiz-adv-x="1355" 
d="M881 1464h516l-281 -546l-192 -373v-545h-498v545l-166 336q-244 487 -295 583h527q41 -88 106 -253t88 -218h4q16 39 50 127.5t67 169.5t74 174zM469 1796h434l211 -256h-336l-90 92l-92 -92h-334z" />
    <glyph glyph-name="ycircumflex" unicode="&#x177;" horiz-adv-x="1224" 
d="M776 1075h463q-67 -185 -266.5 -745.5t-249.5 -698.5h-459q9 29 61.5 171t67.5 194q-27 68 -128.5 320t-170 427.5t-125.5 331.5h475q31 -122 86 -307.5t76 -261.5h10zM383 1464h451l221 -278h-355l-90 96l-92 -96h-350z" />
    <glyph glyph-name="Ydieresis" unicode="&#x178;" horiz-adv-x="1355" 
d="M881 1464h516l-281 -546l-192 -373v-545h-498v545l-166 336q-244 487 -295 583h527q41 -88 106 -253t88 -218h4q16 39 50 127.5t67 169.5t74 174zM324 1540v256h305v-256h-305zM752 1540v256h303v-256h-303z" />
    <glyph glyph-name="Zacute" unicode="&#x179;" horiz-adv-x="1333" 
d="M55 0v342l445 571q23 28 72.5 89.5t80.5 97.5q-2 2 -2 4q-61 -4 -248 -4h-327v364h1175v-346l-409 -536q-23 -28 -82.5 -103.5t-95.5 -116.5q0 -2 2 -4q64 4 245 4h371v-362h-1227zM838 1540h-445l205 256h530z" />
    <glyph glyph-name="zacute" unicode="&#x17a;" horiz-adv-x="1146" 
d="M57 0v295l469 467l-2 2q-59 -4 -256 -4h-194v315h995v-295q-289 -289 -473 -465v-2q184 4 276 4h220v-317h-1035zM739 1186h-444l211 278h530z" />
    <glyph glyph-name="Zdotaccent" unicode="&#x17b;" horiz-adv-x="1333" 
d="M55 0v342l445 571q23 28 72.5 89.5t80.5 97.5q-2 2 -2 4q-61 -4 -248 -4h-327v364h1175v-346l-409 -536q-23 -28 -82.5 -103.5t-95.5 -116.5q0 -2 2 -4q64 4 245 4h371v-362h-1227zM510 1540v256h315v-256h-315z" />
    <glyph glyph-name="zdotaccent" unicode="&#x17c;" horiz-adv-x="1146" 
d="M57 0v295l469 467l-2 2q-59 -4 -256 -4h-194v315h995v-295q-289 -289 -473 -465v-2q184 4 276 4h220v-317h-1035zM414 1186v278h325v-278h-325z" />
    <glyph glyph-name="Zcaron" unicode="&#x17d;" horiz-adv-x="1333" 
d="M55 0v342l445 571q23 28 72.5 89.5t80.5 97.5q-2 2 -2 4q-61 -4 -248 -4h-327v364h1175v-346l-409 -536q-23 -28 -82.5 -103.5t-95.5 -116.5q0 -2 2 -4q64 4 245 4h371v-362h-1227zM899 1540h-434l-207 256h334l92 -92l90 92h336z" />
    <glyph glyph-name="zcaron" unicode="&#x17e;" horiz-adv-x="1146" 
d="M57 0v295l469 467l-2 2q-59 -4 -256 -4h-194v315h995v-295q-289 -289 -473 -465v-2q184 4 276 4h220v-317h-1035zM807 1186h-451l-215 278h351l92 -96l90 96h354z" />
    <glyph glyph-name="uni0186" unicode="&#x186;" horiz-adv-x="1579" 
d="M20 479h510q72 -135 220 -135q144 0 217 101.5t73 283.5q0 190 -72.5 294.5t-215.5 104.5q-89 0 -145 -42t-93 -125h-500q61 253 247.5 391.5t492.5 138.5q351 0 566.5 -207t215.5 -553q0 -351 -213 -554.5t-567 -203.5q-296 0 -482.5 131t-253.5 375z" />
    <glyph glyph-name="uni018F" unicode="&#x18f;" horiz-adv-x="1630" 
d="M27 858l1069 2q-23 129 -100 196.5t-199 67.5q-175 0 -246 -145h-500q17 70 53 138t100 136.5t146 120.5t200 84.5t255 32.5q238 0 416 -96t272 -267t94 -395q0 -164 -53 -302.5t-152 -240.5t-250.5 -159.5t-340.5 -57.5t-338 61t-242.5 167t-142 244t-48.5 298
q0 7 7 115zM1083 571h-563q12 -110 85 -173.5t190 -63.5q113 0 187 68t101 169z" />
    <glyph glyph-name="uni0190" unicode="&#x190;" horiz-adv-x="1302" 
d="M1237 999h-436q-6 152 -135 152q-54 0 -87.5 -27.5t-33.5 -74.5q0 -66 53 -102t184 -36h37v-293h-80q-118 0 -184 -39.5t-66 -113.5q0 -68 42.5 -107t125.5 -39q91 0 137 48.5t54 148.5h436q-5 -264 -165 -406.5t-453 -142.5q-286 0 -455.5 129t-169.5 344q0 221 227 344
q-80 51 -124 119.5t-44 181.5q0 184 150 299t409 115q264 0 418.5 -136t159.5 -364z" />
    <glyph glyph-name="florin" unicode="&#x192;" horiz-adv-x="1159" 
d="M156 653l45 336h174l2 8q34 245 140 368.5t314 123.5q133 0 277 -41l-43 -338q-42 14 -80 14q-62 0 -95.5 -32.5t-45.5 -102.5h203l-46 -336h-208l-70 -508q-21 -152 -51.5 -249.5t-82.5 -165.5t-129 -96.5t-190 -28.5q-71 0 -140.5 11.5t-93.5 18.5t-73 23l39 317
q47 -16 98 -16q35 0 62 14t44.5 36t31 60t21 76.5t15.5 94.5l56 413h-174z" />
    <glyph glyph-name="uni019D" unicode="&#x19d;" horiz-adv-x="1652" 
d="M106 1464h642l170 -420q72 -176 180 -460q1 0 3 1t3 1q-8 175 -8 356v522h450v-1464h-622l-230 530q-95 220 -147 392h-6q16 -219 16 -410v-512q0 -113 -26 -189.5t-81.5 -121.5t-132.5 -63.5t-188 -18.5q-118 0 -199 18v297q16 -2 43 -2q74 0 103.5 38.5t29.5 127.5
v1378z" />
    <glyph glyph-name="uni019F" unicode="&#x19f;" horiz-adv-x="1656" 
d="M827 1491q232 0 410.5 -92.5t277.5 -265.5t99 -402q0 -233 -98 -405.5t-276 -262.5t-415 -90q-233 0 -409.5 90t-274.5 262.5t-98 405.5q0 229 99 402t276.5 265.5t408.5 92.5zM827 344q109 0 177.5 62t93.5 176h-545q27 -114 95.5 -176t178.5 -62zM827 1128
q-205 0 -268 -223h535q-62 223 -267 223z" />
    <glyph glyph-name="Ohorn" unicode="&#x1a0;" horiz-adv-x="1654" 
d="M827 1491q232 0 410.5 -92.5t277.5 -265.5t99 -402q0 -233 -98 -405.5t-276 -262.5t-415 -90q-233 0 -409.5 90t-274.5 262.5t-98 405.5q0 229 99 402t276.5 265.5t408.5 92.5zM827 344q140 0 213.5 102t73.5 285q0 189 -73 293t-214 104q-143 0 -215.5 -104.5
t-72.5 -294.5q0 -182 72.5 -283.5t215.5 -101.5zM1722 1855l-182 -405h-397l114 405h465z" />
    <glyph glyph-name="ohorn" unicode="&#x1a1;" horiz-adv-x="1345" 
d="M641 1112q279 0 442.5 -158.5t163.5 -416.5q0 -256 -162 -413t-442 -157q-283 0 -443.5 157t-160.5 415q0 257 161.5 415t440.5 158zM639 805q-83 0 -119.5 -67.5t-36.5 -196.5q0 -132 36.5 -197t121.5 -65q83 0 119.5 65t36.5 195t-37 198t-121 68zM1548 1464l-182 -405
h-397l114 405h465z" />
    <glyph glyph-name="Uhorn" unicode="&#x1af;" horiz-adv-x="1540" 
d="M1454 1870l-182 -406h178v-852q0 -167 -39.5 -278.5t-120.5 -192.5q-175 -172 -520 -172t-520 172q-81 81 -120.5 192.5t-39.5 278.5v852h496v-829q0 -116 48.5 -177t135.5 -61q186 0 186 248v819h-82l115 406h465z" />
    <glyph glyph-name="uhorn" unicode="&#x1b0;" horiz-adv-x="1302" 
d="M1212 1481l-182 -406h184v-897q0 -90 3 -178h-408q0 11 -0.5 34.5t-0.5 47t1 47.5h-4q-38 -65 -133 -110.5t-219 -45.5q-107 0 -189 44t-129 128q-35 63 -46 138.5t-11 222.5v569h438v-553q0 -125 26.5 -176t96.5 -51q75 0 106 59t31 205v516h-143l115 406h464z" />
    <glyph glyph-name="uni01C4" unicode="&#x1c4;" horiz-adv-x="2930" 
d="M106 0v1464h521q141 0 213 -2q330 -12 521 -202t191 -523q0 -193 -82.5 -362.5t-214.5 -253.5q-123 -72 -266.5 -96.5t-363.5 -24.5h-519zM596 1112v-758h53q103 0 187 23q111 32 164 118.5t53 239.5q0 287 -215 355q-74 22 -187 22h-55zM1653 0v342l444 571
q19 23 70.5 87t83.5 100q-2 2 -2 4q-61 -4 -248 -4h-328v364h1176v-346l-410 -536q-23 -28 -82.5 -103.5t-95.5 -116.5q0 -2 2 -4q64 4 246 4h370v-362h-1226zM2497 1540h-435l-207 256h334l92 -92l91 92h335z" />
    <glyph glyph-name="uni01C5" unicode="&#x1c5;" horiz-adv-x="2744" 
d="M106 0v1464h521q141 0 213 -2q330 -12 521 -202t191 -523q0 -193 -82.5 -362.5t-214.5 -253.5q-123 -72 -266.5 -96.5t-363.5 -24.5h-519zM596 1112v-758h53q103 0 187 23q111 32 164 118.5t53 239.5q0 287 -215 355q-74 22 -187 22h-55zM1655 0v295l469 467l-2 2
q-59 -4 -256 -4h-195v315h995v-295q-289 -289 -473 -465v-2q184 4 277 4h219v-317h-1034zM2404 1186h-450l-215 278h350l92 -96l90 96h355z" />
    <glyph glyph-name="uni01C6" unicode="&#x1c6;" horiz-adv-x="2482" 
d="M1247 0h-420q0 92 2 127q-114 -152 -325 -152q-213 0 -337 152.5t-124 409.5q0 261 125.5 415t335.5 154q197 0 307 -133q0 27 -1 104t-1 105v282h438v-1464zM664 805q-76 0 -113 -70.5t-37 -193.5q0 -262 152 -262q149 0 149 260q0 266 -151 266zM1393 0v295l469 467
l-2 2q-59 -4 -256 -4h-195v315h995v-295q-289 -289 -473 -465v-2q184 4 277 4h219v-317h-1034zM2142 1186h-450l-215 278h350l92 -96l90 96h354z" />
    <glyph glyph-name="uni01C7" unicode="&#x1c7;" horiz-adv-x="2387" 
d="M1200 0h-1094v1464h496v-1095h598v-369zM1735 -31q-257 0 -382.5 114.5t-125.5 330.5h409q5 -46 23.5 -69t62.5 -23q59 0 78 44.5t19 153.5v944h475v-962q0 -271 -143.5 -402t-415.5 -131z" />
    <glyph glyph-name="uni01C8" unicode="&#x1c8;" horiz-adv-x="1839" 
d="M1200 0h-1094v1464h496v-1095h598v-369zM1313 1075h438v-1075q0 -113 -26 -190t-80.5 -121.5t-129 -63t-182.5 -18.5q-115 0 -196 18v297q16 -2 43 -2q74 0 103.5 38.5t29.5 127.5v989zM1313 1186v278h438v-278h-438z" />
    <glyph glyph-name="uni01C9" unicode="&#x1c9;" horiz-adv-x="1234" 
d="M528 0h-438v1464h438v-1464zM709 1075h438v-1075q0 -113 -26 -190t-80.5 -121.5t-129 -63t-182.5 -18.5q-116 0 -197 18v297q16 -2 43 -2q74 0 104 38.5t30 127.5v989zM709 1186v278h438v-278h-438z" />
    <glyph glyph-name="uni01CA" unicode="&#x1ca;" horiz-adv-x="2818" 
d="M1546 1464v-1464h-622l-230 530q-95 220 -147 392h-6q16 -219 16 -410v-512h-451v1464h642l170 -420q72 -176 180 -460q1 0 3 1t3 1q-8 175 -8 356v522h450zM2165 -31q-257 0 -382.5 114.5t-125.5 330.5h409q5 -46 23.5 -69t62.5 -23q59 0 78 44.5t19 153.5v944h475v-962
q0 -271 -143.5 -402t-415.5 -131z" />
    <glyph glyph-name="uni01CB" unicode="&#x1cb;" horiz-adv-x="2269" 
d="M1546 1464v-1464h-622l-230 530q-95 220 -147 392h-6q16 -219 16 -410v-512h-451v1464h642l170 -420q72 -176 180 -460q1 0 3 1t3 1q-8 175 -8 356v522h450zM1743 1075h438v-1075q0 -113 -26 -190t-80.5 -121.5t-129 -63t-182.5 -18.5q-115 0 -196 18v297q16 -2 43 -2
q74 0 103.5 38.5t29.5 127.5v989zM1743 1186v278h438v-278h-438z" />
    <glyph glyph-name="uni01CC" unicode="&#x1cc;" horiz-adv-x="1927" 
d="M86 1075h408q0 -11 0.5 -35.5t0.5 -49t-1 -48.5h4q38 70 126.5 115t215.5 45q116 0 202.5 -44t133.5 -128q35 -63 46 -138.5t11 -222.5v-569h-438v549q0 125 -27.5 178t-99.5 53q-79 0 -110.5 -60t-31.5 -208v-512h-438v897q0 119 -2 178zM1401 1075h438v-1075
q0 -113 -26 -190t-80.5 -121.5t-129 -63t-182.5 -18.5q-115 0 -196 18v297q16 -2 43 -2q74 0 103.5 38.5t29.5 127.5v989zM1401 1186v278h438v-278h-438z" />
    <glyph glyph-name="uni01F1" unicode="&#x1f1;" horiz-adv-x="2910" 
d="M106 0v1464h521q141 0 213 -2q330 -12 521 -202t191 -523q0 -193 -82.5 -362.5t-214.5 -253.5q-123 -72 -266.5 -96.5t-363.5 -24.5h-519zM596 1112v-758h53q103 0 187 23q111 32 164 118.5t53 239.5q0 287 -215 355q-74 22 -187 22h-55zM1632 0v342l445 571
q23 28 72.5 89.5t80.5 97.5q-2 2 -2 4q-61 -4 -248 -4h-327v364h1175v-346l-409 -536q-23 -28 -82.5 -103.5t-95.5 -116.5q0 -2 2 -4q64 4 245 4h371v-362h-1227z" />
    <glyph glyph-name="uni01F2" unicode="&#x1f2;" horiz-adv-x="2744" 
d="M106 0v1464h521q141 0 213 -2q330 -12 521 -202t191 -523q0 -193 -82.5 -362.5t-214.5 -253.5q-123 -72 -266.5 -96.5t-363.5 -24.5h-519zM596 1112v-758h53q103 0 187 23q111 32 164 118.5t53 239.5q0 287 -215 355q-74 22 -187 22h-55zM1655 0v295l469 467l-2 2
q-59 -4 -256 -4h-195v315h995v-295q-289 -289 -473 -465v-2q184 4 277 4h219v-317h-1034z" />
    <glyph glyph-name="uni01F3" unicode="&#x1f3;" horiz-adv-x="2482" 
d="M1247 0h-420q0 92 2 127q-114 -152 -325 -152q-213 0 -337 152.5t-124 409.5q0 261 125.5 415t335.5 154q197 0 307 -133q0 27 -1 104t-1 105v282h438v-1464zM664 805q-76 0 -113 -70.5t-37 -193.5q0 -262 152 -262q149 0 149 260q0 266 -151 266zM1393 0v295l469 467
l-2 2q-59 -4 -256 -4h-195v315h995v-295q-289 -289 -473 -465v-2q184 4 277 4h219v-317h-1034z" />
    <glyph glyph-name="Aringacute" unicode="&#x1fa;" horiz-adv-x="1531" 
d="M432 0h-473q249 703 537 1464h548q198 -555 531 -1464h-485l-103 291h-457zM635 647h250q-7 24 -29.5 94t-34.5 109t-29.5 100t-29.5 113h-6q-14 -63 -33 -129.5t-49.5 -163.5t-38.5 -123zM764 1499q-94 0 -160.5 68.5t-66.5 163.5q0 92 67.5 159.5t161.5 67.5
t161.5 -67.5t67.5 -159.5q0 -95 -67.5 -163.5t-163.5 -68.5zM696 1731q0 -29 19.5 -49.5t48.5 -20.5t48 19.5t19 50.5q0 27 -19 46t-48 19t-48.5 -19t-19.5 -46zM958 1993h-444l205 256h530z" />
    <glyph glyph-name="aringacute" unicode="&#x1fb;" horiz-adv-x="1198" 
d="M1147 0h-377q-6 41 -6 115h-4q-102 -138 -338 -138q-181 0 -286 87.5t-105 240.5q0 124 81 200.5t240 119.5q130 38 373 51q0 88 -30.5 124t-94.5 36q-61 0 -92.5 -33t-38.5 -86h-395q17 189 158 291t370 102q127 0 220.5 -25t163 -81.5t104 -152.5t34.5 -233v-266
q0 -99 1 -147t6 -107t16 -98zM719 451l-68 -11q-125 -19 -170 -44.5t-45 -78.5q0 -48 31 -74t90 -26q74 0 118 44.5t44 141.5v48zM612 1151q-95 0 -161 68.5t-66 162.5q0 92 67.5 160t161.5 68t162 -68t68 -160q0 -94 -68 -162.5t-164 -68.5zM545 1382q0 -29 19 -49t48 -20
q30 0 49 19.5t19 49.5q0 27 -19.5 46.5t-48.5 19.5t-48 -19.5t-19 -46.5zM803 1647h-445l211 278h531z" />
    <glyph glyph-name="AEacute" unicode="&#x1fc;" horiz-adv-x="2209" 
d="M2132 1464v-360h-635l6 -176h578v-377h-572l4 -191h627v-360h-1089l-9 281h-448l-154 -281h-499l850 1464h1341zM784 647h254q-3 109 -3 248t-3 221h-2q-144 -287 -246 -469zM1528 1540h-445l205 256h531z" />
    <glyph glyph-name="aeacute" unicode="&#x1fd;" horiz-adv-x="1914" 
d="M1450 352h428q-52 -175 -204 -280t-388 -105q-268 0 -422 148q-60 -60 -167 -99t-255 -39q-199 0 -305 86.5t-106 241.5q0 124 81 200.5t240 119.5q130 38 373 51q0 88 -30.5 124t-94.5 36q-61 0 -92.5 -33t-38.5 -86h-395q17 189 158 291t370 102q231 0 354 -92
q153 94 349 94q265 0 425 -159.5t160 -446.5q0 -33 -2 -60h-762q4 -92 48 -140t122 -48q66 0 103.5 28.5t50.5 65.5zM719 451l-68 -11q-125 -19 -170 -44.5t-45 -78.5q0 -48 31 -74t90 -26q74 0 118 44.5t44 141.5v48zM1128 670h336q-18 170 -161 170q-76 0 -120 -45
t-55 -125zM1149 1186h-444l210 278h531z" />
    <glyph glyph-name="Oslashacute" unicode="&#x1fe;" horiz-adv-x="1656" 
d="M827 1491q92 0 183 -16l84 149l374 -199l-77 -137q223 -207 223 -557q0 -233 -98 -405.5t-276 -262.5t-415 -90q-93 0 -178 15l-88 -158l-375 199l80 141q-221 208 -221 561q0 229 99 402t276.5 265.5t408.5 92.5zM539 729q0 -28 4 -90l280 489q-140 -1 -212 -106
t-72 -293zM1114 731q0 28 -4 90l-272 -477q135 4 205.5 106t70.5 281zM942 1540h-444l204 256h531z" />
    <glyph glyph-name="oslashacute" unicode="&#x1ff;" horiz-adv-x="1286" 
d="M739 1186h-444l211 278h530zM641 1112q70 0 111 -8l73 129l314 -158l-66 -112q174 -157 174 -426q0 -256 -162 -413t-442 -157q-62 0 -127 10l-70 -122l-313 161l64 111q-158 152 -158 412q0 257 161.5 415t440.5 158zM797 539q0 27 -2 41l-170 -301h16q83 0 119.5 65
t36.5 195zM645 805h-6q-83 0 -119.5 -67.5t-36.5 -196.5v-23z" />
    <glyph glyph-name="uni0218" unicode="&#x218;" horiz-adv-x="1394" 
d="M1329 1004h-473q-27 159 -170 159q-66 0 -101.5 -25.5t-35.5 -68.5q0 -19 5.5 -33.5t21 -27.5t31 -22t47.5 -19.5t58.5 -18t75.5 -20.5l82 -23q269 -74 379.5 -176.5t110.5 -284.5q0 -218 -175.5 -344.5t-484.5 -126.5q-316 0 -485.5 131.5t-187.5 374.5h501
q18 -174 189 -174q77 0 121.5 28t44.5 81q0 19 -8 33.5t-19 24t-36 20t-44 16.5t-59 18l-174 47q-263 73 -370 180.5t-107 290.5q0 206 163 326.5t461 120.5q286 0 452.5 -124t186.5 -363zM297 -334l199 244h446l-160 -244h-485z" />
    <glyph glyph-name="uni0219" unicode="&#x219;" horiz-adv-x="1187" 
d="M25 369h407q24 -136 176 -136q125 0 125 70q0 30 -28.5 45t-110.5 35l-164 37q-198 43 -285.5 123.5t-87.5 224.5q0 161 138 253.5t389 92.5q508 0 542 -377h-391q-12 62 -48 90.5t-103 28.5q-56 0 -84.5 -17.5t-28.5 -47.5q0 -31 29.5 -47.5t128.5 -41.5l131 -32
q213 -54 305 -131.5t92 -216.5q0 -176 -142.5 -265.5t-414.5 -89.5q-266 0 -404 98t-171 304zM209 -334l199 244h446l-160 -244h-485z" />
    <glyph glyph-name="uni021A" unicode="&#x21a;" horiz-adv-x="1261" 
d="M879 0h-496v1096h-358v368h1212v-368h-358v-1096zM233 -334l199 244h447l-160 -244h-486z" />
    <glyph glyph-name="uni021B" unicode="&#x21b;" horiz-adv-x="839" 
d="M80 -334l199 244h446l-160 -244h-485zM172 760h-147v315h147v287h438v-287h174v-315h-174v-205q0 -51 0.5 -76.5t2.5 -59.5t6.5 -49t12.5 -33t20.5 -25t29.5 -12t41 -5q22 0 49 6v-307q-72 -14 -180 -14q-112 0 -187 17t-129 60t-79 117t-25 186v400z" />
    <glyph glyph-name="uni021D" unicode="&#x21d;" horiz-adv-x="1275" 
d="M500 614h-437q5 228 159.5 364t418.5 136q259 0 409 -115t150 -299q0 -113 -44 -181.5t-124 -119.5q228 -123 228 -344q0 -215 -169.5 -344t-455.5 -129q-293 0 -453.5 142.5t-165.5 406.5h437q8 -100 53.5 -148.5t136.5 -48.5q83 0 125.5 39t42.5 107q0 74 -66 113.5
t-184 39.5h-80v293h37q131 0 184.5 36t53.5 102q0 47 -33.5 74.5t-87.5 27.5q-129 0 -135 -152z" />
    <glyph glyph-name="uni0226" unicode="&#x226;" horiz-adv-x="1531" 
d="M432 0h-473q249 703 537 1464h548q198 -555 531 -1464h-485l-103 291h-457zM635 647h250q-7 24 -29.5 94t-34.5 109t-29.5 100t-29.5 113h-6q-14 -63 -33 -129.5t-49.5 -163.5t-38.5 -123zM602 1540v256h316v-256h-316z" />
    <glyph glyph-name="uni0227" unicode="&#x227;" horiz-adv-x="1198" 
d="M1147 0h-377q-6 41 -6 115h-4q-102 -138 -338 -138q-181 0 -286 87.5t-105 240.5q0 124 81 200.5t240 119.5q130 38 373 51q0 88 -30.5 124t-94.5 36q-61 0 -92.5 -33t-38.5 -86h-395q17 189 158 291t370 102q127 0 220.5 -25t163 -81.5t104 -152.5t34.5 -233v-266
q0 -99 1 -147t6 -107t16 -98zM719 451l-68 -11q-125 -19 -170 -44.5t-45 -78.5q0 -48 31 -74t90 -26q74 0 118 44.5t44 141.5v48zM436 1186v278h326v-278h-326z" />
    <glyph glyph-name="uni0232" unicode="&#x232;" horiz-adv-x="1355" 
d="M881 1464h516l-281 -546l-192 -373v-545h-498v545l-166 336q-244 487 -295 583h527q41 -88 106 -253t88 -218h4q16 39 50 127.5t67 169.5t74 174zM410 1540v246h559v-246h-559z" />
    <glyph glyph-name="uni0233" unicode="&#x233;" horiz-adv-x="1224" 
d="M776 1075h463q-67 -185 -266.5 -745.5t-249.5 -698.5h-459q9 29 61.5 171t67.5 194q-27 68 -128.5 320t-170 427.5t-125.5 331.5h475q31 -122 86 -307.5t76 -261.5h10zM334 1202v256h559v-256h-559z" />
    <glyph glyph-name="dotlessj" unicode="&#x237;" horiz-adv-x="616" 
d="M90 1075h438v-1075q0 -113 -25.5 -190t-80 -121.5t-129 -63t-182.5 -18.5q-116 0 -197 18v297q16 -2 43 -2q74 0 103.5 38.5t29.5 127.5v989z" />
    <glyph glyph-name="uni0254" unicode="&#x254;" horiz-adv-x="1232" 
d="M457 680h-437q38 199 185 314.5t399 115.5q274 0 432 -157t158 -412q0 -256 -163 -416t-437 -160q-237 0 -387 115.5t-182 318.5h432q28 -127 139 -127q158 0 158 265q0 132 -38.5 197t-121.5 65q-110 0 -137 -119z" />
    <glyph glyph-name="uni0259" unicode="&#x259;" horiz-adv-x="1253" 
d="M465 723h-428q56 176 205 280.5t387 104.5q275 0 430 -156.5t155 -423.5q0 -249 -167 -407t-431 -158q-269 0 -430 159t-161 447q0 33 2 60h761q-4 92 -48 140t-122 48q-66 0 -103 -28.5t-50 -65.5zM786 406h-335q18 -170 161 -170q76 0 119.5 45t54.5 125z" />
    <glyph glyph-name="uni025B" unicode="&#x25b;" horiz-adv-x="1275" 
d="M1214 614h-436q-6 152 -135 152q-54 0 -87.5 -27.5t-33.5 -74.5q0 -66 53.5 -102t184.5 -36h37v-293h-80q-118 0 -184 -39.5t-66 -113.5q0 -68 42.5 -107t125.5 -39q91 0 136.5 48.5t53.5 148.5h437q-5 -264 -165.5 -406.5t-453.5 -142.5q-286 0 -455.5 129t-169.5 344
q0 221 228 344q-80 51 -124 119.5t-44 181.5q0 184 150 299t409 115q264 0 418 -136t159 -364z" />
    <glyph glyph-name="uni0272" unicode="&#x272;" horiz-adv-x="1312" 
d="M528 512v-512q0 -113 -25.5 -190t-80 -121.5t-129 -63t-182.5 -18.5q-116 0 -197 18v297q16 -2 43 -2q74 0 103.5 38.5t29.5 127.5v811q0 119 -2 178h408q0 -11 0.5 -35.5t0.5 -49t-1 -48.5h4q38 70 126.5 115t215.5 45q116 0 202.5 -44t133.5 -128q35 -63 46 -138.5
t11 -222.5v-569h-438v549q0 125 -27.5 178t-99.5 53q-79 0 -110.5 -60t-31.5 -208z" />
    <glyph glyph-name="uni0275" unicode="&#x275;" horiz-adv-x="1286" 
d="M641 1112q279 0 442.5 -158.5t163.5 -416.5q0 -256 -162 -413t-442 -157q-283 0 -443.5 157t-160.5 415q0 257 161.5 415t440.5 158zM641 279q115 0 143 137h-290q27 -137 147 -137zM639 805q-58 0 -90.5 -31t-50.5 -94h282q-18 63 -50.5 94t-90.5 31z" />
    <glyph glyph-name="apostrophemod" unicode="&#x2bc;" horiz-adv-x="604" 
d="M586 1464l-199 -522h-373l144 522h428z" />
    <glyph glyph-name="circumflex" unicode="&#x2c6;" horiz-adv-x="1030" 
d="M303 1464h451l221 -278h-354l-91 96l-92 -96h-350z" />
    <glyph glyph-name="caron" unicode="&#x2c7;" horiz-adv-x="1030" 
d="M754 1186h-451l-215 278h350l92 -96l91 96h354z" />
    <glyph glyph-name="breve" unicode="&#x2d8;" horiz-adv-x="952" 
d="M477 1171q-143 0 -231.5 77t-98.5 216h246q13 -67 84 -67q67 0 84 67h244q-12 -140 -99 -216.5t-229 -76.5z" />
    <glyph glyph-name="dotaccent" unicode="&#x2d9;" horiz-adv-x="671" 
d="M211 1186v278h326v-278h-326z" />
    <glyph glyph-name="ring" unicode="&#x2da;" horiz-adv-x="829" 
d="M489 1155q-95 0 -161 68.5t-66 162.5q0 92 68 160t162 68t161.5 -68t67.5 -160q0 -94 -68 -162.5t-164 -68.5zM422 1386q0 -29 19 -49t48 -20t48.5 19.5t19.5 49.5q0 27 -19.5 46.5t-48.5 19.5t-48 -19.5t-19 -46.5z" />
    <glyph glyph-name="ogonek" unicode="&#x2db;" horiz-adv-x="677" 
d="M485 -90l199 -244h-485l-160 244h446z" />
    <glyph glyph-name="tilde" unicode="&#x2dc;" horiz-adv-x="1089" 
d="M471 1186h-225q0 134 67.5 214.5t178.5 80.5q74 0 155 -43q65 -33 88 -33t35.5 12.5t13.5 46.5h226q0 -139 -61.5 -217t-180.5 -78q-77 0 -139 33l-21 10q-67 33 -88 33q-23 0 -35.5 -12.5t-13.5 -46.5z" />
    <glyph glyph-name="hungarumlaut" unicode="&#x2dd;" horiz-adv-x="1253" 
d="M459 1186h-414l211 278h500zM1051 1186h-414l211 278h500z" />
    <glyph glyph-name="uni032C" unicode="&#x32c;" horiz-adv-x="1030" 
d="M293 -88h450l222 -279h-355l-90 97l-92 -97h-350z" />
    <glyph glyph-name="uni0394" unicode="&#x394;" horiz-adv-x="1304" 
d="M463 1464h381l497 -1464h-1378zM657 987h-6q-13 -53 -76 -260l-114 -365h385l-115 363q-53 174 -74 262z" />
    <glyph glyph-name="uni03A9" unicode="&#x3a9;" horiz-adv-x="1720" 
d="M858 1491q184 0 335 -50t249.5 -137t151.5 -202.5t53 -247.5q0 -81 -16 -152.5t-40 -123t-59.5 -98t-67 -76.5t-71.5 -60h260v-344h-725v354q111 61 171 168.5t60 253.5q0 154 -79 253t-222 99t-221 -99t-78 -253q0 -145 60.5 -253t171.5 -169v-354h-723v344h260
q-40 30 -71.5 60t-67 76.5t-59.5 98t-40 123t-16 152.5q0 132 52.5 247.5t150.5 202.5t248 137t333 50z" />
    <glyph glyph-name="uni03BC" unicode="&#x3bc;" horiz-adv-x="1312" 
d="M526 -369h-438v1444h438v-553q0 -125 26.5 -176t96.5 -51q75 0 106 59t31 205v516h439v-899q0 -119 2 -176h-410v121q-21 -46 -60 -77.5t-80 -43t-83 -16.5t-68 4v-357z" />
    <glyph glyph-name="pi" unicode="&#x3c0;" horiz-adv-x="1501" 
d="M616 0h-438v748h-158v327h1416v-327h-166v-193v-55t1 -46.5t2.5 -41t4 -33t6.5 -28t10.5 -20.5t14.5 -17t19 -10.5t24 -7t30 -1.5q23 0 50 6v-307q-72 -14 -181 -14q-112 0 -187 17t-129 60t-79 117t-25 186v388h-215v-748z" />
    <glyph glyph-name="Wgrave" unicode="&#x1e80;" horiz-adv-x="2109" 
d="M2111 1464l-299 -1464h-624l-88 557q-21 113 -43 371h-8q-3 -25 -11.5 -109t-16.5 -154.5t-15 -107.5l-97 -557h-614l-297 1464h534l91 -581q21 -123 43 -371h8q1 13 6 61t6.5 62t6 52.5t7.5 59.5l8 56t10.5 68t12.5 71l94 522h490l84 -497q40 -250 55 -447h8
q4 40 11 116.5t13.5 133.5t16.5 117l103 577h505zM1327 1540h-444l-291 256h530z" />
    <glyph glyph-name="wgrave" unicode="&#x1e81;" horiz-adv-x="1908" 
d="M823 0h-520q-96 327 -305 1075h448l72 -323q4 -19 66 -349h6q30 174 72 367l67 305h455l69 -307q14 -59 39 -189.5t35 -175.5h4q39 212 72 365l65 307h445q-51 -186 -155 -543.5t-152 -531.5h-523l-61 268q-28 118 -66 326h-6q-6 -30 -26.5 -141.5t-38.5 -182.5z
M1241 1186h-444l-297 278h530z" />
    <glyph glyph-name="Wacute" unicode="&#x1e82;" horiz-adv-x="2109" 
d="M2111 1464l-299 -1464h-624l-88 557q-21 113 -43 371h-8q-3 -25 -11.5 -109t-16.5 -154.5t-15 -107.5l-97 -557h-614l-297 1464h534l91 -581q21 -123 43 -371h8q1 13 6 61t6.5 62t6 52.5t7.5 59.5l8 56t10.5 68t12.5 71l94 522h490l84 -497q40 -250 55 -447h8
q4 40 11 116.5t13.5 133.5t16.5 117l103 577h505zM1233 1540h-445l205 256h531z" />
    <glyph glyph-name="wacute" unicode="&#x1e83;" horiz-adv-x="1908" 
d="M823 0h-520q-96 327 -305 1075h448l72 -323q4 -19 66 -349h6q30 174 72 367l67 305h455l69 -307q14 -59 39 -189.5t35 -175.5h4q39 212 72 365l65 307h445q-51 -186 -155 -543.5t-152 -531.5h-523l-61 268q-28 118 -66 326h-6q-6 -30 -26.5 -141.5t-38.5 -182.5z
M1157 1186h-444l211 278h530z" />
    <glyph glyph-name="Wdieresis" unicode="&#x1e84;" horiz-adv-x="2109" 
d="M2111 1464l-299 -1464h-624l-88 557q-21 113 -43 371h-8q-3 -25 -11.5 -109t-16.5 -154.5t-15 -107.5l-97 -557h-614l-297 1464h534l91 -581q21 -123 43 -371h8q1 13 6 61t6.5 62t6 52.5t7.5 59.5l8 56t10.5 68t12.5 71l94 522h490l84 -497q40 -250 55 -447h8
q4 40 11 116.5t13.5 133.5t16.5 117l103 577h505zM694 1540v256h305v-256h-305zM1122 1540v256h303v-256h-303z" />
    <glyph glyph-name="wdieresis" unicode="&#x1e85;" horiz-adv-x="1908" 
d="M823 0h-520q-96 327 -305 1075h448l72 -323q4 -19 66 -349h6q30 174 72 367l67 305h455l69 -307q14 -59 39 -189.5t35 -175.5h4q39 212 72 365l65 307h445q-51 -186 -155 -543.5t-152 -531.5h-523l-61 268q-28 118 -66 326h-6q-6 -30 -26.5 -141.5t-38.5 -182.5z
M582 1186v278h315v-278h-315zM1020 1186v278h313v-278h-313z" />
    <glyph glyph-name="uni1EA0" unicode="&#x1ea0;" horiz-adv-x="1531" 
d="M432 0h-473q249 703 537 1464h548q198 -555 531 -1464h-485l-103 291h-457zM635 647h250q-7 24 -29.5 94t-34.5 109t-29.5 100t-29.5 113h-6q-14 -63 -33 -129.5t-49.5 -163.5t-38.5 -123zM598 -373v279h326v-279h-326z" />
    <glyph glyph-name="uni1EA1" unicode="&#x1ea1;" horiz-adv-x="1198" 
d="M1147 0h-377q-6 41 -6 115h-4q-102 -138 -338 -138q-181 0 -286 87.5t-105 240.5q0 124 81 200.5t240 119.5q130 38 373 51q0 88 -30.5 124t-94.5 36q-61 0 -92.5 -33t-38.5 -86h-395q17 189 158 291t370 102q127 0 220.5 -25t163 -81.5t104 -152.5t34.5 -233v-266
q0 -99 1 -147t6 -107t16 -98zM719 451l-68 -11q-125 -19 -170 -44.5t-45 -78.5q0 -48 31 -74t90 -26q74 0 118 44.5t44 141.5v48zM436 -373v279h326v-279h-326z" />
    <glyph glyph-name="uni1EB8" unicode="&#x1eb8;" horiz-adv-x="1288" 
d="M596 551v-191h623v-360h-1113v1464h1104v-360h-614v-176h561v-377h-561zM498 -373v279h325v-279h-325z" />
    <glyph glyph-name="uni1EB9" unicode="&#x1eb9;" horiz-adv-x="1253" 
d="M788 352h429q-56 -176 -205 -280.5t-387 -104.5q-275 0 -430.5 156.5t-155.5 423.5q0 249 167 407t431 158q270 0 431 -159t161 -447q0 -33 -2 -60h-762q4 -92 48 -140t122 -48q66 0 103 28.5t50 65.5zM467 670h336q-18 170 -162 170q-76 0 -119.5 -45t-54.5 -125z
M479 -373v279h326v-279h-326z" />
    <glyph glyph-name="uni1ECA" unicode="&#x1eca;" horiz-adv-x="708" 
d="M602 0h-496v1464h496v-1464zM190 -373v279h326v-279h-326z" />
    <glyph glyph-name="uni1ECB" unicode="&#x1ecb;" horiz-adv-x="614" 
d="M88 1186v278h438v-278h-438zM526 0h-438v1075h438v-1075zM145 -373v279h326v-279h-326z" />
    <glyph glyph-name="uni1ECC" unicode="&#x1ecc;" horiz-adv-x="1656" 
d="M827 1491q232 0 410.5 -92.5t277.5 -265.5t99 -402q0 -233 -98 -405.5t-276 -262.5t-415 -90q-233 0 -409.5 90t-274.5 262.5t-98 405.5q0 229 99 402t276.5 265.5t408.5 92.5zM827 344q140 0 213.5 102t73.5 285q0 189 -73 293t-214 104q-143 0 -215.5 -104.5
t-72.5 -294.5q0 -182 72.5 -283.5t215.5 -101.5zM666 -373v279h325v-279h-325z" />
    <glyph glyph-name="uni1ECD" unicode="&#x1ecd;" horiz-adv-x="1286" 
d="M641 1112q279 0 442.5 -158.5t163.5 -416.5q0 -256 -162 -413t-442 -157q-283 0 -443.5 157t-160.5 415q0 257 161.5 415t440.5 158zM639 805q-83 0 -119.5 -67.5t-36.5 -196.5q0 -132 36.5 -197t121.5 -65q83 0 119.5 65t36.5 195t-37 198t-121 68zM473 -373v279h326
v-279h-326z" />
    <glyph glyph-name="uni1EE4" unicode="&#x1ee4;" horiz-adv-x="1540" 
d="M1450 1464v-852q0 -167 -39.5 -278.5t-120.5 -192.5q-175 -172 -520 -172t-520 172q-81 81 -120.5 192.5t-39.5 278.5v852h496v-829q0 -116 48.5 -177t135.5 -61q186 0 186 248v819h494zM608 -373v279h326v-279h-326z" />
    <glyph glyph-name="uni1EE5" unicode="&#x1ee5;" horiz-adv-x="1302" 
d="M1217 0h-408q0 11 -0.5 34.5t-0.5 47t1 47.5h-4q-38 -65 -133 -110.5t-219 -45.5q-107 0 -189 44t-129 128q-35 63 -46 138.5t-11 222.5v569h438v-553q0 -125 26.5 -176t96.5 -51q75 0 106 59t31 205v516h438v-897q0 -90 3 -178zM483 -373v279h326v-279h-326z" />
    <glyph glyph-name="Ygrave" unicode="&#x1ef2;" horiz-adv-x="1355" 
d="M881 1464h516l-281 -546l-192 -373v-545h-498v545l-166 336q-244 487 -295 583h527q41 -88 106 -253t88 -218h4q16 39 50 127.5t67 169.5t74 174zM952 1540h-444l-291 256h531z" />
    <glyph glyph-name="ygrave" unicode="&#x1ef3;" horiz-adv-x="1224" 
d="M776 1075h463q-67 -185 -266.5 -745.5t-249.5 -698.5h-459q9 29 61.5 171t67.5 194q-27 68 -128.5 320t-170 427.5t-125.5 331.5h475q31 -122 86 -307.5t76 -261.5h10zM903 1186h-444l-297 278h530z" />
    <glyph glyph-name="enspace" unicode="&#x2002;" horiz-adv-x="1024" 
 />
    <glyph glyph-name="emspace" unicode="&#x2003;" horiz-adv-x="2048" 
 />
    <glyph glyph-name="threeperemspace" unicode="&#x2004;" horiz-adv-x="0" 
 />
    <glyph glyph-name="fourperemspace" unicode="&#x2005;" horiz-adv-x="512" 
 />
    <glyph glyph-name="thinspace" unicode="&#x2009;" horiz-adv-x="272" 
 />
    <glyph glyph-name="hairspace" unicode="&#x200a;" horiz-adv-x="153" 
 />
    <glyph glyph-name="endash" unicode="&#x2013;" horiz-adv-x="1163" 
d="M94 438v340h975v-340h-975z" />
    <glyph glyph-name="emdash" unicode="&#x2014;" horiz-adv-x="1910" 
d="M94 438v340h1723v-340h-1723z" />
    <glyph glyph-name="quoteleft" unicode="&#x2018;" horiz-adv-x="647" 
d="M45 942l199 522h372l-143 -522h-428z" />
    <glyph glyph-name="quoteright" unicode="&#x2019;" horiz-adv-x="641" 
d="M625 1464l-199 -522h-373l144 522h428z" />
    <glyph glyph-name="quotesinglbase" unicode="&#x201a;" horiz-adv-x="641" 
d="M586 387l-199 -522h-373l144 522h428z" />
    <glyph glyph-name="quotedblleft" unicode="&#x201c;" horiz-adv-x="1161" 
d="M559 942l199 522h372l-143 -522h-428zM45 942l199 522h372l-143 -522h-428z" />
    <glyph glyph-name="quotedblright" unicode="&#x201d;" horiz-adv-x="1155" 
d="M625 1464l-199 -522h-373l144 522h428zM1139 1464l-199 -522h-373l144 522h428z" />
    <glyph glyph-name="quotedblbase" unicode="&#x201e;" horiz-adv-x="1155" 
d="M586 387l-199 -522h-373l144 522h428zM1100 387l-199 -522h-373l144 522h428z" />
    <glyph glyph-name="dagger" unicode="&#x2020;" horiz-adv-x="1028" 
d="M733 1464v-293h238v-372h-238v-938h-436v938h-240v372h240v293h436z" />
    <glyph glyph-name="daggerdbl" unicode="&#x2021;" horiz-adv-x="1060" 
d="M750 799v-273h237v-372h-237v-293h-437v293h-239v372h239v273h-239v372h239v293h437v-293h237v-372h-237z" />
    <glyph glyph-name="bullet" unicode="&#x2022;" horiz-adv-x="1157" 
d="M580 207q-202 0 -341 138t-139 339q0 200 139 337.5t341 137.5q97 0 185 -37t152 -100.5t102 -151.5t38 -186q0 -131 -64 -241t-174 -173t-239 -63z" />
    <glyph glyph-name="ellipsis" unicode="&#x2026;" horiz-adv-x="1984" 
d="M92 0v408h447v-408h-447zM770 0v408h447v-408h-447zM1446 0v408h446v-408h-446z" />
    <glyph glyph-name="perthousand" unicode="&#x2030;" horiz-adv-x="2783" 
d="M440 662q-187 0 -287 109.5t-100 303.5q0 192 99.5 302t285.5 110t285.5 -110.5t99.5 -303.5q0 -195 -98 -303t-285 -108zM336 1071q0 -96 23.5 -144t78.5 -48t78 47.5t23 144.5q0 104 -22 151.5t-79 47.5t-79.5 -49.5t-22.5 -149.5zM551 0l563 1464h256l-563 -1464h-256
zM1479 -33q-187 0 -287 109.5t-100 304.5q0 192 99.5 302t285.5 110t285.5 -110.5t99.5 -303.5q0 -195 -98.5 -303.5t-284.5 -108.5zM1374 377q0 -96 24 -144.5t79 -48.5t77.5 48t22.5 145q0 104 -21.5 151t-78.5 47t-80 -49t-23 -149zM2347 -33q-187 0 -287 109.5
t-100 304.5q0 192 99.5 302t285.5 110t285.5 -110.5t99.5 -303.5q0 -195 -98.5 -303.5t-284.5 -108.5zM2243 377q0 -96 23.5 -144.5t78.5 -48.5t77.5 48t22.5 145q0 104 -21.5 151t-78.5 47t-79.5 -49t-22.5 -149z" />
    <glyph glyph-name="guilsinglleft" unicode="&#x2039;" horiz-adv-x="722" 
d="M657 969l-196 -383l196 -385h-387l-217 385l217 383h387z" />
    <glyph glyph-name="guilsinglright" unicode="&#x203a;" horiz-adv-x="722" 
d="M262 586l-196 383h387l217 -383l-217 -385h-387z" />
    <glyph glyph-name="fraction" unicode="&#x2044;" horiz-adv-x="931" 
d="M-27 -215l594 1679h394l-590 -1679h-398z" />
    <glyph glyph-name="Euro" unicode="&#x20ac;" 
d="M-4 733l67 254h87q94 512 593 512q136 0 238 -33.5t170 -98t108.5 -150t61.5 -199.5h-444q-18 66 -45.5 95.5t-79.5 29.5q-59 0 -91.5 -37.5t-50.5 -118.5h371l-68 -254h-319v-51h307l-65 -252h-215q19 -55 49.5 -79.5t81.5 -24.5q52 0 81.5 30t47.5 93h446
q-26 -116 -65.5 -199t-106.5 -149t-170.5 -99t-245.5 -33q-133 0 -235.5 32t-171.5 94t-112 144.5t-66 190.5h-154l66 252h61v51h-131z" />
    <glyph glyph-name="trademark" unicode="&#x2122;" horiz-adv-x="1986" 
d="M1473 608h-216q-41 123 -88.5 291t-74.5 256h-7q0 -58 4.5 -153t4.5 -168v-226h-242v856h379q107 -334 141 -506q11 43 56 223.5t73 282.5h373v-856h-244v295q0 56 3 140.5t3 123.5h-6q-73 -282 -159 -559zM782 1464v-213h-202v-643h-265v643h-215v213h682z" />
    <glyph glyph-name="Omega" unicode="&#x2126;" horiz-adv-x="1720" 
d="M858 1491q184 0 335 -50t249.5 -137t151.5 -202.5t53 -247.5q0 -81 -16 -152.5t-40 -123t-59.5 -98t-67 -76.5t-71.5 -60h260v-344h-725v354q111 61 171 168.5t60 253.5q0 154 -79 253t-222 99t-221 -99t-78 -253q0 -145 60.5 -253t171.5 -169v-354h-723v344h260
q-40 30 -71.5 60t-67 76.5t-59.5 98t-40 123t-16 152.5q0 132 52.5 247.5t150.5 202.5t248 137t333 50z" />
    <glyph glyph-name="onethird" unicode="&#x2153;" horiz-adv-x="1841" 
d="M399 0l564 1464h256l-564 -1464h-256zM285 1120h-232v189h21q187 0 235 155h238v-899h-262v555zM1303 625h-275q2 142 99 225.5t264 83.5q166 0 260 -71.5t94 -184.5q0 -71 -27.5 -113t-79.5 -76q66 -36 106 -85.5t40 -127.5q0 -134 -106.5 -213t-288.5 -79
q-186 0 -287.5 88t-106.5 252h277q5 -61 33.5 -91t87.5 -30q53 0 79.5 24t26.5 66q0 46 -42 70t-116 24h-51v182h23q85 0 118 21.5t33 62.5q0 30 -21 47t-54 17q-83 0 -86 -92z" />
    <glyph glyph-name="twothirds" unicode="&#x2154;" horiz-adv-x="2105" 
d="M666 0l563 1464h256l-563 -1464h-256zM1544 293q0 -43 30 -71.5t85 -28.5q53 0 83 28.5t30 71.5t-29.5 70.5t-83.5 27.5q-55 0 -85 -27.5t-30 -70.5zM1561 653q0 -37 25 -60.5t73 -23.5q46 0 71 23.5t25 60.5t-25 59.5t-71 22.5q-47 0 -72.5 -23.5t-25.5 -58.5zM1657 -16
q-194 0 -293.5 73.5t-99.5 206.5q0 147 149 223q-115 68 -115 197q0 108 95.5 178t263.5 70t263 -70t95 -178q0 -130 -114 -197q149 -76 149 -223q0 -133 -100 -206.5t-293 -73.5zM365 1130h-293q0 165 98.5 265t288.5 100q176 0 269 -74.5t93 -210.5q0 -106 -58.5 -188.5
t-166.5 -165.5q-42 -33 -88 -61h319v-230h-749v211q114 73 315 225q129 102 129 181q0 31 -19 49t-54 18q-84 0 -84 -119z" />
    <glyph glyph-name="oneeighth" unicode="&#x215b;" horiz-adv-x="1843" 
d="M399 0l564 1464h256l-564 -1464h-256zM285 1120h-232v189h21q187 0 235 155h238v-899h-262v555zM1278 293q0 -43 30 -71.5t85 -28.5q53 0 82.5 28.5t29.5 71.5t-29 70.5t-83 27.5q-55 0 -85 -27.5t-30 -70.5zM1294 653q0 -37 25.5 -60.5t73.5 -23.5q46 0 71 23.5t25 60.5
t-25 59.5t-71 22.5q-47 0 -73 -24t-26 -58zM1391 -16q-195 0 -294.5 73.5t-99.5 206.5q0 146 150 223q-115 68 -115 197q0 108 95.5 178t263.5 70t263 -70t95 -178q0 -129 -115 -197q150 -76 150 -223q0 -133 -100 -206.5t-293 -73.5z" />
    <glyph glyph-name="threeeighths" unicode="&#x215c;" horiz-adv-x="2086" 
d="M647 0l563 1464h256l-563 -1464h-256zM1526 293q0 -43 29.5 -71.5t84.5 -28.5q53 0 83 28.5t30 71.5t-29.5 70.5t-83.5 27.5q-55 0 -84.5 -27.5t-29.5 -70.5zM1542 653q0 -37 25 -60.5t73 -23.5q46 0 71.5 23.5t25.5 60.5q0 36 -25.5 59t-71.5 23q-47 0 -72.5 -23.5
t-25.5 -58.5zM1638 -16q-194 0 -293.5 73.5t-99.5 206.5q0 146 150 223q-115 68 -115 197q0 108 95 178t263 70t263.5 -70t95.5 -178q0 -129 -115 -197q150 -76 150 -223q0 -133 -100.5 -206.5t-293.5 -73.5zM362 1184h-274q2 142 99 225.5t264 83.5q166 0 260 -71.5
t94 -184.5q0 -49 -15.5 -86.5t-36.5 -58t-55 -43.5q66 -36 106 -85.5t40 -127.5q0 -134 -106.5 -213.5t-288.5 -79.5q-186 0 -287.5 88t-106.5 252h277q5 -61 33.5 -91t87.5 -30q53 0 79.5 24t26.5 66q0 46 -42 70t-116 24h-51v182h23q85 0 118 21.5t33 62.5q0 30 -21 47
t-54 17q-84 0 -87 -92z" />
    <glyph glyph-name="fiveeighths" unicode="&#x215d;" horiz-adv-x="2060" 
d="M616 0l564 1464h256l-564 -1464h-256zM1495 293q0 -43 30 -71.5t85 -28.5q53 0 82.5 28.5t29.5 71.5t-29 70.5t-83 27.5q-55 0 -85 -27.5t-30 -70.5zM1511 653q0 -37 25.5 -60.5t73.5 -23.5q46 0 71 23.5t25 60.5t-25 59.5t-71 22.5q-47 0 -73 -24t-26 -58zM1608 -16
q-195 0 -294.5 73.5t-99.5 206.5q0 146 150 223q-115 68 -115 197q0 108 95.5 178t263.5 70t263 -70t95 -178q0 -129 -115 -197q150 -76 150 -223q0 -133 -100 -206.5t-293 -73.5zM53 848l293 -2q4 -42 33.5 -66t71.5 -24q44 0 71 28t27 72q0 48 -27 76.5t-76 28.5
q-71 0 -92 -58l-272 37l61 522h625v-213h-408l-12 -112q69 34 158 34q140 0 231.5 -80t91.5 -225q0 -154 -106 -242.5t-281 -88.5q-165 0 -270 85.5t-119 227.5z" />
    <glyph glyph-name="seveneighths" unicode="&#x215e;" horiz-adv-x="1886" 
d="M446 0l564 1464h256l-564 -1464h-256zM1325 293q0 -43 30 -71.5t85 -28.5q53 0 82.5 28.5t29.5 71.5t-29 70.5t-83 27.5q-55 0 -85 -27.5t-30 -70.5zM1341 653q0 -37 25.5 -60.5t73.5 -23.5q46 0 71 23.5t25 60.5t-25 59.5t-71 22.5q-47 0 -73 -24t-26 -58zM1438 -16
q-195 0 -294.5 73.5t-99.5 206.5q0 146 150 223q-115 68 -115 197q0 108 95.5 178t263.5 70t263 -70t95 -178q0 -129 -115 -197q150 -76 150 -223q0 -133 -100 -206.5t-293 -73.5zM440 565h-321q56 179 131.5 324.5t200.5 343.5v2q-55 -2 -162 -2h-230l-2 231h711v-217
q-192 -268 -328 -682z" />
    <glyph glyph-name="arrowleft" unicode="&#x2190;" horiz-adv-x="1679" 
d="M1595 453h-833q24 -24 121.5 -120t152.5 -151l187 -182h-551q-35 37 -284.5 301.5t-348.5 366.5q76 76 195.5 201t258 272t179.5 190h551l-187 -184q-213 -213 -274 -268h833v-426z" />
    <glyph glyph-name="arrowup" unicode="&#x2191;" horiz-adv-x="1474" 
d="M526 0v864l-270 -270l-184 -180v489q48 46 191 180.5t270.5 255.5t203.5 197q74 -77 201.5 -198t272 -255t192.5 -180v-489l-186 180q-191 187 -271 270v-864h-420z" />
    <glyph glyph-name="arrowright" unicode="&#x2192;" horiz-adv-x="1679" 
d="M918 453h-834v426h834q-71 64 -275 268l-186 184h551q56 -57 295.5 -311.5t336.5 -351.5q-103 -103 -356.5 -374t-275.5 -294h-551l186 182q55 55 153 151t122 120z" />
    <glyph glyph-name="arrowdown" unicode="&#x2193;" horiz-adv-x="1474" 
d="M526 600v864h420v-864q80 83 271 270l186 181v-490q-30 -28 -141.5 -133t-189 -178t-176.5 -167.5t-159 -154.5q-102 99 -368 351.5t-297 281.5v490l184 -181z" />
    <glyph glyph-name="uni2196" unicode="&#x2196;" horiz-adv-x="1536" 
d="M801 825l624 -620l-301 -297l-592 594v-381v-258l-354 354q0 104 4 451.5t4 474.5q127 0 471.5 6t448.5 6l319 -332h-251q-75 0 -207 1t-166 1z" />
    <glyph glyph-name="uni2197" unicode="&#x2197;" horiz-adv-x="1536" 
d="M111 205l624 620q-34 0 -167.5 -1t-207.5 -1h-249l319 332q104 0 448.5 -6t471.5 -6q0 -127 4 -474.5t4 -451.5l-354 -354v258v381l-592 -594z" />
    <glyph glyph-name="uni2198" unicode="&#x2198;" horiz-adv-x="1536" 
d="M723 324l-625 620l301 297l592 -594v381v258l355 -354q0 -104 -4.5 -453t-4.5 -473q-127 0 -471 -6t-448 -6l-320 332h250q74 0 207.5 -1t167.5 -1z" />
    <glyph glyph-name="uni2199" unicode="&#x2199;" horiz-adv-x="1536" 
d="M1436 944l-625 -620q34 0 166 1t207 1h252l-320 -332q-104 0 -448 6t-471 6q0 124 -4.5 473t-4.5 453l355 354v-258v-381l592 594z" />
    <glyph glyph-name="partialdiff" unicode="&#x2202;" horiz-adv-x="1296" 
d="M84 1464h633q532 -326 532 -876q0 -311 -161.5 -466t-450.5 -155q-269 0 -433.5 155.5t-164.5 416.5q0 108 31.5 201.5t84 159.5t121 113.5t144 70t151.5 22.5q36 0 64 -4l4 4q-49 53 -114 103t-150 99.5t-140 78.5t-151 77zM639 805q-83 0 -119.5 -67.5t-36.5 -196.5
q0 -132 36.5 -197t121.5 -65q83 0 119.5 65t36.5 195t-37 198t-121 68z" />
    <glyph glyph-name="Delta" unicode="&#x2206;" horiz-adv-x="1456" 
d="M539 1464h381l497 -1464h-1378zM733 987h-6q-13 -53 -76 -260l-114 -365h385l-115 363q-53 174 -74 262z" />
    <glyph glyph-name="product" unicode="&#x220f;" horiz-adv-x="1720" 
d="M717 -231h-496v1304h-149v391h1577v-391h-150v-1304h-495v1304h-287v-1304z" />
    <glyph glyph-name="summation" unicode="&#x2211;" horiz-adv-x="1275" 
d="M68 113l464 495l-456 494v362h1114v-360h-541l447 -479l-473 -494h589v-362h-1144v344z" />
    <glyph glyph-name="minus" unicode="&#x2212;" 
d="M158 498v376h1020v-376h-1020z" />
    <glyph glyph-name="uni2219" unicode="&#x2219;" horiz-adv-x="630" 
d="M92 473v408h447v-408h-447z" />
    <glyph glyph-name="radical" unicode="&#x221a;" 
d="M14 750v325h490l51 -198q17 -65 54.5 -229t56.5 -238h4q15 57 43.5 177t52.5 210l172 667h434l-444 -1464h-527q-60 173 -256 750h-131z" />
    <glyph glyph-name="infinity" unicode="&#x221e;" horiz-adv-x="1798" 
d="M485 1100q64 0 119.5 -14t108.5 -45t91 -60.5t97 -81.5q54 46 80 66.5t73 52.5t81.5 46t83 25t100.5 11q190 0 303 -119.5t113 -312.5q0 -82 -26 -157t-75.5 -136.5t-129 -98t-177.5 -36.5q-129 0 -229 57t-199 156q-53 -51 -92 -82.5t-93 -65t-113 -49.5t-126 -16
q-104 0 -185.5 36.5t-129.5 98t-72.5 136t-24.5 157.5q0 193 114.5 312.5t307.5 119.5zM1294 584q34 0 55 22.5t21 65.5q0 38 -21 63t-53 25q-69 0 -166 -90q104 -86 164 -86zM506 584q63 0 164 86q-108 90 -166 90q-34 0 -53 -24.5t-19 -63.5q0 -88 74 -88z" />
    <glyph glyph-name="integral" unicode="&#x222b;" 
d="M956 879l-100 -734q-21 -152 -51.5 -249.5t-82.5 -165.5t-129 -96.5t-190 -28.5q-71 0 -140.5 11.5t-93.5 18.5t-73 23l39 317q47 -16 98 -16q44 0 74.5 19t50 60t30 86t20.5 116l102 757q34 245 140.5 368.5t314.5 123.5q133 0 276 -41l-43 -338q-42 14 -78 14
q-76 0 -111 -57t-53 -188z" />
    <glyph glyph-name="approxequal" unicode="&#x2248;" 
d="M856 1016q33 0 64.5 26.5t72.5 102.5l238 -191q-68 -132 -162.5 -214.5t-208.5 -82.5q-15 0 -28.5 1t-24 2t-23.5 4t-20.5 4.5t-21 6.5t-19 7t-21 9.5t-20 10t-23 11.5t-24.5 12l-39 18q-84 41 -117 41q-34 0 -65.5 -27.5t-71.5 -103.5l-231 178q41 85 92 151.5
t123 112.5t149 46q60 0 108.5 -14.5t116.5 -51.5l39 -20q73 -39 117 -39zM852 504q33 0 64.5 26.5t72.5 102.5l238 -191q-68 -132 -162.5 -214.5t-208.5 -82.5q-15 0 -28.5 1t-24 2t-23.5 4t-20.5 4.5t-21 6.5t-19 7t-21 9.5t-20 10t-23 11.5t-24.5 12l-39 18
q-84 41 -117 41q-34 0 -65.5 -27.5t-71.5 -103.5l-232 178q64 133 158 221.5t207 88.5q60 0 108.5 -14.5t116.5 -51.5l39 -20q73 -39 117 -39z" />
    <glyph glyph-name="notequal" unicode="&#x2260;" 
d="M158 731v332h518l55 104h367l-56 -104h136v-332h-312l-45 -86h357v-334h-533l-65 -127h-367l66 127h-121v334h297l45 86h-342z" />
    <glyph glyph-name="lessequal" unicode="&#x2264;" 
d="M1081 1456v-369l-430 -143v-6l430 -152v-372l-891 358v324zM190 0v389h891v-389h-891z" />
    <glyph glyph-name="greaterequal" unicode="&#x2265;" 
d="M252 1087v369l891 -360v-324l-891 -358v372l430 152v6zM1143 389v-389h-891v389h891z" />
    <glyph glyph-name="dotmath" unicode="&#x22c5;" horiz-adv-x="630" 
d="M92 473v408h447v-408h-447z" />
    <glyph glyph-name="lozenge" unicode="&#x25ca;" 
d="M883 0h-430l-465 729l463 735h432l460 -735zM668 395l188 334l-188 322l-193 -322z" />
    <glyph glyph-name="commaaccent" unicode="&#xf6c3;" horiz-adv-x="755" 
d="M88 -334l199 244h446l-160 -244h-485z" />
    <glyph glyph-name="uniF8FF" unicode="&#xf8ff;" horiz-adv-x="1112" 
d="M557 160q-145 0 -266 69.5t-190.5 190t-69.5 264.5q0 145 69.5 265t190.5 188.5t266 68.5q219 0 371.5 -151t152.5 -371q0 -144 -70 -264.5t-190.5 -190t-263.5 -69.5z" />
    <glyph glyph-name="acute.caps" horiz-adv-x="874" 
d="M598 1540h-444l204 256h531z" />
    <glyph glyph-name="grave.caps" horiz-adv-x="1048" 
d="M883 1540h-445l-291 256h531z" />
    <glyph glyph-name="circumflex.caps" horiz-adv-x="1030" 
d="M309 1796h434l211 -256h-336l-90 92l-92 -92h-334z" />
    <glyph glyph-name="caron.caps" horiz-adv-x="1028" 
d="M743 1540h-434l-207 256h334l92 -92l90 92h336z" />
    <glyph glyph-name="tilde.caps" horiz-adv-x="962" 
d="M358 1540h-211q0 126 63.5 199t168.5 73q65 0 147 -40q62 -33 82 -33q45 0 47 57h211q0 -130 -58 -201t-169 -71q-66 0 -131 30l-21 11q-60 32 -81 32q-46 0 -48 -57z" />
    <glyph glyph-name="macron.caps" horiz-adv-x="876" 
d="M229 1540v246h559v-246h-559z" />
    <glyph glyph-name="breve.caps" horiz-adv-x="952" 
d="M524 1516q-137 0 -222 73.5t-95 206.5h237q10 -65 80 -65q65 0 80 65h236q-12 -134 -96 -207t-220 -73z" />
    <glyph glyph-name="dotaccent.caps" horiz-adv-x="671" 
d="M219 1540v256h316v-256h-316z" />
    <glyph glyph-name="ring.caps" horiz-adv-x="829" 
d="M508 1511q-94 0 -160.5 68.5t-66.5 163.5q0 92 67.5 159.5t161.5 67.5t161.5 -67.5t67.5 -159.5q0 -95 -67.5 -163.5t-163.5 -68.5zM440 1743q0 -29 19.5 -49.5t48.5 -20.5t48 19.5t19 50.5q0 27 -19 46t-48 19t-48.5 -19t-19.5 -46z" />
    <glyph glyph-name="cedilla.caps" horiz-adv-x="755" 
d="M88 -334l199 244h446l-160 -244h-485z" />
    <glyph glyph-name="ogonek.caps" horiz-adv-x="677" 
d="M485 -90l199 -244h-485l-160 244h446z" />
    <glyph glyph-name="hungarumlaut.caps" horiz-adv-x="1253" 
d="M461 1540h-414l205 256h500zM1059 1540h-414l205 256h500z" />
    <glyph glyph-name="dieresis.caps" horiz-adv-x="1005" 
d="M166 1540v256h305v-256h-305zM594 1540v256h303v-256h-303z" />
    <glyph glyph-name="horn" horiz-adv-x="593" 
d="M604 1464l-182 -405h-397l114 405h465z" />
    <glyph glyph-name="zero.plf" horiz-adv-x="1366" 
d="M684 334q88 0 119 85.5t31 299.5q0 228 -30.5 322t-119.5 94q-90 0 -121 -94t-31 -322q0 -214 31 -299.5t121 -85.5zM684 1499q119 0 215 -27.5t163.5 -79.5t115.5 -121t76 -159t40.5 -185.5t12.5 -207.5q0 -95 -8 -176t-28 -159t-51.5 -139.5t-80.5 -114t-113 -87.5
t-150.5 -54.5t-191.5 -19.5q-146 0 -256.5 38t-180 102.5t-112.5 162t-59.5 205t-16.5 242.5t17.5 246.5t62 213t114 170.5t179 109.5t252.5 40.5z" />
    <glyph glyph-name="one.plf" horiz-adv-x="1032" 
d="M395 887h-366v334h43q302 0 366 243h439v-1464h-482v887z" />
    <glyph glyph-name="two.plf" horiz-adv-x="1349" 
d="M516 920h-455q0 265 160.5 422t454.5 157q288 0 433.5 -119t145.5 -340q0 -312 -356 -569q-25 -16 -82 -59.5t-72 -51.5h539v-360h-1218v346q257 166 507 359q118 90 165.5 155t47.5 133q0 55 -32.5 88t-91.5 33q-77 0 -110.5 -50.5t-35.5 -143.5z" />
    <glyph glyph-name="three.plf" horiz-adv-x="1329" 
d="M518 999h-436q5 228 159 364t418 136q259 0 409.5 -115t150.5 -299q0 -113 -44 -181.5t-124 -119.5q227 -123 227 -344q0 -215 -169.5 -344t-455.5 -129q-293 0 -453 142.5t-165 406.5h436q8 -100 54 -148.5t137 -48.5q83 0 125 39t42 107q0 74 -65.5 113.5t-183.5 39.5
h-80v293h37q131 0 184 36t53 102q0 47 -33.5 74.5t-87.5 27.5q-129 0 -135 -152z" />
    <glyph glyph-name="four.plf" horiz-adv-x="1339" 
d="M1284 596v-344h-158v-252h-434v252h-661v344l577 868h518v-868h158zM449 637l-31 -43q49 2 147 2h121v152q0 216 6 296h-2q-56 -113 -104 -192l-76 -123q-55 -83 -61 -92z" />
    <glyph glyph-name="five.plf" horiz-adv-x="1316" 
d="M43 473l463 -2q6 -70 51 -108.5t113 -38.5q72 0 114.5 44.5t42.5 118.5q0 75 -42.5 121.5t-118.5 46.5q-53 0 -92 -24.5t-56 -67.5l-432 58l98 843h990v-344h-646l-18 -180q109 53 246 53q146 0 260.5 -54.5t184 -167.5t69.5 -269q0 -248 -167 -391.5t-446 -143.5
q-258 0 -423.5 139t-190.5 367z" />
    <glyph glyph-name="six.plf" horiz-adv-x="1345" 
d="M1274 1034h-457q-12 55 -43 80t-90 25q-48 0 -81 -20.5t-49.5 -58t-23 -79t-6.5 -94.5h4q106 80 273 80q217 0 352 -125.5t135 -354.5q0 -109 -41.5 -203.5t-117 -164.5t-188.5 -110t-249 -40q-301 0 -468 185t-167 518q0 829 658 829q141 0 250.5 -40.5t174.5 -108.5
t98.5 -148.5t35.5 -169.5zM692 324q72 0 115 44.5t43 118.5q0 75 -43 121.5t-119 46.5q-73 0 -116.5 -45t-43.5 -118q0 -78 45.5 -123t118.5 -45z" />
    <glyph glyph-name="seven.plf" horiz-adv-x="1189" 
d="M657 0h-524q94 289 215 537t303 557q-2 0 -2 2q-60 -4 -254 -4h-356v372h1135v-352q-284 -402 -517 -1112z" />
    <glyph glyph-name="eight.plf" horiz-adv-x="1347" 
d="M498 467q0 -66 47.5 -111t130.5 -45q84 0 130 43.5t46 112.5t-46 112.5t-130 43.5q-83 0 -130.5 -45t-47.5 -111zM526 1049q0 -56 40.5 -93.5t111.5 -37.5q70 0 109.5 37t39.5 94t-39.5 94t-109.5 37q-71 0 -111.5 -37.5t-40.5 -93.5zM674 -31q-308 0 -464.5 119
t-156.5 334q0 238 234 360q-84 57 -132.5 131t-48.5 185q0 176 150.5 288.5t417.5 112.5t417 -112.5t150 -288.5q0 -111 -48 -185t-132 -131q233 -121 233 -360q0 -215 -157 -334t-463 -119z" />
    <glyph glyph-name="nine.plf" horiz-adv-x="1345" 
d="M72 436h456q12 -55 43.5 -79.5t90.5 -24.5q48 0 80.5 20.5t49 59t23 80.5t6.5 96h-4q-106 -80 -272 -80q-142 0 -250.5 51.5t-173 160.5t-64.5 263q0 109 41.5 203.5t117 164.5t188.5 110t249 40q301 0 468 -184.5t167 -517.5q0 -830 -657 -830q-141 0 -250.5 40.5
t-174.5 108.5t-98.5 148.5t-35.5 169.5zM653 1151q-72 0 -114.5 -45t-42.5 -119q0 -75 42.5 -121.5t118.5 -46.5q73 0 116.5 45.5t43.5 118.5q0 78 -45.5 123t-118.5 45z" />
    <glyph glyph-name="Gtilde" horiz-adv-x="1626" 
d="M1554 977h-497q-64 151 -232 151q-140 0 -212 -103.5t-72 -291.5q0 -189 75.5 -293t221.5 -104q103 0 168 44t94 109q-42 -4 -168 -4h-184v357h804v-842h-376q0 48 1 83.5t1 39.5q-164 -150 -433 -150q-149 0 -277 51.5t-222.5 147t-148.5 239.5t-54 320
q0 172 57.5 314.5t160.5 240t247.5 151.5t316.5 54q301 0 483.5 -133.5t245.5 -380.5zM686 1540h-211q0 126 63.5 199t168.5 73q65 0 147 -40q62 -33 82 -33q45 0 47 57h211q0 -130 -58 -201t-169 -71q-66 0 -131 30l-21 11q-60 32 -82 32q-45 0 -47 -57z" />
    <glyph glyph-name="gtilde" horiz-adv-x="1337" 
d="M74 -2h432q14 -55 45.5 -85t97.5 -30q166 0 166 297h-4q-54 -61 -125.5 -94t-189.5 -33q-200 0 -325.5 136t-125.5 380q0 152 56 274t159 192.5t234 70.5q115 0 201 -42.5t126 -111.5q-4 29 -4 123h432v-956q0 -136 -47 -237t-132.5 -161.5t-196.5 -90t-248 -29.5
q-254 0 -389.5 105t-161.5 292zM668 805q-152 0 -152 -246q0 -240 150 -240q81 0 116 62.5t35 179.5q0 244 -149 244zM518 1186h-225q0 134 67.5 214.5t178.5 80.5q74 0 155 -43q65 -33 88 -33t35.5 12.5t13.5 46.5h226q0 -139 -61.5 -217t-180.5 -78q-77 0 -139 33l-21 10
q-67 33 -88 33q-23 0 -35.5 -12.5t-13.5 -46.5z" />
    <glyph glyph-name="Mcircumflex" horiz-adv-x="2070" 
d="M106 0v1464h750l68 -336q18 -82 36.5 -190t45 -277.5t28.5 -179.5h6q67 446 111 656l63 327h750v-1464h-467v539q0 313 10 538h-8q-4 -19 -40 -207t-64 -295l-129 -575h-465l-131 573q-34 137 -105 504h-8q10 -225 10 -532v-545h-461zM817 1796h434l211 -256h-336l-90 92
l-92 -92h-334z" />
    <glyph glyph-name="mcircumflex" horiz-adv-x="2004" 
d="M86 1075h408q0 -11 0.5 -35.5t0.5 -49t-1 -48.5h4q38 71 124.5 115.5t213.5 44.5q110 0 195 -42t132 -120h2q121 162 361 162q248 0 344 -172q35 -63 46 -138.5t11 -222.5v-569h-438v549q0 125 -26.5 178t-98.5 53q-77 0 -107 -54t-30 -185v-541h-439v584
q0 104 -28.5 150t-95.5 46q-78 0 -108 -60t-30 -208v-512h-438v897q0 119 -2 178zM778 1464h451l221 -278h-354l-90 96l-93 -96h-350z" />
    <glyph glyph-name="Mmacron" horiz-adv-x="2070" 
d="M106 0v1464h750l68 -336q18 -82 36.5 -190t45 -277.5t28.5 -179.5h6q67 446 111 656l63 327h750v-1464h-467v539q0 313 10 538h-8q-4 -19 -40 -207t-64 -295l-129 -575h-465l-131 573q-34 137 -105 504h-8q10 -225 10 -532v-545h-461zM758 1540v246h559v-246h-559z" />
    <glyph glyph-name="mmacron" horiz-adv-x="2004" 
d="M86 1075h408q0 -11 0.5 -35.5t0.5 -49t-1 -48.5h4q38 71 124.5 115.5t213.5 44.5q110 0 195 -42t132 -120h2q121 162 361 162q248 0 344 -172q35 -63 46 -138.5t11 -222.5v-569h-438v549q0 125 -26.5 178t-98.5 53q-77 0 -107 -54t-30 -185v-541h-439v584
q0 104 -28.5 150t-95.5 46q-78 0 -108 -60t-30 -208v-512h-438v897q0 119 -2 178zM725 1202v256h559v-256h-559z" />
    <glyph glyph-name="Ncircumflex" horiz-adv-x="1652" 
d="M1546 1464v-1464h-622l-230 530q-95 220 -147 392h-6q16 -219 16 -410v-512h-451v1464h642l170 -420q72 -176 180 -460q1 0 3 1t3 1q-8 175 -8 356v522h450zM600 1796h434l211 -256h-336l-90 92l-92 -92h-334z" />
    <glyph glyph-name="ncircumflex" horiz-adv-x="1310" 
d="M86 1075h408q0 -11 0.5 -35.5t0.5 -49t-1 -48.5h4q38 70 126.5 115t215.5 45q116 0 202.5 -44t133.5 -128q35 -63 46 -138.5t11 -222.5v-569h-438v549q0 125 -27.5 178t-99.5 53q-79 0 -110.5 -60t-31.5 -208v-512h-438v897q0 119 -2 178zM446 1464h451l221 -278h-354
l-90 96l-92 -96h-351z" />
    <glyph glyph-name="Ndieresis" horiz-adv-x="1652" 
d="M1546 1464v-1464h-622l-230 530q-95 220 -147 392h-6q16 -219 16 -410v-512h-451v1464h642l170 -420q72 -176 180 -460q1 0 3 1t3 1q-8 175 -8 356v522h450zM473 1540v256h305v-256h-305zM901 1540v256h303v-256h-303z" />
    <glyph glyph-name="ndieresis" horiz-adv-x="1310" 
d="M86 1075h408q0 -11 0.5 -35.5t0.5 -49t-1 -48.5h4q38 70 126.5 115t215.5 45q116 0 202.5 -44t133.5 -128q35 -63 46 -138.5t11 -222.5v-569h-438v549q0 125 -27.5 178t-99.5 53q-79 0 -110.5 -60t-31.5 -208v-512h-438v897q0 119 -2 178zM287 1186v278h315v-278h-315z
M725 1186v278h313v-278h-313z" />
    <glyph glyph-name="Nmacron" horiz-adv-x="1652" 
d="M1546 1464v-1464h-622l-230 530q-95 220 -147 392h-6q16 -219 16 -410v-512h-451v1464h642l170 -420q72 -176 180 -460q1 0 3 1t3 1q-8 175 -8 356v522h450zM539 1540v246h559v-246h-559z" />
    <glyph glyph-name="nmacron" horiz-adv-x="1310" 
d="M86 1075h408q0 -11 0.5 -35.5t0.5 -49t-1 -48.5h4q38 70 126.5 115t215.5 45q116 0 202.5 -44t133.5 -128q35 -63 46 -138.5t11 -222.5v-569h-438v549q0 125 -27.5 178t-99.5 53q-79 0 -110.5 -60t-31.5 -208v-512h-438v897q0 119 -2 178zM391 1202v256h559v-256h-559z
" />
    <glyph glyph-name="Pmacron" horiz-adv-x="1384" 
d="M106 0v1464h578q109 0 158 -2q245 -7 380.5 -138.5t135.5 -350.5q0 -120 -45 -220t-129 -161q-82 -63 -195 -85t-289 -22h-98v-485h-496zM602 1116v-280h92q189 0 189 141q0 72 -46.5 105.5t-148.5 33.5h-86zM408 1540v246h559v-246h-559z" />
    <glyph glyph-name="pmacron" 
d="M88 1075h420q0 -79 -2 -114q113 151 319 151q214 0 340.5 -156.5t126.5 -414.5q0 -261 -127.5 -410t-339.5 -149q-191 0 -301 133q0 -27 1 -104t1 -105v-275h-438v1444zM670 805q-76 0 -113 -70.5t-37 -193.5q0 -262 152 -262q149 0 149 260q0 266 -151 266zM393 1202
v256h559v-256h-559z" />
    <glyph glyph-name="uni00AD.case" horiz-adv-x="796" 
d="M90 547v371h621v-371h-621z" />
    <glyph glyph-name="endash.case" horiz-adv-x="1155" 
d="M92 561v340h975v-340h-975z" />
    <glyph glyph-name="emdash.case" horiz-adv-x="1902" 
d="M92 561v340h1723v-340h-1723z" />
    <glyph glyph-name="hyphen.case" horiz-adv-x="796" 
d="M90 547v371h621v-371h-621z" />
    <glyph glyph-name="guillemotleft.case" horiz-adv-x="1245" 
d="M662 1092l-197 -383l197 -385h-388l-217 385l217 383h388zM1176 1092l-197 -383l197 -385h-388l-217 385l217 383h388z" />
    <glyph glyph-name="guillemotright.case" horiz-adv-x="1245" 
d="M780 709l-196 383h387l217 -383l-217 -385h-387zM266 709l-196 383h387l217 -383l-217 -385h-387z" />
    <glyph glyph-name="guilsinglleft.case" horiz-adv-x="731" 
d="M662 1092l-197 -383l197 -385h-388l-217 385l217 383h388z" />
    <glyph glyph-name="guilsinglright.case" horiz-adv-x="731" 
d="M266 709l-196 383h387l217 -383l-217 -385h-387z" />
    <glyph glyph-name="parenleft.case" horiz-adv-x="757" 
d="M47 709q0 341 163.5 582t453.5 354v-422q-119 -103 -172.5 -227.5t-53.5 -282.5q0 -314 226 -508v-426q-290 119 -453.5 356.5t-163.5 573.5z" />
    <glyph glyph-name="parenright.case" horiz-adv-x="757" 
d="M713 709q0 -336 -163.5 -573.5t-453.5 -356.5v426q226 194 226 508q0 158 -53.5 282.5t-172.5 227.5v422q290 -113 453.5 -354t163.5 -582z" />
    <glyph glyph-name="bracketleft.case" horiz-adv-x="784" 
d="M725 121v-250h-573v1696h573v-250h-201v-1196h201z" />
    <glyph glyph-name="bracketright.case" horiz-adv-x="784" 
d="M59 -129v250h201v1196h-201v250h574v-1696h-574z" />
    <glyph glyph-name="braceleft.case" horiz-adv-x="743" 
d="M51 612v213q76 23 104.5 66t28.5 158v268q0 149 59 203.5t228 54.5q4 0 44 -1t67 -1h84v-242q-74 -5 -100.5 -37t-26.5 -129v-166q0 -67 -6 -111.5t-14 -71t-30 -45.5t-39.5 -27.5t-56.5 -22.5v-4q45 -14 68 -27t43.5 -43t27.5 -80t7 -133v-170q0 -66 12.5 -99.5
t37.5 -45.5t77 -15v-241q-31 -2 -84 -2h-111q-169 0 -228 54.5t-59 203.5v270q0 80 -15 124t-40.5 63.5t-77.5 35.5z" />
    <glyph glyph-name="braceright.case" horiz-adv-x="743" 
d="M692 825v-213q-52 -16 -77.5 -35.5t-40.5 -63.5t-15 -124v-270q0 -149 -59 -203.5t-228 -54.5h-110q-53 0 -84 2v241q52 3 77 15t37.5 45.5t12.5 99.5v170q0 67 5.5 112t15 74t29.5 47.5t39.5 28.5t55.5 21v4q-38 13 -57.5 22.5t-40 27.5t-28.5 46t-13.5 71.5t-5.5 110.5
v166q0 97 -26.5 129t-100.5 37v242h84q27 0 66 1t44 1q169 0 228 -54.5t59 -203.5v-268q0 -115 28.5 -158t104.5 -66z" />
    <glyph glyph-name="bar.case" horiz-adv-x="681" 
d="M152 -25v1624h378v-1624h-378z" />
    <glyph glyph-name="minus.case" 
d="M158 580v376h1020v-376h-1020z" />
    <glyph glyph-name="multiply.case" 
d="M926 1255l260 -260l-260 -260l258 -258l-258 -258l-258 258l-258 -258l-260 260l258 258l-258 258l258 258l258 -258z" />
    <glyph glyph-name="plus.case" 
d="M145 580v376h330v332h381v-332h332v-376h-332v-336h-381v336h-330z" />
    <glyph glyph-name="less.case" 
d="M1079 1376v-428l-409 -174v-6l409 -176v-432l-891 444v324z" />
    <glyph glyph-name="equal.case" 
d="M158 393v334h1020v-334h-1020zM158 813v332h1020v-332h-1020z" />
    <glyph glyph-name="greater.case" 
d="M256 948v428l891 -448v-324l-891 -444v432l410 176v6z" />
    <glyph glyph-name="at.case" horiz-adv-x="1650" 
d="M1051 1085h231l-88 -473q-14 -66 -14 -84q0 -20 22 -20q68 0 122 93.5t54 225.5q0 220 -135 343.5t-379 123.5q-253 0 -414 -161.5t-161 -413.5t164 -410.5t426 -158.5q226 0 432 131l127 -138q-261 -196 -566 -196q-240 0 -424.5 97t-285.5 272.5t-101 402.5
q0 161 60 304.5t165 247.5t254.5 165t321.5 61q163 0 300 -49.5t230.5 -135.5t145 -205t51.5 -257q0 -238 -124.5 -391.5t-307.5 -153.5q-111 0 -168 72q-95 -80 -231 -80q-154 0 -248 102t-94 269q0 191 117 325.5t301 134.5q118 0 210 -79zM854 903q-88 0 -140 -67.5
t-52 -165.5q0 -70 34.5 -113t98.5 -43q87 0 139.5 72t52.5 174q0 143 -133 143z" />
    <glyph glyph-name="notequal.case" 
d="M158 813v332h518l55 104h367l-56 -104h136v-332h-312l-45 -86h357v-334h-533l-65 -127h-367l66 127h-121v334h297l45 86h-342z" />
    <glyph glyph-name="plusminus.case" 
d="M145 745v377h330v234h381v-234h332v-377h-332v-223h-381v223h-330zM145 82v377h1043v-377h-1043z" />
    <glyph glyph-name="lessequal.case" 
d="M1083 1538v-369l-430 -143v-6l430 -152v-372l-890 358v324zM193 82v389h890v-389h-890z" />
    <glyph glyph-name="greaterequal.case" 
d="M252 1169v369l891 -360v-324l-891 -358v372l430 152v6zM1143 471v-389h-891v389h891z" />
    <glyph glyph-name="logicalnot.case" 
d="M135 690v375h1034v-700h-378v325h-656z" />
    <glyph glyph-name="approxequal.case" 
d="M856 1036q33 0 64.5 26.5t72.5 102.5l238 -190q-68 -132 -162.5 -214.5t-208.5 -82.5q-47 0 -87 10t-59.5 18.5t-78.5 38.5l-39 19q-84 41 -117 41q-34 0 -65.5 -27.5t-71.5 -103.5l-231 178q64 133 157.5 221t206.5 88q60 0 108.5 -14.5t116.5 -50.5l39 -21
q73 -39 117 -39zM852 524q33 0 64.5 26.5t72.5 102.5l238 -190q-68 -132 -162.5 -214.5t-208.5 -82.5q-47 0 -87 10t-59.5 18.5t-78.5 38.5l-39 19q-84 41 -117 41q-34 0 -65.5 -27.5t-71.5 -103.5l-232 178q64 133 158 221t207 88q60 0 108.5 -14.5t116.5 -50.5l39 -21
q73 -39 117 -39z" />
    <glyph glyph-name="divide.case" 
d="M158 549v356h1020v-356h-1020zM457 170v322h420v-322h-420zM457 961v321h420v-321h-420z" />
    <glyph glyph-name="infinity.case" horiz-adv-x="1798" 
d="M485 1161q121 0 209.5 -48t206.5 -152q66 56 100.5 82t89.5 59t109 46t119 13q190 0 303 -119.5t113 -312.5q0 -82 -26 -157t-75.5 -136.5t-129 -98t-177.5 -36.5q-129 0 -229 57t-199 156q-53 -51 -92 -82.5t-93 -65t-113 -49.5t-126 -16q-104 0 -185.5 36.5t-129.5 98
t-72.5 136t-24.5 157.5q0 193 114.5 312.5t307.5 119.5zM1294 645q34 0 55 22.5t21 65.5q0 38 -21 63t-53 25q-69 0 -166 -90q104 -86 164 -86zM506 645q63 0 164 86q-108 90 -166 90q-34 0 -53 -24.5t-19 -63.5q0 -88 74 -88z" />
    <glyph glyph-name="registered.alt" horiz-adv-x="1642" 
d="M1591 737q0 -159 -60.5 -302t-164 -246t-247 -163.5t-302.5 -60.5q-157 0 -299.5 61t-245 164t-163 246t-60.5 301q0 157 60 299.5t162.5 245.5t246 164t303.5 61q157 0 299.5 -61t245.5 -164t164 -245.5t61 -299.5zM1419 737q0 122 -47.5 234t-128 193t-191 129
t-231.5 48q-165 0 -303 -81.5t-216.5 -220t-78.5 -302.5q0 -165 78.5 -304.5t216 -221.5t301.5 -82q162 0 300.5 81.5t219 221.5t80.5 305zM731 606v-291h-287v850h420q161 0 234 -53q100 -75 100 -207q0 -184 -164 -262l201 -328h-307l-154 291h-43zM731 961v-158h76
q104 0 104 84q0 40 -27.5 57t-84.5 17h-68z" />
    <glyph glyph-name="zero.posf" horiz-adv-x="1366" 
d="M684 328q88 0 119 83.5t31 293.5q0 225 -30 316t-120 91t-121 -91.5t-31 -315.5q0 -210 31.5 -293.5t120.5 -83.5zM684 1470q142 0 251.5 -40t178.5 -108t113.5 -167t62 -208.5t17.5 -241.5q0 -93 -8 -172.5t-28 -156t-51.5 -137t-80.5 -112t-113 -86t-150.5 -53.5
t-191.5 -19t-192 19t-151 53.5t-113 86t-80.5 112t-51.5 137t-28.5 156t-8.5 172.5q0 132 17.5 241.5t62 208.5t114 167t179 108t252.5 40z" />
    <glyph glyph-name="one.posf" horiz-adv-x="1034" 
d="M397 868h-366v328h43q152 0 241.5 58.5t124.5 181.5h439v-1436h-482v868z" />
    <glyph glyph-name="two.posf" horiz-adv-x="1351" 
d="M518 901h-455q0 260 160.5 414.5t454.5 154.5q288 0 433.5 -117.5t145.5 -332.5q0 -307 -356 -557q-20 -14 -78.5 -57t-74.5 -52h538v-354h-1218v340q139 84 245 157t262 193q117 87 165 152t48 133q0 55 -32.5 86t-91.5 31q-77 0 -110.5 -50t-35.5 -141z" />
    <glyph glyph-name="three.posf" horiz-adv-x="1329" 
d="M518 979h-436q5 223 159 357t418 134q259 0 409.5 -113t150.5 -292q0 -59 -12.5 -106t-37.5 -82t-52.5 -59.5t-65.5 -49.5q227 -123 227 -336q0 -210 -169.5 -337.5t-455.5 -127.5q-293 0 -453 140.5t-165 398.5h436q8 -98 54 -145.5t137 -47.5q83 0 125 38t42 106
q0 73 -65.5 111t-183.5 38h-80v287h37q131 0 184 35t53 100q0 47 -33 73.5t-88 26.5q-129 0 -135 -149z" />
    <glyph glyph-name="four.posf" horiz-adv-x="1339" 
d="M1284 584v-336h-158v-248h-434v248h-661v336l577 852h518v-852h158zM449 623l-31 -41q49 2 147 2h121v149q0 213 6 291h-2q-46 -93 -104 -188l-76 -121q-11 -16 -31.5 -47.5t-29.5 -44.5z" />
    <glyph glyph-name="five.posf" horiz-adv-x="1318" 
d="M43 463l463 -2q6 -68 51 -106t113 -38q72 0 114.5 44t42.5 116q0 74 -42.5 120t-118.5 46q-53 0 -92 -24.5t-56 -67.5l-432 57l98 828h990v-338h-646l-18 -176q117 51 246 51q146 0 260.5 -53t184 -163.5t69.5 -264.5q0 -244 -167 -384.5t-446 -140.5q-258 0 -423.5 136
t-190.5 360z" />
    <glyph glyph-name="six.posf" horiz-adv-x="1345" 
d="M1274 1014h-457q-12 52 -43 77t-90 25q-48 0 -81 -20t-49.5 -57t-23 -77t-6.5 -92h4q112 78 273 78q217 0 352 -122.5t135 -348.5q0 -221 -162 -364.5t-434 -143.5q-301 0 -468 181.5t-167 508.5q0 395 161 604.5t497 209.5q141 0 250.5 -40t174.5 -106.5t98.5 -146
t35.5 -166.5zM692 317q72 0 115 44t43 116q0 74 -43 120t-119 46q-73 0 -116.5 -44.5t-43.5 -117.5q0 -77 45.5 -120.5t118.5 -43.5z" />
    <glyph glyph-name="seven.posf" horiz-adv-x="1189" 
d="M657 0h-524q93 281 212 518.5t306 552.5q-2 0 -2 2q-60 -4 -254 -4h-356v367h1135v-346q-281 -386 -517 -1090z" />
    <glyph glyph-name="eight.posf" horiz-adv-x="1347" 
d="M498 459q0 -66 47.5 -110t130.5 -44q84 0 130 43t46 111q0 66 -46.5 108.5t-129.5 42.5t-130.5 -43.5t-47.5 -107.5zM526 1028q0 -56 40.5 -92.5t111.5 -36.5q70 0 109.5 36.5t39.5 92.5t-39.5 92.5t-109.5 36.5q-71 0 -111.5 -36.5t-40.5 -92.5zM674 -31
q-308 0 -464.5 117t-156.5 328q0 232 234 354q-85 53 -133 126t-48 181q0 172 150.5 283.5t417.5 111.5t417 -111.5t150 -283.5q0 -109 -48 -181.5t-132 -125.5q233 -121 233 -354q0 -211 -157 -328t-463 -117z" />
    <glyph glyph-name="nine.posf" horiz-adv-x="1345" 
d="M72 428h456q12 -52 43.5 -77t90.5 -25q48 0 80.5 20.5t49 58t23 78t6.5 92.5h-4q-110 -77 -272 -77q-217 0 -352.5 121.5t-135.5 345.5q0 221 162 364.5t434 143.5q301 0 468 -182t167 -509q0 -813 -657 -813q-141 0 -250.5 40t-174.5 106.5t-98.5 146t-35.5 166.5z
M653 1128q-72 0 -114.5 -43.5t-42.5 -115.5q0 -75 42.5 -120.5t118.5 -45.5q73 0 116.5 44.5t43.5 117.5q0 76 -45 119.5t-119 43.5z" />
    <glyph glyph-name="brokenbar.case" horiz-adv-x="686" 
d="M532 856h-378v641h378v-641zM154 514h378v-641h-378v641z" />
    <glyph glyph-name="idotaccent" horiz-adv-x="614" 
d="M88 1186v278h438v-278h-438zM526 0h-438v1075h438v-1075z" />
    <glyph glyph-name="zero.tosf" 
d="M668 328q85 0 116 84t31 293q0 224 -29.5 315.5t-117.5 91.5q-89 0 -119.5 -91.5t-30.5 -315.5q0 -210 31 -293.5t119 -83.5zM668 1470q610 0 610 -765q0 -93 -8 -172.5t-27.5 -156t-50.5 -137t-78.5 -112t-110.5 -86t-147.5 -53.5t-187.5 -19q-143 0 -251 37t-176 101
t-110.5 159.5t-59 201t-16.5 237.5t17.5 241.5t61 208.5t111.5 167t175.5 108t247.5 40z" />
    <glyph glyph-name="one.tosf" 
d="M549 868h-361v328h43q296 0 359 240h430v-1436h-471v868z" />
    <glyph glyph-name="two.tosf" 
d="M514 901h-446q0 260 157 414.5t445 154.5q282 0 424.5 -117.5t142.5 -332.5q0 -308 -348 -557q-23 -16 -80.5 -58.5t-71.5 -50.5h529v-354h-1194v340q230 145 497 350q115 87 162 152t47 133q0 55 -32 86t-91 31q-75 0 -107 -49.5t-34 -141.5z" />
    <glyph glyph-name="three.tosf" 
d="M522 981h-426q5 222 156.5 357t409.5 135q255 0 401.5 -113.5t146.5 -292.5q0 -78 -24.5 -137t-57 -92t-84.5 -68q224 -121 224 -336q0 -210 -166.5 -337.5t-446.5 -127.5q-287 0 -444 140.5t-162 398.5h428q8 -98 52.5 -145.5t134.5 -47.5q80 0 121.5 38t41.5 106
q0 72 -64.5 110.5t-178.5 38.5h-78v287h35q233 0 233 135q0 47 -32 73.5t-87 26.5q-127 0 -133 -149z" />
    <glyph glyph-name="four.tosf" 
d="M1270 584v-336h-156v-248h-424v248h-649v336l565 852h508v-852h156zM451 623l-31 -41q49 2 145 2h119v149q0 213 6 291h-2q-44 -89 -102 -188l-76 -121q-12 -17 -31 -48.5t-28 -43.5z" />
    <glyph glyph-name="five.tosf" 
d="M63 465l453 -2q6 -68 50.5 -106t111.5 -38q69 0 111 44t42 116q0 74 -42 120t-115 46q-109 0 -146 -92l-422 57l97 828h968v-338h-632l-19 -176q114 51 242 51q142 0 254.5 -53t181 -163.5t68.5 -264.5q0 -244 -163.5 -384.5t-436.5 -140.5q-252 0 -415 136t-188 360z
" />
    <glyph glyph-name="six.tosf" 
d="M1255 1014h-446q-12 53 -42.5 77.5t-88.5 24.5q-158 0 -158 -246h4q112 78 269 78q137 0 243.5 -52t170 -160t63.5 -259q0 -144 -69 -258.5t-203 -182t-312 -67.5q-295 0 -459 181.5t-164 508.5q0 814 646 814q138 0 245 -40t170 -106.5t96 -146t35 -166.5zM686 317
q69 0 111.5 44t42.5 116q0 74 -42.5 120t-115.5 46q-72 0 -115 -45t-43 -117q0 -76 45.5 -120t116.5 -44z" />
    <glyph glyph-name="seven.tosf" 
d="M727 0h-512q62 194 149.5 390.5t160.5 331t198 349.5q-2 0 -2 2q-60 -4 -250 -4h-348v367h1110v-346q-268 -379 -506 -1090z" />
    <glyph glyph-name="eight.tosf" 
d="M496 459q0 -66 45.5 -110t128.5 -44q82 0 127 43t45 111q0 66 -45 108.5t-127 42.5q-83 0 -128.5 -43t-45.5 -108zM522 1028q0 -56 40 -92.5t110 -36.5q69 0 107 36t38 93t-38 93t-107 36q-70 0 -110 -36.5t-40 -92.5zM668 -31q-302 0 -455.5 117t-153.5 328
q0 231 230 354q-83 53 -129.5 125.5t-46.5 181.5q0 172 147 283.5t408 111.5t408 -111.5t147 -283.5q0 -109 -46.5 -181.5t-129.5 -125.5q229 -122 229 -354q0 -211 -154 -328t-454 -117z" />
    <glyph glyph-name="nine.tosf" 
d="M78 428h446q12 -53 42.5 -77.5t88.5 -24.5q158 0 158 249h-4q-110 -77 -268 -77q-102 0 -188.5 30t-151.5 87t-101.5 147t-36.5 203q0 144 68.5 258.5t202.5 182t313 67.5q295 0 459 -182t164 -509q0 -813 -645 -813q-138 0 -245.5 40t-170.5 106.5t-96 146t-35 166.5z
M647 1128q-69 0 -111 -43.5t-42 -115.5q0 -75 41.5 -120.5t115.5 -45.5q72 0 115 45t43 117q0 76 -45.5 119.5t-116.5 43.5z" />
    <glyph glyph-name="zero.sub" horiz-adv-x="1034" 
d="M518 6q64 0 87.5 64.5t23.5 222.5q0 169 -22.5 238t-88.5 69q-65 0 -87.5 -69.5t-22.5 -237.5q0 -159 23 -223t87 -64zM518 879q107 0 189 -30.5t134 -82.5t85 -128t46 -159.5t13 -185.5q0 -103 -12.5 -183.5t-44.5 -154t-83.5 -121.5t-134 -76t-192.5 -28t-192.5 28
t-134.5 76t-84.5 121t-45 154t-12.5 184q0 101 13.5 185t46.5 160t85 128t134.5 82.5t189.5 30.5z" />
    <glyph glyph-name="one.sub" horiz-adv-x="790" 
d="M301 410h-274v254h32q220 0 269 184h336v-1100h-363v662z" />
    <glyph glyph-name="two.sub" horiz-adv-x="1028" 
d="M399 434h-344q0 201 120 319.5t341 118.5q218 0 327 -89.5t109 -256.5q0 -236 -268 -426l-47 -34l-62 -46h398v-272h-916v262q176 109 381 269q87 68 122.5 116t35.5 97q0 39 -24.5 63.5t-67.5 24.5q-102 0 -105 -146z" />
    <glyph glyph-name="three.sub" horiz-adv-x="1009" 
d="M399 500h-331q5 174 120 276.5t314 102.5q197 0 308.5 -86t111.5 -226q0 -85 -32.5 -136.5t-90.5 -86.5q76 -45 122 -105t46 -153q0 -165 -126 -260.5t-345 -95.5t-338.5 107t-124.5 306h332q9 -147 137 -147q60 0 92.5 29.5t32.5 78.5q0 54 -49 83.5t-136 29.5h-61v221
h31q174 0 174 101q0 35 -24 55t-66 20q-44 0 -70 -29t-27 -85z" />
    <glyph glyph-name="four.sub" horiz-adv-x="1017" 
d="M971 199v-262h-117v-189h-330v189h-495v262l432 649h393v-649h117zM449 383l-56 -90q-21 -34 -65 -96q33 2 104 2h86v110q0 69 2 131t2 82q-33 -73 -73 -139zM322 197l2 -4l4 4h-6z" />
    <glyph glyph-name="five.sub" horiz-adv-x="1007" 
d="M43 113l350 -2q4 -53 37 -82t82 -29q54 0 85.5 33.5t31.5 87.5q0 55 -32 89t-87 34q-80 0 -107 -68l-327 43l74 635h743v-262h-481l-15 -131q85 39 181 39q168 0 277.5 -96.5t109.5 -272.5q0 -186 -125 -293.5t-336 -107.5q-191 0 -317.5 105.5t-143.5 277.5z" />
    <glyph glyph-name="six.sub" horiz-adv-x="1021" 
d="M963 524h-349q-11 42 -32.5 61t-63.5 19q-65 0 -91 -52t-21 -130q77 57 198 57q166 0 267.5 -93t101.5 -267q0 -170 -121.5 -279.5t-327.5 -109.5q-228 0 -352.5 137.5t-124.5 390.5q0 621 494 621q106 0 188.5 -30.5t131.5 -82t74.5 -113t27.5 -129.5zM524 -2
q51 0 83 33.5t32 87.5q0 55 -31.5 90t-87.5 35q-53 0 -83.5 -33t-30.5 -88q0 -59 31.5 -92t86.5 -33z" />
    <glyph glyph-name="seven.sub" horiz-adv-x="905" 
d="M502 -252h-396q46 146 115.5 302.5t119 248t148.5 268.5q-42 -4 -184 -4h-270v285h854v-268q-213 -300 -387 -832z" />
    <glyph glyph-name="eight.sub" horiz-adv-x="1021" 
d="M381 104q0 -49 35.5 -81.5t95.5 -32.5t94.5 32.5t34.5 81.5t-34.5 82t-94.5 33q-59 0 -95 -34t-36 -81zM403 539q0 -43 28.5 -70t80.5 -27t81.5 27t29.5 70t-29 69.5t-82 26.5q-52 0 -80.5 -27.5t-28.5 -68.5zM510 -270q-231 0 -348 88.5t-117 251.5q0 180 172 270
q-133 87 -133 235q0 133 113 218.5t313 85.5q203 0 315.5 -85t112.5 -219q0 -85 -35.5 -139.5t-97.5 -95.5q172 -88 172 -270q0 -163 -118 -251.5t-349 -88.5z" />
    <glyph glyph-name="nine.sub" horiz-adv-x="1021" 
d="M59 82h349q11 -40 32.5 -59t61.5 -19q46 0 73.5 27.5t35.5 66.5t5 90q-74 -55 -198 -55q-166 0 -267.5 91.5t-101.5 264.5q0 170 121 280t326 110q229 0 354 -137.5t125 -389.5q0 -622 -496 -622q-105 0 -187.5 30.5t-131 81.5t-74 112t-27.5 128zM496 612
q-50 0 -81.5 -33t-31.5 -87q0 -55 31 -88t86 -33q54 0 85 32t31 86q0 59 -32.5 91t-87.5 32z" />
    <glyph glyph-name="a.sub" horiz-adv-x="905" 
d="M856 -252h-287v16l-6 58q-70 -90 -241 -90q-140 0 -218.5 65t-78.5 180q0 178 241 242q95 29 277 39q-6 115 -92 115q-84 0 -95 -88h-301q12 144 118 220.5t280 76.5q196 0 294.5 -84t98.5 -285v-313q0 -89 10 -152zM539 84l-50 -6q-86 -13 -121.5 -34t-35.5 -56
t22.5 -54.5t63.5 -19.5q55 0 88 33.5t33 103.5v33z" />
    <glyph glyph-name="b.sub" horiz-adv-x="1009" 
d="M387 -252h-319v1098h333v-213q0 -11 -1 -37t-1 -43v-70q79 95 228 95q161 0 253.5 -111.5t92.5 -308.5q0 -196 -95 -312t-260 -116q-90 0 -143 29t-90 75q2 -25 2 -86zM504 350q-55 0 -81 -52.5t-26 -143.5q0 -195 109 -195q110 0 110 193q0 91 -27.5 144.5t-84.5 53.5z
" />
    <glyph glyph-name="c.sub" horiz-adv-x="931" 
d="M584 53h329q-31 -150 -140 -236.5t-298 -86.5q-206 0 -324 117.5t-118 308.5q0 194 120.5 313t327.5 119q179 0 292 -87.5t138 -240.5h-327q-21 96 -103 96q-114 0 -114 -196q0 -195 114 -195q82 0 103 88z" />
    <glyph glyph-name="d.sub" horiz-adv-x="1009" 
d="M942 -252h-317v88q-88 -106 -240 -106q-160 0 -254 114t-94 306q0 198 94 313t254 115q72 0 130.5 -28.5t96.5 -66.5q0 8 -1 32.5t-1 37.5v293h332v-1098zM504 350q-55 0 -82 -53t-27 -143q0 -195 109 -195q110 0 110 193q0 198 -110 198z" />
    <glyph glyph-name="e.sub" horiz-adv-x="948" 
d="M592 20h326q-38 -132 -153 -211t-294 -79q-209 0 -323.5 116t-114.5 322q0 187 125 303.5t323 116.5q205 0 325 -119t120 -336v-47h-570q4 -66 36.5 -101.5t86.5 -35.5q49 0 76.5 21t36.5 50zM356 258h246q-12 123 -119 123q-53 0 -86 -33t-41 -90z" />
    <glyph glyph-name="f.sub" horiz-adv-x="595" 
d="M125 555v39q0 266 326 266q32 0 124 -8v-217h-14q-4 0 -12 1t-12 1q-81 0 -84 -82h122v-238h-120v-569h-330v569h-86v238h86z" />
    <glyph glyph-name="g.sub" horiz-adv-x="1009" 
d="M59 -250h328q13 -42 34.5 -64t70.5 -22q118 0 118 215q-41 -43 -94 -66.5t-139 -23.5q-151 0 -245.5 102t-94.5 285q0 175 94 288.5t246 113.5q76 0 140.5 -30t98.5 -75q-2 25 -2 82h328v-715q0 -103 -35 -179.5t-99.5 -122t-148 -67.5t-186.5 -22q-189 0 -291.5 80.5
t-122.5 220.5zM504 350q-109 0 -109 -182q0 -178 109 -178q110 0 110 180t-110 180z" />
    <glyph glyph-name="h.sub" horiz-adv-x="987" 
d="M399 848v-170q0 -142 -2 -193q69 90 240 90q175 0 248 -131q26 -48 34.5 -104.5t8.5 -163.5v-428h-332v412q0 93 -20.5 132.5t-73.5 39.5q-57 0 -80 -45t-23 -154v-385h-331v1100h331z" />
    <glyph glyph-name="i.sub" horiz-adv-x="464" 
d="M68 635v213h329v-213h-329zM397 -252h-329v807h329v-807z" />
    <glyph glyph-name="j.sub" horiz-adv-x="466" 
d="M70 555h329v-805q0 -166 -74.5 -231.5t-238.5 -65.5q-92 0 -149 15v227q14 -2 34 -2q55 0 77 28t22 95v739zM70 635v213h329v-213h-329z" />
    <glyph glyph-name="k.sub" horiz-adv-x="999" 
d="M401 -252h-333v1100h333l2 -625q18 26 89 135.5t98 149.5l31 47h389q-242 -297 -293 -371q206 -287 319 -436h-407q-41 62 -91 144t-90 148.5t-47 78.5v-371z" />
    <glyph glyph-name="l.sub" horiz-adv-x="464" 
d="M397 -252h-329v1100h329v-1100z" />
    <glyph glyph-name="m.sub" horiz-adv-x="1507" 
d="M66 555h311l2 -94q32 51 95.5 82.5t156.5 31.5q80 0 144.5 -31.5t101.5 -88.5q89 120 268 120q184 0 260 -131q26 -48 34.5 -104.5t8.5 -163.5v-428h-334v412q0 94 -19 133t-71 39q-55 0 -77.5 -40.5t-22.5 -137.5v-406h-332v438q0 146 -90 146q-59 0 -80 -44t-21 -155
v-385h-333v672q0 88 -2 135z" />
    <glyph glyph-name="n.sub" horiz-adv-x="987" 
d="M66 555h309q0 -32 4 -94q31 51 96 82.5t158 31.5q85 0 151 -34t101 -97q28 -47 35.5 -101t7.5 -167v-428h-334v412q0 94 -19.5 133t-72.5 39q-57 0 -80 -45t-23 -154v-385h-331v672q0 88 -2 135z" />
    <glyph glyph-name="o.sub" horiz-adv-x="972" 
d="M483 588q211 0 334 -119t123 -313q0 -193 -121.5 -309.5t-333.5 -116.5t-332 116.5t-120 311.5q0 194 121 312t329 118zM481 356q-112 0 -112 -196q0 -97 26.5 -146t87.5 -49t88 48.5t27 144.5t-27 147t-90 51z" />
    <glyph glyph-name="p.sub" horiz-adv-x="1009" 
d="M68 555h319v-78q85 107 234 107q163 0 257.5 -117t94.5 -313t-95.5 -307t-256.5 -111q-134 0 -222 92v-70q0 -17 1 -43.5t1 -33.5v-209h-333v1083zM504 350q-55 0 -81 -52.5t-26 -143.5q0 -195 109 -195q110 0 110 195q0 196 -112 196z" />
    <glyph glyph-name="q.sub" horiz-adv-x="1007" 
d="M623 555h317v-1083h-332v284q0 16 1 38t1 32q-85 -94 -229 -94q-156 0 -251 110t-95 308q0 195 95 312.5t257 117.5q149 0 236 -109v84zM502 350q-55 0 -82 -53t-27 -143q0 -195 109 -195q110 0 110 193q0 198 -110 198z" />
    <glyph glyph-name="r.sub" horiz-adv-x="665" 
d="M68 -252v807h309q0 -75 2 -106q23 60 82 93t141 33q35 0 51 -4v-288q-27 6 -63 6q-44 0 -75 -7.5t-52 -26.5t-33.5 -42.5t-19.5 -65.5t-9 -84.5t-2 -109.5v-205h-331z" />
    <glyph glyph-name="s.sub" horiz-adv-x="899" 
d="M20 33h310q18 -103 129 -103q92 0 92 52q0 19 -24 31.5t-78 25.5q-18 4 -58.5 14.5t-62.5 14.5q-151 36 -217 95t-66 167q0 122 103 191t292 69q384 0 410 -285h-299q-11 47 -36.5 67.5t-74.5 20.5q-80 0 -80 -47q0 -23 19.5 -33.5t93.5 -29.5l98 -25q158 -39 229.5 -99
t71.5 -163q0 -133 -106.5 -199.5t-312.5 -66.5q-201 0 -304.5 74t-128.5 229z" />
    <glyph glyph-name="t.sub" horiz-adv-x="641" 
d="M131 315h-111v240h111v215h332v-215h131v-240h-131v-151q0 -51 1 -75.5t5 -52.5t12.5 -39t24 -18.5t39.5 -7.5q22 0 28 2q1 0 5.5 1t5.5 1v-231q-46 -12 -138 -12q-165 0 -240 62.5t-75 223.5v297z" />
    <glyph glyph-name="u.sub" horiz-adv-x="983" 
d="M915 -252h-309v29q0 11 -1 29t-1 32q-34 -45 -103.5 -77.5t-156.5 -32.5q-80 0 -142.5 34t-99.5 97q-26 46 -34.5 103t-8.5 165v428h334v-416q0 -90 19 -129t69 -39q56 0 78.5 43.5t22.5 153.5v387h333v-807z" />
    <glyph glyph-name="v.sub" horiz-adv-x="929" 
d="M268 -252l-2 2q-40 113 -139 400q-22 63 -67 198.5t-70 204.5h358q43 -161 82 -342l39 -145l27 112q66 280 94 375h352l-96 -277l-184 -528h-394z" />
    <glyph glyph-name="w.sub" horiz-adv-x="1431" 
d="M227 -252l-141 496l-88 309h340l104 -487l103 487h344q47 -196 108 -481q11 47 99 481h338q-30 -110 -103 -354q-26 -89 -127 -451h-395q-61 242 -94 436q-49 -247 -97 -436h-391z" />
    <glyph glyph-name="x.sub" horiz-adv-x="909" 
d="M-16 -252l276 410l-274 395h372q4 -8 14 -24t32.5 -54t52.5 -92q7 13 38 68.5t58 101.5h358q-47 -76 -151 -227l-111 -166q26 -40 150 -215q2 -2 137 -197h-367q-11 19 -44 71.5t-70 117.5q-9 -15 -48 -82.5t-63 -106.5h-360z" />
    <glyph glyph-name="y.sub" horiz-adv-x="923" 
d="M584 555h350l-387 -1083h-346q4 13 44.5 124.5t53.5 151.5q-104 236 -319 807h360l125 -420z" />
    <glyph glyph-name="z.sub" horiz-adv-x="870" 
d="M47 -252v223l346 346q-59 -2 -186 -2h-148v238h750v-223q-280 -280 -352 -346q152 4 202 4h166v-240h-778z" />
    <glyph glyph-name="zero.sup" horiz-adv-x="1034" 
d="M518 877q64 0 87.5 64t23.5 222q0 169 -22.5 238t-88.5 69q-65 0 -87.5 -69.5t-22.5 -237.5q0 -159 23 -222.5t87 -63.5zM518 1749q107 0 189 -30.5t134 -82.5t85 -128t46 -159.5t13 -185.5q0 -103 -12.5 -183.5t-44.5 -154t-83.5 -121.5t-134 -76t-192.5 -28t-192.5 28
t-134.5 76t-84.5 121t-45 154t-12.5 184q0 101 13.5 185t46.5 160t85 128t134.5 82.5t189.5 30.5z" />
    <glyph glyph-name="one.sup" horiz-adv-x="790" 
d="M301 1280h-274v254h32q220 0 269 184h336v-1100h-363v662z" />
    <glyph glyph-name="two.sup" horiz-adv-x="1026" 
d="M397 1305h-344q0 201 120 319.5t341 118.5q218 0 327 -89.5t109 -256.5q0 -236 -268 -426l-47 -35l-62 -45h398v-273h-916v263q183 113 381 268q87 68 122.5 116t35.5 97q0 39 -24.5 63.5t-67.5 24.5q-102 0 -105 -145z" />
    <glyph glyph-name="three.sup" horiz-adv-x="1007" 
d="M397 1370h-331q5 174 120 276.5t314 102.5q197 0 308.5 -85.5t111.5 -225.5q0 -85 -32.5 -137t-90.5 -87q76 -45 122 -105t46 -153q0 -165 -126 -260.5t-345 -95.5t-338.5 107.5t-124.5 306.5h331q9 -148 138 -148q60 0 92.5 30t32.5 79q0 54 -49 83t-136 29h-61v222h31
q96 0 135 26.5t39 73.5q0 35 -24.5 55.5t-65.5 20.5q-44 0 -70 -29.5t-27 -85.5z" />
    <glyph glyph-name="four.sup" horiz-adv-x="1017" 
d="M971 1069v-262h-117v-189h-330v189h-495v262l432 649h393v-649h117zM449 1253l-56 -90q-21 -34 -65 -96q33 2 104 2h86v111q0 68 2 130t2 83q-35 -77 -73 -140zM322 1067l2 -4l4 4h-6z" />
    <glyph glyph-name="five.sup" horiz-adv-x="1007" 
d="M43 983l350 -2q4 -53 37 -82t82 -29q54 0 85.5 33.5t31.5 87.5q0 55 -32 89t-87 34q-80 0 -107 -67l-327 43l74 634h743v-262h-481l-15 -131q85 39 181 39q168 0 277.5 -96.5t109.5 -272.5q0 -186 -125 -293.5t-336 -107.5q-191 0 -317.5 105.5t-143.5 277.5z" />
    <glyph glyph-name="six.sup" horiz-adv-x="1021" 
d="M963 1395h-349q-11 42 -32.5 61t-63.5 19q-65 0 -91 -52.5t-21 -130.5q78 58 198 58q166 0 267.5 -93.5t101.5 -267.5q0 -170 -121.5 -279.5t-327.5 -109.5q-228 0 -352.5 137.5t-124.5 390.5q0 621 494 621q106 0 188.5 -30.5t131.5 -82t74.5 -112.5t27.5 -129zM524 868
q51 0 83 33.5t32 87.5q0 55 -31.5 90t-87.5 35q-53 0 -83.5 -33t-30.5 -88q0 -59 31.5 -92t86.5 -33z" />
    <glyph glyph-name="seven.sup" horiz-adv-x="901" 
d="M500 618h-396q35 112 77 217t99.5 219t95 183t111.5 201q-42 -4 -184 -4h-270v284h854v-268q-213 -300 -387 -832z" />
    <glyph glyph-name="eight.sup" horiz-adv-x="1021" 
d="M381 975q0 -49 35.5 -82t95.5 -33t94.5 33t34.5 82t-34.5 82t-94.5 33q-59 0 -95 -34t-36 -81zM403 1409q0 -43 28.5 -69.5t80.5 -26.5q53 0 82 26.5t29 69.5t-29 69.5t-82 26.5q-52 0 -80.5 -27.5t-28.5 -68.5zM510 600q-231 0 -348 88.5t-117 251.5q0 180 172 270
q-133 87 -133 236q0 133 113 218t313 85q203 0 315.5 -84.5t112.5 -218.5q0 -85 -35.5 -140.5t-97.5 -95.5q172 -88 172 -270q0 -163 -118 -251.5t-349 -88.5z" />
    <glyph glyph-name="nine.sup" horiz-adv-x="1021" 
d="M59 952h349q11 -40 32.5 -59t61.5 -19q46 0 73.5 27.5t35.5 67t5 90.5q-74 -55 -198 -55q-166 0 -267.5 91.5t-101.5 264.5q0 170 121 279.5t326 109.5q229 0 354 -137t125 -389q0 -623 -496 -623q-105 0 -187.5 30.5t-131 81.5t-74 112t-27.5 128zM496 1483
q-50 0 -81.5 -33.5t-31.5 -87.5q0 -55 31 -88t86 -33q54 0 85 32.5t31 86.5q0 59 -32.5 91t-87.5 32z" />
    <glyph glyph-name="a.sup" horiz-adv-x="905" 
d="M856 618h-287v17l-6 57q-70 -90 -241 -90q-139 0 -218 65t-79 181q0 178 241 242q91 27 277 38q-6 115 -92 115q-84 0 -95 -88h-301q12 144 118 220.5t280 76.5q196 0 294.5 -84t98.5 -285v-313q0 -89 10 -152zM539 954l-50 -6q-86 -13 -121.5 -34t-35.5 -56t22.5 -54.5
t63.5 -19.5q54 0 87.5 34t33.5 104v32z" />
    <glyph glyph-name="b.sup" horiz-adv-x="1009" 
d="M387 618h-319v1098h333v-213q0 -11 -1 -37t-1 -43v-69q78 94 228 94q161 0 253.5 -111.5t92.5 -308.5q0 -196 -95 -312t-260 -116q-89 0 -142.5 29t-90.5 76q2 -25 2 -87zM504 1221q-55 0 -81 -53t-26 -144q0 -195 109 -195q110 0 110 193q0 92 -27.5 145.5t-84.5 53.5z
" />
    <glyph glyph-name="c.sup" horiz-adv-x="933" 
d="M584 924h329q-31 -150 -140 -237t-298 -87q-206 0 -324 117.5t-118 308.5q0 194 120.5 313t327.5 119q179 0 292 -87.5t138 -240.5h-327q-22 97 -103 97q-114 0 -114 -197q0 -194 114 -194q82 0 103 88z" />
    <glyph glyph-name="d.sup" horiz-adv-x="1009" 
d="M942 618h-317v89q-89 -107 -240 -107q-160 0 -254 114t-94 306q0 198 94 313t254 115q72 0 130.5 -28t96.5 -66q0 8 -1 32t-1 37v293h332v-1098zM504 1221q-55 0 -82 -53t-27 -144q0 -195 109 -195q110 0 110 193q0 199 -110 199z" />
    <glyph glyph-name="e.sup" horiz-adv-x="948" 
d="M592 891h326q-38 -133 -153 -212t-294 -79q-209 0 -323.5 116t-114.5 322q0 187 125 303.5t323 116.5q205 0 325 -118.5t120 -335.5v-48h-570q4 -66 36.5 -101.5t86.5 -35.5q49 0 76.5 21.5t36.5 50.5zM356 1128h246q-12 123 -119 123q-53 0 -86 -33t-41 -90z" />
    <glyph glyph-name="f.sup" horiz-adv-x="595" 
d="M125 1425v39q0 267 326 267q21 0 124 -9v-217h-14q-4 0 -12 1t-12 1q-81 0 -84 -82h122v-237h-120v-570h-330v570h-86v237h86z" />
    <glyph glyph-name="g.sup" horiz-adv-x="1009" 
d="M59 621h328q13 -42 34.5 -64t70.5 -22q118 0 118 215q-41 -43 -94 -67t-139 -24q-151 0 -245.5 102.5t-94.5 285.5q0 175 94 288t246 113q76 0 140.5 -30t98.5 -75q-2 25 -2 82h328v-714q0 -103 -35 -179.5t-99.5 -122.5t-148 -68t-186.5 -22q-189 0 -291.5 81
t-122.5 221zM504 1221q-109 0 -109 -183q0 -178 109 -178q110 0 110 180q0 181 -110 181z" />
    <glyph glyph-name="h.sup" horiz-adv-x="987" 
d="M399 1718v-170q0 -141 -2 -192q69 90 240 90q175 0 248 -131q26 -48 34.5 -104.5t8.5 -163.5v-429h-332v412q0 93 -20.5 132.5t-73.5 39.5q-57 0 -80 -44.5t-23 -153.5v-386h-331v1100h331z" />
    <glyph glyph-name="i.sup" horiz-adv-x="464" 
d="M68 1505v213h329v-213h-329zM397 618h-329v807h329v-807z" />
    <glyph glyph-name="j.sup" horiz-adv-x="466" 
d="M70 1425h329v-804q0 -166 -74.5 -231.5t-238.5 -65.5q-95 0 -149 14v227q14 -2 34 -2q55 0 77 28t22 95v739zM70 1505v213h329v-213h-329z" />
    <glyph glyph-name="k.sup" horiz-adv-x="999" 
d="M401 618h-333v1100h333l2 -624q18 26 89.5 135.5t97.5 148.5l31 47h389q-246 -302 -293 -370q219 -305 319 -437h-407q-41 62 -91 144t-90 148.5t-47 78.5v-371z" />
    <glyph glyph-name="l.sup" horiz-adv-x="464" 
d="M397 618h-329v1100h329v-1100z" />
    <glyph glyph-name="m.sup" horiz-adv-x="1507" 
d="M66 1425h311l2 -94q32 51 95.5 83t156.5 32q79 0 144 -32t102 -89q90 121 268 121q184 0 260 -131q26 -48 34.5 -104.5t8.5 -163.5v-429h-334v412q0 94 -19 133t-71 39q-55 0 -77.5 -40.5t-22.5 -137.5v-406h-332v439q0 145 -90 145q-59 0 -80 -43.5t-21 -154.5v-386
h-333v672q0 88 -2 135z" />
    <glyph glyph-name="n.sup" horiz-adv-x="987" 
d="M66 1425h309q0 -32 4 -94q32 51 96.5 83t157.5 32q85 0 151 -34t101 -97q28 -47 35.5 -101t7.5 -167v-429h-334v412q0 94 -19.5 133t-72.5 39q-57 0 -80 -44.5t-23 -153.5v-386h-331v672q0 88 -2 135z" />
    <glyph glyph-name="o.sup" horiz-adv-x="972" 
d="M483 1458q211 0 334 -119t123 -313q0 -193 -121.5 -309.5t-333.5 -116.5t-332 116.5t-120 311.5q0 194 121 312t329 118zM481 1227q-112 0 -112 -197q0 -97 26.5 -145.5t87.5 -48.5t88 48t27 144t-27 147.5t-90 51.5z" />
    <glyph glyph-name="p.sup" horiz-adv-x="1009" 
d="M68 1425h319v-77q84 106 234 106q163 0 257.5 -117t94.5 -313t-95.5 -307t-256.5 -111q-134 0 -222 92v-69q0 -17 1 -44t1 -34v-209h-333v1083zM504 1221q-55 0 -81 -53t-26 -144q0 -195 109 -195q110 0 110 195q0 91 -27.5 144t-84.5 53z" />
    <glyph glyph-name="q.sup" horiz-adv-x="1009" 
d="M625 1425h317v-1083h-332v285q0 17 1 38t1 31q-85 -94 -229 -94q-156 0 -251 110t-95 308q0 195 95 312.5t257 117.5q149 0 236 -109v84zM504 1221q-55 0 -82 -53t-27 -144q0 -195 109 -195q110 0 110 193q0 199 -110 199z" />
    <glyph glyph-name="r.sup" horiz-adv-x="665" 
d="M68 618v807h309q0 -75 2 -106q23 60 82 93.5t141 33.5q35 0 51 -4v-289q-27 6 -63 6q-44 0 -75 -7.5t-52 -26.5t-33.5 -42.5t-19.5 -65.5t-9 -84.5t-2 -109.5v-205h-331z" />
    <glyph glyph-name="s.sup" horiz-adv-x="899" 
d="M20 903h310q18 -102 129 -102q92 0 92 51q0 19 -24 31.5t-78 25.5q-18 4 -58.5 14.5t-62.5 14.5q-151 36 -217 95t-66 167q0 122 103 191t292 69q384 0 410 -284h-299q-11 47 -36.5 67.5t-74.5 20.5q-80 0 -80 -47q0 -23 20 -34t93 -30l98 -25q158 -39 229.5 -99
t71.5 -163q0 -133 -106.5 -199.5t-312.5 -66.5q-201 0 -304.5 74t-128.5 229z" />
    <glyph glyph-name="t.sup" horiz-adv-x="643" 
d="M131 1186h-111v239h111v215h332v-215h131v-239h-131v-152q0 -117 13 -154.5t69 -37.5q22 0 28 2q1 0 5.5 1t5.5 1v-232q-46 -12 -138 -12q-165 0 -240 63t-75 224v297z" />
    <glyph glyph-name="u.sup" horiz-adv-x="983" 
d="M915 618h-309v29q0 11 -1 29.5t-1 32.5q-34 -45 -104 -78t-156 -33q-80 0 -142.5 34t-99.5 97q-26 46 -34.5 103t-8.5 165v428h334v-415q0 -90 19 -129t69 -39q56 0 78.5 43t22.5 153v387h333v-807z" />
    <glyph glyph-name="v.sup" horiz-adv-x="925" 
d="M266 618l-2 3q-48 135 -139 399q-22 63 -67 198.5t-70 204.5h358q43 -161 82 -342l39 -145l27 113q65 276 94 374h352l-96 -276l-185 -529h-393z" />
    <glyph glyph-name="w.sup" horiz-adv-x="1431" 
d="M227 618l-141 496l-88 309h340l104 -487l103 487h344q47 -196 108 -481q11 47 99 481h338q-30 -110 -103 -354q-26 -89 -127 -451h-395q-60 240 -94 437q-50 -252 -97 -437h-391z" />
    <glyph glyph-name="x.sup" horiz-adv-x="903" 
d="M-20 618l276 410l-274 395h372q4 -8 14 -24t32.5 -54t52.5 -92q7 13 38 68.5t58 101.5h358q-47 -76 -151 -227l-111 -166q26 -40 150 -215q2 -2 137 -197h-367q-11 19 -44 71.5t-70 117.5q-9 -15 -48 -82.5t-63 -106.5h-360z" />
    <glyph glyph-name="y.sup" horiz-adv-x="927" 
d="M586 1425h350l-387 -1083h-346q4 13 44.5 124.5t53.5 151.5q-104 236 -319 807h360l125 -419z" />
    <glyph glyph-name="z.sup" horiz-adv-x="870" 
d="M47 618v224l346 346q-59 -2 -186 -2h-148v237h750v-223q-280 -280 -352 -346q152 4 202 4h166v-240h-778z" />
    <glyph glyph-name="zero.slashplf" horiz-adv-x="1366" 
d="M684 1499q119 0 215 -27.5t163.5 -79.5t115.5 -121t76 -159t40.5 -185.5t12.5 -207.5q0 -95 -8 -176t-28 -159t-51.5 -139.5t-80.5 -114t-113 -87.5t-150.5 -54.5t-191.5 -19.5q-146 0 -256.5 38t-180 102.5t-112.5 162t-59.5 205t-16.5 242.5t17.5 246.5t62 213
t114 170.5t179 109.5t252.5 40.5zM684 317q91 0 124.5 90t33.5 312q0 88 -2 127l-187 -527q6 -2 31 -2zM524 719v-39l168 471h-8q-93 0 -126.5 -98t-33.5 -334z" />
    <glyph glyph-name="zero.slash" 
d="M668 1499q142 0 251 -40.5t178.5 -109.5t113.5 -170.5t61.5 -213t17.5 -246.5t-16.5 -242.5t-59 -205t-111.5 -162t-179 -102.5t-256 -38t-256.5 38t-180 102.5t-112.5 162t-59.5 205t-16.5 242.5t17.5 246.5t62 213t114 170.5t179 109.5t252.5 40.5zM668 317
q91 0 124 90t33 312q0 88 -2 127l-186 -527q6 -2 31 -2zM508 719v-39l168 471h-8q-93 0 -126.5 -98t-33.5 -334z" />
    </font>
</defs>
</svg>
