<?xml version="1.0" standalone="no"?>
<!DOCTYPE svg PUBLIC "-//W3C//DTD SVG 1.1//EN" "http://www.w3.org/Graphics/SVG/1.1/DTD/svg11.dtd" >
<svg xmlns="http://www.w3.org/2000/svg" xmlns:xlink="http://www.w3.org/1999/xlink" version="1.1">
<metadata>
Created by FontForge 20170731 at Thu Jul 20 12:08:56 2023
 By Aleksey,,,
(c)2013 Optimo.
</metadata>
<defs>
<font id="Plain-Bold" horiz-adv-x="1236" >
  <font-face 
    font-family="Plain"
    font-weight="700"
    font-stretch="normal"
    units-per-em="2048"
    panose-1="2 11 0 4 2 2 2 2 2 4"
    ascent="1645"
    descent="-403"
    x-height="1075"
    cap-height="1464"
    bbox="-121 -557 2669 2206"
    underline-thickness="102"
    underline-position="-307"
    unicode-range="U+000D-FB02"
  />
<missing-glyph horiz-adv-x="1318" 
d="M102 492v100l633 633q28 -14 53 -47zM102 291v100l711 711v-31q0 -41 -27.5 -76.5t-84.5 -80.5t-76 -64q-47 -47 -74 -111zM213 0h-100l534 535h101l-191 -191h-47v-47zM657 344l560 559v-100l-459 -459h-101zM102 692v101l304 303l79 -4q0 60 41.5 106.5t112.5 46.5h16z
M815 0h-100l67 68h4v4l431 430v-101zM786 272l431 430v-100l-431 -430v100zM102 90v100l422 422v-77h23zM102 1194l402 401h100l-90 -90q-110 -29 -190 -109.5t-111 -191.5l-111 -110v100zM1100 987l117 117v-100l-443 -443v14q0 21 5.5 38.5t11.5 29.5t22.5 27.5t27.5 23.5
t37 26.5t40 29.5q3 3 21 16t28.5 21.5t29.5 25t32 33t27.5 38t25.5 48t18 55.5zM102 1395l201 200h100l-301 -301v101zM1016 0h-101l302 301v-100zM940 1430l166 165h100l-213 -213q-4 4 -23 22t-30 26zM102 893v100l115 115l94 -6zM1036 1325l181 180v-100l-144 -143
q-6 12 -37 63zM414 0h-101l197 197v-101zM809 1499l96 96h101l-127 -127q-38 20 -70 31zM1098 1186l119 119v-101l-107 -106q0 26 -12 88zM629 1520l76 75h100l-78 -77q-36 4 -57 4q-4 0 -13.5 -1t-13.5 -1h-14zM614 0h-100l68 68h100zM1217 100v-100h-101zM102 1595h101
l-101 -100v100z" />
    <glyph glyph-name="fi" unicode="fi" horiz-adv-x="1286" 
d="M190 1075v51q0 175 104 268t292 93q68 0 106 -10v-236q-28 4 -51 4q-131 0 -131 -137v-33h182v-231h-182v-844h-320v844h-143v231h143zM840 1202v262h319v-262h-319zM1159 0h-319v1075h319v-1075z" />
    <glyph glyph-name="fl" unicode="fl" horiz-adv-x="1292" 
d="M190 1075v51q0 175 104 268t292 93q68 0 106 -10v-236q-28 4 -51 4q-131 0 -131 -137v-33h182v-231h-182v-844h-320v844h-143v231h143zM1159 0h-319v1464h319v-1464z" />
    <glyph glyph-name=".notdef" horiz-adv-x="1318" 
d="M102 492v100l633 633q28 -14 53 -47zM102 291v100l711 711v-31q0 -41 -27.5 -76.5t-84.5 -80.5t-76 -64q-47 -47 -74 -111zM213 0h-100l534 535h101l-191 -191h-47v-47zM657 344l560 559v-100l-459 -459h-101zM102 692v101l304 303l79 -4q0 60 41.5 106.5t112.5 46.5h16z
M815 0h-100l67 68h4v4l431 430v-101zM786 272l431 430v-100l-431 -430v100zM102 90v100l422 422v-77h23zM102 1194l402 401h100l-90 -90q-110 -29 -190 -109.5t-111 -191.5l-111 -110v100zM1100 987l117 117v-100l-443 -443v14q0 21 5.5 38.5t11.5 29.5t22.5 27.5t27.5 23.5
t37 26.5t40 29.5q3 3 21 16t28.5 21.5t29.5 25t32 33t27.5 38t25.5 48t18 55.5zM102 1395l201 200h100l-301 -301v101zM1016 0h-101l302 301v-100zM940 1430l166 165h100l-213 -213q-4 4 -23 22t-30 26zM102 893v100l115 115l94 -6zM1036 1325l181 180v-100l-144 -143
q-6 12 -37 63zM414 0h-101l197 197v-101zM809 1499l96 96h101l-127 -127q-38 20 -70 31zM1098 1186l119 119v-101l-107 -106q0 26 -12 88zM629 1520l76 75h100l-78 -77q-36 4 -57 4q-4 0 -13.5 -1t-13.5 -1h-14zM614 0h-100l68 68h100zM1217 100v-100h-101zM102 1595h101
l-101 -100v100z" />
    <glyph glyph-name=".null" horiz-adv-x="0" 
 />
    <glyph glyph-name="nonmarkingreturn" horiz-adv-x="682" 
 />
    <glyph glyph-name="NULL" horiz-adv-x="0" 
 />
    <glyph glyph-name="NULL" horiz-adv-x="0" 
 />
    <glyph glyph-name="CR" unicode="&#xd;" horiz-adv-x="0" 
 />
    <glyph glyph-name="space" unicode=" " horiz-adv-x="473" 
 />
    <glyph glyph-name="exclam" unicode="!" horiz-adv-x="669" 
d="M469 426h-268q-3 86 -12 239t-15 293.5t-6 284.5v221h334v-221q0 -144 -6 -284.5t-15 -293.5t-12 -239zM500 303v-303h-334v303h334z" />
    <glyph glyph-name="quotedbl" unicode="&#x22;" horiz-adv-x="946" 
d="M389 924h-254q0 10 -13 249.5t-13 290.5h307q0 -51 -13.5 -290.5t-13.5 -249.5zM811 924h-254q0 10 -13.5 249.5t-13.5 290.5h308q0 -51 -13.5 -290.5t-13.5 -249.5z" />
    <glyph glyph-name="numbersign" unicode="#" 
d="M377 0h-203l90 442h-192l41 191h190l45 213h-194l41 190h192l88 428h203l-88 -428h192l88 428h203l-88 -428h180l-41 -190h-178l-45 -213h182l-41 -191h-180l-90 -442h-203l90 442h-192zM551 846l-45 -213h192l45 213h-192z" />
    <glyph glyph-name="dollar" unicode="$" 
d="M29 461h344q30 -197 258 -197q102 0 163.5 45.5t61.5 120.5q0 68 -50 100t-181 68l-101 29q-243 66 -348.5 165t-105.5 265q0 156 105 266t286 147v244h313v-241q179 -33 282 -140t113 -278h-335q-36 170 -224 170q-89 0 -138.5 -39.5t-49.5 -104.5q1 -67 42.5 -99
t137.5 -60l113 -31q131 -36 217 -73t149.5 -89t92 -120.5t28.5 -162.5q0 -170 -115.5 -286.5t-312.5 -149.5v-274h-313v274q-199 35 -312 152t-120 299z" />
    <glyph glyph-name="percent" unicode="%" horiz-adv-x="1830" 
d="M414 662q-170 0 -260.5 109.5t-90.5 303.5q0 192 90 302t259 110t258.5 -110.5t89.5 -303.5q0 -195 -88.5 -303t-257.5 -108zM279 1071q0 -113 29.5 -174t103.5 -61q73 0 102 60.5t29 174.5q0 120 -28 181t-103 61t-104 -61.5t-29 -180.5zM539 0l563 1464h190l-563 -1464
h-190zM1421 -31q-169 0 -259.5 109.5t-90.5 304.5q0 193 89.5 302.5t258.5 109.5t258.5 -110.5t89.5 -303.5q0 -195 -88.5 -303.5t-257.5 -108.5zM1286 379q0 -114 30 -175t103 -61t102 61t29 175q0 120 -28 181t-103 61t-104 -61.5t-29 -180.5z" />
    <glyph glyph-name="ampersand" unicode="&#x26;" horiz-adv-x="1433" 
d="M1411 162l-221 -193l-62 64q-81 86 -96 106q-77 -80 -184 -124t-234 -44q-246 0 -384 122t-138 323q0 271 305 420q-149 142 -149 305q0 153 116 253.5t300 100.5q182 0 296.5 -92t114.5 -244q0 -114 -70 -208.5t-196 -162.5q36 -38 107.5 -117.5t93.5 -103.5
q60 120 84 238l301 -19q-28 -125 -76.5 -236.5t-104.5 -187.5zM563 637q-157 -94 -157 -223q0 -89 61.5 -142t155.5 -53q131 0 219 117q-14 14 -34.5 36.5t-87.5 95t-157 169.5zM641 950l33 23q119 78 119 172q0 57 -35.5 92t-95.5 35q-57 0 -92 -35t-35 -92q0 -96 106 -195
z" />
    <glyph glyph-name="quotesingle" unicode="'" horiz-adv-x="524" 
d="M389 924h-254q0 10 -13 249.5t-13 290.5h307q0 -51 -13.5 -290.5t-13.5 -249.5z" />
    <glyph glyph-name="parenleft" unicode="(" horiz-adv-x="694" 
d="M68 612q0 327 149.5 581t396.5 361v-284q-262 -256 -262 -654q0 -403 262 -653v-285q-248 104 -397 356t-149 578z" />
    <glyph glyph-name="parenright" unicode=")" horiz-adv-x="694" 
d="M627 612q0 -326 -149.5 -578t-397.5 -356v285q262 250 262 653q0 398 -262 654v284q247 -107 397 -361t150 -581z" />
    <glyph glyph-name="asterisk" unicode="*" horiz-adv-x="876" 
d="M315 1464h246l-41 -233l211 110l76 -235l-232 -35l168 -164l-200 -145l-105 211l-104 -211l-201 145l168 164l-231 35l75 235l209 -110z" />
    <glyph glyph-name="plus" unicode="+" 
d="M96 551v266h385v389h275v-389h385v-266h-385v-389h-275v389h-385z" />
    <glyph glyph-name="comma" unicode="," horiz-adv-x="589" 
d="M498 340l-191 -522h-280l147 522h324z" />
    <glyph glyph-name="hyphen" unicode="-" horiz-adv-x="854" 
d="M117 471v277h620v-277h-620z" />
    <glyph glyph-name="period" unicode="." horiz-adv-x="567" 
d="M117 0v340h334v-340h-334z" />
    <glyph glyph-name="slash" unicode="/" horiz-adv-x="978" 
d="M45 -215l594 1679h295l-590 -1679h-299z" />
    <glyph glyph-name="zero" unicode="0" 
d="M618 236q126 0 175 112.5t49 370.5q0 270 -49 392t-175 122t-174.5 -121.5t-48.5 -392.5q0 -258 48.5 -370.5t174.5 -112.5zM618 1499q133 0 234 -41t163 -109.5t101 -170t53.5 -210t14.5 -241.5q0 -143 -15.5 -254t-54 -208.5t-102 -160.5t-162.5 -99t-232 -36t-232 36
t-162 99t-101.5 160.5t-54 208.5t-15.5 254q0 94 7 175t25 161t46.5 144t72.5 119.5t102 93t137 58.5t175 21z" />
    <glyph glyph-name="one" unicode="1" 
d="M565 979h-364v231h39q146 0 238 65.5t128 188.5h287v-1464h-328v979z" />
    <glyph glyph-name="two" unicode="2" 
d="M1157 0h-1085v264q186 143 487 387q132 109 188 198.5t56 180.5q0 87 -50 134.5t-139 47.5q-102 0 -152 -62.5t-50 -170.5h-328q0 239 142.5 379.5t391.5 140.5q245 0 388 -121.5t143 -324.5q0 -288 -338 -545q-66 -52 -169.5 -126t-154.5 -118q47 2 121 2h549v-266z" />
    <glyph glyph-name="three" unicode="3" 
d="M47 444h332q8 -103 65.5 -157t161.5 -54q110 0 166.5 55t56.5 150q0 107 -74.5 156t-219.5 49h-27v260q133 0 200.5 43t67.5 139q0 69 -48 110.5t-126 41.5q-79 0 -129 -43.5t-51 -130.5h-318q5 198 142 317t368 119q224 0 360 -109t136 -288q0 -126 -59 -196.5
t-174 -110.5v-4q294 -92 294 -373q0 -204 -152.5 -327.5t-412.5 -123.5q-256 0 -405.5 125.5t-153.5 351.5z" />
    <glyph glyph-name="four" unicode="4" 
d="M1212 551v-266h-206v-285h-318v285h-684v254l623 925h379v-913h206zM303 549q55 2 180 2h205v346q0 2 6 254h-4q-88 -154 -153 -254l-111 -168q-8 -13 -36 -54t-42 -63q-8 -14 -25 -36.5t-20 -26.5z" />
    <glyph glyph-name="five" unicode="5" 
d="M59 424h351q12 -85 67 -135.5t146 -50.5q103 0 161 65t58 176q0 106 -58 171t-157 65q-127 0 -197 -119l-326 53l91 815h878v-270h-618q-5 -33 -18.5 -136.5t-22.5 -164.5h2q117 88 284 88q211 0 344.5 -132.5t133.5 -354.5q0 -240 -153 -380.5t-407 -140.5
q-239 0 -390.5 124t-168.5 327z" />
    <glyph glyph-name="six" unicode="6" 
d="M1157 1118l-340 2q-21 63 -60.5 96t-117.5 33q-110 0 -171.5 -105.5t-61.5 -279.5q40 40 120 73.5t191 33.5q201 0 333 -128t132 -358q0 -227 -148.5 -369.5t-406.5 -142.5q-275 0 -421.5 181t-146.5 518q0 197 35 349.5t106.5 262t186 166.5t268.5 57q112 0 202.5 -31.5
t150.5 -87t97 -123.5t52 -147zM629 711q-96 0 -157.5 -63.5t-61.5 -170.5t61.5 -171t159.5 -64t158.5 63t60.5 168q0 109 -61.5 173.5t-159.5 64.5z" />
    <glyph glyph-name="seven" unicode="7" 
d="M635 0h-361q201 622 539 1190q-2 0 -2 2q-41 -3 -77 -3.5t-88.5 0.5t-80.5 1h-456v274h1038v-262q-262 -440 -512 -1202z" />
    <glyph glyph-name="eight" unicode="8" 
d="M618 -33q-254 0 -406.5 119t-152.5 320q0 272 299 374v4q-241 85 -241 324q0 168 138 279.5t359 111.5q225 0 364.5 -111t139.5 -280q0 -239 -241 -324v-4q299 -109 299 -374q0 -200 -152.5 -319.5t-405.5 -119.5zM616 645q-102 0 -164.5 -58.5t-62.5 -152.5
q0 -89 62 -147t165 -58q102 0 163 56.5t61 148.5q0 94 -62 152.5t-162 58.5zM618 1241q-88 0 -140 -49t-52 -123t53 -123t139 -49t138.5 49t52.5 123t-52.5 123t-138.5 49z" />
    <glyph glyph-name="nine" unicode="9" 
d="M72 348l346 -2q21 -63 60.5 -96t117.5 -33q111 0 171 101t60 280q-40 -40 -119.5 -73t-189.5 -33q-130 0 -233.5 54.5t-166.5 167t-63 267.5q0 108 38 201.5t107.5 162t174.5 107.5t233 39q275 0 421.5 -182.5t146.5 -526.5q0 -825 -598 -825q-112 0 -203.5 32t-151.5 88
t-98 124t-53 147zM606 758q96 0 157.5 63t61.5 170t-61.5 171.5t-159.5 64.5q-97 0 -158 -63.5t-61 -168.5q0 -109 61.5 -173t159.5 -64z" />
    <glyph glyph-name="colon" unicode=":" horiz-adv-x="567" 
d="M117 0v340h334v-340h-334zM117 664v340h334v-340h-334z" />
    <glyph glyph-name="semicolon" unicode=";" horiz-adv-x="616" 
d="M166 664v340h334v-340h-334zM504 340l-191 -522h-280l147 522h324z" />
    <glyph glyph-name="less" unicode="&#x3c;" 
d="M1034 1280v-307l-596 -281v-6l596 -283v-311l-891 471v242z" />
    <glyph glyph-name="equal" unicode="=" 
d="M109 743v275h1019v-275h-1019zM109 358v275h1019v-275h-1019z" />
    <glyph glyph-name="greater" unicode="&#x3e;" 
d="M203 973v307l891 -475v-242l-891 -471v311l596 283v6z" />
    <glyph glyph-name="question" unicode="?" horiz-adv-x="1144" 
d="M385 1012h-322q5 223 140.5 351t376.5 128q118 0 213 -32t156.5 -88t94.5 -131t33 -161q0 -112 -49 -200.5t-149 -169.5l-19 -15q-93 -74 -125.5 -125t-32.5 -143h-290q0 145 32 219.5t129 163.5l78 72q94 84 94 192q0 69 -47 114.5t-127 45.5q-95 0 -141.5 -57.5
t-44.5 -163.5zM727 303v-303h-334v303h334z" />
    <glyph glyph-name="at" unicode="@" horiz-adv-x="1669" 
d="M1098 1102h188l-90 -494q-14 -77 -14 -92q0 -45 47 -45q81 0 143 107t62 253q0 223 -152.5 365.5t-400.5 142.5q-177 0 -319 -81.5t-221 -223t-79 -313.5q0 -269 176.5 -440.5t456.5 -171.5q129 0 234.5 32t207.5 95l99 -109q-240 -178 -547 -178q-239 0 -424 99
t-286 274.5t-101 398.5q0 161 61 304t166.5 247t255 164.5t318.5 60.5q152 0 286 -48.5t229 -133t150 -204t55 -255.5q0 -232 -119.5 -389.5t-297.5 -157.5q-61 0 -103.5 27t-62.5 65q-96 -100 -244 -100q-149 0 -238.5 96.5t-89.5 261.5q0 123 50.5 229t144.5 171t211 65
q157 0 235 -120q0 13 6.5 54t6.5 44zM870 940q-100 0 -161.5 -83t-61.5 -195q0 -84 43 -134.5t121 -50.5q103 0 163 84t60 201q0 85 -42.5 131.5t-121.5 46.5z" />
    <glyph glyph-name="A" unicode="A" horiz-adv-x="1474" 
d="M326 0h-346q330 881 561 1464h403q246 -663 547 -1464h-352q-15 42 -60 159.5t-69 186.5h-553zM547 612h371q-31 97 -93.5 286t-91.5 288h-4q-23 -82 -50.5 -170t-72.5 -225t-59 -179z" />
    <glyph glyph-name="B" unicode="B" horiz-adv-x="1335" 
d="M152 0v1464h387q129 0 192 -2q479 -16 479 -375q0 -124 -72.5 -204t-195.5 -111q63 -9 117 -32.5t101.5 -64t74.5 -106.5t27 -151q0 -181 -102.5 -276.5t-285.5 -127.5q-88 -14 -219 -14h-503zM481 625v-357h121q80 0 134.5 7t100 26.5t67.5 56.5t22 93q0 94 -69.5 134
t-197.5 40h-178zM481 1196v-322h127q143 0 208 36.5t65 131.5q0 88 -61.5 121t-186.5 33h-152z" />
    <glyph glyph-name="C" unicode="C" horiz-adv-x="1562" 
d="M1141 459h375q-72 -233 -254 -359.5t-449 -126.5q-336 0 -538.5 203.5t-202.5 554.5q0 229 94 402t262.5 265.5t388.5 92.5q266 0 449.5 -132.5t253.5 -369.5l-367 -2q-100 223 -338 223q-184 0 -288.5 -129.5t-104.5 -351.5q0 -215 105 -341t288 -126q220 0 326 197z
" />
    <glyph glyph-name="D" unicode="D" horiz-adv-x="1513" 
d="M152 0v1464h364q139 0 211 -2q330 -12 521.5 -202.5t191.5 -522.5q0 -126 -36 -248t-104 -219.5t-157 -146.5q-112 -79 -252.5 -101t-378.5 -22h-360zM487 1182v-897h115q137 0 219 26q264 78 264 424q0 336 -264 420q-79 27 -198 27h-136z" />
    <glyph glyph-name="E" unicode="E" horiz-adv-x="1210" 
d="M483 598v-311h639v-287h-970v1464h962v-286h-631v-297h580v-283h-580z" />
    <glyph glyph-name="F" unicode="F" horiz-adv-x="1173" 
d="M487 0h-335v1464h946v-286h-611v-297h568v-283h-568v-598z" />
    <glyph glyph-name="G" unicode="G" horiz-adv-x="1619" 
d="M823 1491q266 0 446.5 -132.5t250.5 -369.5l-367 -2q-100 223 -336 223q-183 0 -289 -130t-106 -343q0 -220 107 -350.5t296 -130.5q157 0 246.5 77.5t116.5 203.5q-66 -2 -189 -2h-262v272h783v-807h-314v78q0 18 1 45t1 37h-2q-66 -83 -183 -135t-269 -52
q-199 0 -354 95t-241.5 268t-86.5 397q0 341 205 549.5t546 208.5z" />
    <glyph glyph-name="H" unicode="H" horiz-adv-x="1507" 
d="M487 0h-335v1464h335v-565h533v565h336v-1464h-336v610h-533v-610z" />
    <glyph glyph-name="I" unicode="I" horiz-adv-x="638" 
d="M487 0h-335v1464h335v-1464z" />
    <glyph glyph-name="J" unicode="J" horiz-adv-x="1101" 
d="M494 -31q-232 0 -346.5 110t-114.5 312h327q5 -59 32 -94t93 -35q86 0 113 64.5t27 224.5v913h338v-917q0 -144 -24 -247.5t-77.5 -179.5t-145 -113.5t-222.5 -37.5z" />
    <glyph glyph-name="K" unicode="K" horiz-adv-x="1357" 
d="M487 0h-335v1464h335v-649h5q49 77 110.5 166.5t106 150.5t124 170t117.5 162h404q-97 -124 -279 -351t-262 -329l576 -784h-414q-390 575 -483 727h-5v-727z" />
    <glyph glyph-name="L" unicode="L" horiz-adv-x="1144" 
d="M152 1464h335v-1175h615v-289h-950v1464z" />
    <glyph glyph-name="M" unicode="M" horiz-adv-x="1964" 
d="M152 0v1464h538l180 -614q78 -274 119 -438h2l133 454l170 598h518v-1464h-315v684q0 277 8 485h-4q-33 -129 -115 -405l-225 -764h-350l-223 748q-48 157 -115 421h-4q6 -154 6 -473v-696h-323z" />
    <glyph glyph-name="N" unicode="N" horiz-adv-x="1570" 
d="M1419 1464v-1464h-428l-317 614q-178 352 -215 449h-2q4 -79 4 -465v-598h-309v1464h434l372 -733q33 -66 63 -130.5t57.5 -127.5t35.5 -80h2q-6 123 -6 424v647h309z" />
    <glyph glyph-name="O" unicode="O" horiz-adv-x="1632" 
d="M815 1491q220 0 389 -92.5t263 -265.5t94 -402q0 -352 -203.5 -555t-544.5 -203q-336 0 -538.5 203.5t-202.5 554.5q0 346 204.5 553t538.5 207zM815 262q182 0 286.5 126t104.5 341q0 222 -104.5 351.5t-286.5 129.5q-184 0 -288.5 -129.5t-104.5 -351.5
q0 -215 105 -341t288 -126z" />
    <glyph glyph-name="P" unicode="P" horiz-adv-x="1304" 
d="M152 0v1464h438q106 0 155 -2q241 -7 373.5 -130t132.5 -337q0 -118 -42.5 -213.5t-123.5 -156.5q-81 -62 -190 -82.5t-285 -20.5h-123v-522h-335zM487 1180v-383h170q256 0 256 192q0 99 -63 145t-199 46h-164z" />
    <glyph glyph-name="Q" unicode="Q" horiz-adv-x="1632" 
d="M813 1491q335 0 541.5 -207t206.5 -553q0 -350 -203 -553l268 -280h-399l-121 122q-136 -47 -293 -47q-336 0 -538.5 203.5t-202.5 554.5q0 229 93 402t260.5 265.5t387.5 92.5zM623 516l407 6l96 -100q80 121 80 307q0 222 -104.5 351.5t-286.5 129.5
q-184 0 -288.5 -129.5t-104.5 -351.5q0 -215 105 -341t288 -126q35 0 51 2z" />
    <glyph glyph-name="R" unicode="R" horiz-adv-x="1327" 
d="M485 528v-528h-333v1464h540q137 0 229 -19.5t166 -70.5q80 -60 123 -148.5t43 -193.5q0 -178 -91 -289t-232 -157l366 -586h-376l-310 528h-125zM485 1180v-383h189q121 0 186.5 48t65.5 144q0 101 -68.5 146t-206.5 45h-166z" />
    <glyph glyph-name="S" unicode="S" horiz-adv-x="1292" 
d="M55 444h344q30 -200 258 -200q103 0 164.5 46t61.5 124q0 70 -50.5 102t-183.5 68l-100 28q-244 70 -348.5 170.5t-104.5 270.5q0 196 152 317t401 121q245 0 390 -114.5t157 -325.5h-336q-35 174 -223 174q-91 0 -141 -40.5t-50 -107.5q1 -68 43.5 -101t139.5 -61
l112 -32q105 -29 179 -57.5t135.5 -66.5t98 -84t56 -106.5t19.5 -138.5q0 -210 -160 -333.5t-426 -123.5t-422 125t-166 346z" />
    <glyph glyph-name="T" unicode="T" horiz-adv-x="1200" 
d="M768 0h-336v1176h-387v288h1110v-288h-387v-1176z" />
    <glyph glyph-name="U" unicode="U" horiz-adv-x="1449" 
d="M725 262q252 0 252 340v862h336v-872q0 -265 -115 -416q-150 -201 -473 -201q-322 0 -473 201q-115 151 -115 416v872h336v-862q0 -340 252 -340z" />
    <glyph glyph-name="V" unicode="V" horiz-adv-x="1390" 
d="M901 0h-412q-152 440 -489 1464h371l231 -784q35 -123 96 -371h7q10 40 30 120.5t35 134t37 122.5l233 778h351q-37 -116 -146 -440.5t-149 -445.5z" />
    <glyph glyph-name="W" unicode="W" horiz-adv-x="1978" 
d="M1634 1464h312q-49 -246 -149.5 -732t-149.5 -732h-441l-153 831q-12 59 -19.5 106t-17.5 119t-17 122h-6q-32 -214 -55 -336l-160 -842h-448l-297 1464h340q21 -116 56.5 -343t55.5 -341l29 -162q13 -77 25.5 -171.5t21.5 -157.5h8q10 71 19 127.5t15 89t22.5 119.5
t29.5 155l133 684h433l120 -651q66 -353 86 -528h9q21 178 51 333z" />
    <glyph glyph-name="X" unicode="X" horiz-adv-x="1366" 
d="M977 1464h373q-25 -38 -469 -706q92 -143 264.5 -401.5t236.5 -356.5h-399q-46 76 -154 250.5t-153 247.5q-68 -102 -176 -275t-140 -223h-376q56 83 158.5 235.5t186.5 278.5t154 234q-199 298 -467 716h392q31 -59 79 -138.5t113.5 -185t87.5 -141.5q38 62 137 219
t152 246z" />
    <glyph glyph-name="Y" unicode="Y" horiz-adv-x="1273" 
d="M1288 1464l-483 -915v-549h-336v549l-174 334q-46 86 -152 291t-151 290h375q85 -182 280 -604h4q17 42 37 87.5t50.5 111.5t50.5 109.5t67.5 143.5t71.5 152h360z" />
    <glyph glyph-name="Z" unicode="Z" horiz-adv-x="1222" 
d="M72 0v268l454 623l207 287q-90 -2 -254 -2h-381v288h1024v-270q-76 -109 -153 -211l-295 -408q-48 -65 -215 -288q96 2 266 2h430v-289h-1083z" />
    <glyph glyph-name="bracketleft" unicode="[" horiz-adv-x="739" 
d="M674 -31v-200h-504v1695h504v-198h-232v-1297h232z" />
    <glyph glyph-name="backslash" unicode="\" horiz-adv-x="978" 
d="M340 1464l594 -1679h-299l-590 1679h295z" />
    <glyph glyph-name="bracketright" unicode="]" horiz-adv-x="739" 
d="M66 -231v200h231v1297h-231v198h503v-1695h-503z" />
    <glyph glyph-name="asciicircum" unicode="^" 
d="M512 1401h213q48 -93 131.5 -256t153.5 -298.5t135 -256.5h-303q-43 94 -126.5 262t-92.5 188h-7q-6 -13 -91.5 -183t-131.5 -267h-301q65 121 135 256.5t153.5 298.5t131.5 256z" />
    <glyph glyph-name="underscore" unicode="_" horiz-adv-x="1204" 
d="M115 -340v223h975v-223h-975z" />
    <glyph glyph-name="grave" unicode="`" horiz-adv-x="526" 
d="M715 1221h-344l-289 243h420z" />
    <glyph glyph-name="a" unicode="a" horiz-adv-x="1177" 
d="M1085 0h-288q-9 61 -6 121q-32 -32 -57.5 -52t-67 -43t-97 -34.5t-125.5 -11.5q-175 0 -282 84.5t-107 234.5q0 64 24 117t68.5 90.5t100 65.5t127.5 47t141.5 30.5t151.5 18.5q11 1 46 3.5t48 2.5q0 112 -40.5 165.5t-131.5 53.5q-162 0 -178 -154h-308
q12 170 139.5 269.5t346.5 99.5q121 0 206 -24t146.5 -79t91 -149t29.5 -231v-328q0 -219 22 -297zM760 440q0 23 2 37l-55 -6q-182 -21 -254 -55.5t-72 -106.5q0 -59 44.5 -92t117.5 -33q217 0 217 256z" />
    <glyph glyph-name="b" unicode="b" horiz-adv-x="1312" 
d="M428 0h-301v1464h319v-282q0 -26 -1 -109.5t-1 -109.5q48 58 130.5 100.5t199.5 42.5q212 0 341.5 -149.5t129.5 -409.5q0 -257 -133 -415.5t-352 -158.5q-123 0 -206.5 50.5t-127.5 119.5q2 -35 2 -143zM666 862q-109 0 -174.5 -85.5t-65.5 -227.5q0 -150 63 -239
t177 -89q113 0 177 90t64 232q0 143 -64 231t-177 88z" />
    <glyph glyph-name="c" unicode="c" horiz-adv-x="1216" 
d="M852 383h313q-38 -190 -177.5 -303t-356.5 -113q-257 0 -412.5 158.5t-155.5 411.5t158 413t412 160q217 0 355 -108t175 -308h-321q-49 164 -205 164q-113 0 -178.5 -85.5t-65.5 -233.5q0 -156 66 -237t186 -81q74 0 131 40t76 122z" />
    <glyph glyph-name="d" unicode="d" horiz-adv-x="1312" 
d="M1186 0h-301q0 108 2 143q-43 -68 -128 -119t-210 -51q-218 0 -349.5 153.5t-131.5 410.5q0 259 132.5 414t344.5 155q203 0 323 -143q0 26 -1 109.5t-1 109.5v282h320v-1464zM647 862q-113 0 -177 -88t-64 -231q0 -142 64 -232t177 -90q114 0 177 89t63 239
q0 142 -65.5 227.5t-174.5 85.5z" />
    <glyph glyph-name="e" unicode="e" 
d="M842 319h325q-51 -163 -190 -257.5t-350 -94.5q-257 0 -409 155t-152 419q0 252 157.5 411.5t409.5 159.5q175 0 300.5 -76t188 -209.5t62.5 -310.5q0 -5 -1 -17.5t-1 -17.5v-18h-799q10 -120 78.5 -188t175.5 -68q148 0 205 112zM391 662h471q-12 106 -72 164.5
t-159 58.5t-163 -59t-77 -164z" />
    <glyph glyph-name="f" unicode="f" horiz-adv-x="720" 
d="M190 1075v51q0 175 104 268t292 93q68 0 106 -10v-236q-28 4 -51 4q-131 0 -131 -137v-33h182v-231h-182v-844h-320v844h-143v231h143z" />
    <glyph glyph-name="g" unicode="g" horiz-adv-x="1316" 
d="M94 -39h336q30 -67 79 -99t126 -32q142 0 200.5 93t53.5 286h-4q-44 -72 -132.5 -118t-207.5 -46q-215 0 -345 145t-130 383q0 235 135.5 384t343.5 149q123 0 208.5 -47t127.5 -119q-4 29 -4 135h309v-907q0 -280 -145.5 -424.5t-421.5 -144.5q-227 0 -361.5 96.5
t-167.5 265.5zM649 862q-111 0 -176 -80t-65 -211q0 -126 64 -204t177 -78q107 0 173.5 78t66.5 215q0 124 -65.5 202t-174.5 78z" />
    <glyph glyph-name="h" unicode="h" horiz-adv-x="1261" 
d="M446 0h-319v1464h319v-229q0 -193 -2 -283q42 66 122.5 108t195.5 42q109 0 191 -44.5t130 -127.5q39 -66 50.5 -147t11.5 -232v-551h-320v520q0 171 -38 251.5t-138 80.5q-203 0 -203 -301v-551z" />
    <glyph glyph-name="i" unicode="i" horiz-adv-x="573" 
d="M127 1202v262h319v-262h-319zM446 0h-319v1075h319v-1075z" />
    <glyph glyph-name="j" unicode="j" horiz-adv-x="573" 
d="M446 1075v-1073q0 -218 -81.5 -306.5t-292.5 -88.5q-79 0 -144 12v221q16 -2 35 -2q90 0 127 40t37 130v1067h319zM127 1202v262h319v-262h-319z" />
    <glyph glyph-name="k" unicode="k" horiz-adv-x="1191" 
d="M446 0h-319v1464h319v-866h3q24 34 93.5 135.5t146 215t85.5 126.5h385q-326 -392 -401 -493q59 -86 191 -258t255 -324h-405q-48 77 -134.5 201.5t-146 212t-69.5 114.5h-3v-528z" />
    <glyph glyph-name="l" unicode="l" horiz-adv-x="585" 
d="M453 0h-320v1464h320v-1464z" />
    <glyph glyph-name="m" unicode="m" horiz-adv-x="1914" 
d="M1122 0h-319v520q0 179 -34.5 255.5t-129.5 76.5q-101 0 -147 -75t-46 -226v-551h-319v911q0 109 -2 164h305v-147q38 76 119 125t205 49q217 0 311 -180h4q44 74 132 127t220 53q79 0 144.5 -24t119 -76.5t83.5 -145t30 -219.5v-637h-319v520q0 179 -34.5 255.5
t-129.5 76.5q-101 0 -147 -75t-46 -226v-551z" />
    <glyph glyph-name="n" unicode="n" horiz-adv-x="1261" 
d="M446 0h-319v911q0 109 -2 164h305v-147q37 75 122 124.5t210 49.5q109 0 191 -44.5t130 -127.5q39 -66 50.5 -147t11.5 -232v-551h-320v520q0 171 -38 251.5t-138 80.5q-203 0 -203 -301v-551z" />
    <glyph glyph-name="o" unicode="o" horiz-adv-x="1286" 
d="M641 1112q260 0 421 -159.5t161 -415.5q0 -254 -159 -412t-421 -158q-263 0 -421.5 158.5t-158.5 413.5q0 254 160.5 413.5t417.5 159.5zM639 860q-117 0 -181.5 -86.5t-64.5 -234.5q0 -152 63.5 -236t184.5 -84t183.5 83.5t62.5 234.5q0 150 -64 236.5t-184 86.5z" />
    <glyph glyph-name="p" unicode="p" horiz-adv-x="1312" 
d="M127 1075h313q0 -25 -1 -62t-1 -50q48 57 133 100t203 43q212 0 341.5 -149.5t129.5 -409.5q0 -257 -133 -415.5t-352 -158.5q-211 0 -316 138q2 -63 2 -230v-250h-319v1444zM666 862q-109 0 -174.5 -85.5t-65.5 -227.5q0 -150 63 -239t177 -89q113 0 177 90t64 232
q0 143 -64 231t-177 88z" />
    <glyph glyph-name="q" unicode="q" horiz-adv-x="1312" 
d="M870 1075h316v-1444h-320v283q0 25 4 201q-44 -61 -123 -101.5t-194 -40.5q-220 0 -352.5 153t-132.5 409q0 261 132.5 416t344.5 155q207 0 325 -141v110zM647 862q-113 0 -177 -88t-64 -231q0 -142 64 -232t177 -90q114 0 177 89t63 239q0 142 -65.5 227.5t-174.5 85.5
z" />
    <glyph glyph-name="r" unicode="r" horiz-adv-x="819" 
d="M127 0v881q0 126 -2 194h297q0 -61 -2 -110t-2 -60h4q79 197 299 197q37 0 65 -4v-291q-36 8 -84 8q-50 0 -88.5 -10t-65.5 -27t-45.5 -49t-30 -66t-17 -88.5t-7.5 -106.5t-2 -130v-338h-319z" />
    <glyph glyph-name="s" unicode="s" horiz-adv-x="1146" 
d="M49 352h330q30 -157 211 -157q75 0 122.5 27t47.5 73q0 47 -39 68.5t-141 48.5l-138 37q-94 26 -156 52.5t-109 64.5t-68 89t-21 121q0 154 127 245t356 91q212 0 343.5 -88t148.5 -260h-311q-39 125 -191 125q-71 0 -110 -25t-39 -67q0 -48 44 -70t175 -55l71 -19
q215 -55 301.5 -127.5t86.5 -210.5q0 -162 -133 -255t-371 -93q-251 0 -381.5 93.5t-155.5 291.5z" />
    <glyph glyph-name="t" unicode="t" horiz-adv-x="768" 
d="M193 844h-162v231h162v287h319v-287h195v-231h-195v-367q0 -45 0.5 -68t2 -54.5t4.5 -46t9.5 -34t15.5 -27.5t22.5 -16.5t31 -11t41.5 -2.5q28 0 55 6v-235q-67 -13 -127 -13q-102 0 -169.5 17t-115 60.5t-68.5 117t-21 186.5v488z" />
    <glyph glyph-name="u" unicode="u" horiz-adv-x="1253" 
d="M807 1075h319v-911q0 -109 2 -164h-305v147q-38 -76 -118.5 -125t-204.5 -49q-109 0 -191.5 44.5t-130.5 127.5q-39 66 -50 146t-11 233v551h319v-520q0 -172 36.5 -252t135.5 -80q103 0 151 75.5t48 225.5v551z" />
    <glyph glyph-name="v" unicode="v" horiz-adv-x="1130" 
d="M743 0h-358q-327 942 -373 1075h338q23 -83 100.5 -344.5t116.5 -413.5h6q21 95 52 207t87 297.5t76 253.5h332q-66 -193 -193 -551.5t-184 -523.5z" />
    <glyph glyph-name="w" unicode="w" horiz-adv-x="1753" 
d="M713 0h-385q-46 158 -96 335t-112 402.5t-93 337.5h327l95 -395q23 -88 45 -218.5t32 -178.5h6q10 50 26 131.5t30 145.5t33 142l84 373h346l90 -379q17 -73 46.5 -217t41.5 -200h4q83 403 86 415l86 381h324q-52 -189 -154.5 -546.5t-149.5 -528.5h-387l-80 328
q-65 270 -79 362h-7q-40 -190 -79 -360z" />
    <glyph glyph-name="x" unicode="x" horiz-adv-x="1118" 
d="M4 0l365 557l-334 518h354q25 -52 94.5 -180.5t79.5 -146.5q12 22 73.5 141.5t100.5 185.5h338q-52 -85 -327 -516q60 -96 192 -292t178 -267h-356q-168 301 -203 369q-25 -49 -60 -112t-84.5 -148t-62.5 -109h-348z" />
    <glyph glyph-name="y" unicode="y" horiz-adv-x="1126" 
d="M606 -369h-327l53 164q17 49 41.5 126.5t29.5 92.5q-20 54 -173 454t-226 607h340q36 -116 84 -268.5t80 -257t59 -199.5h11q14 61 41 161t48 174.5t61 211t52 178.5h330q-54 -145 -151 -423.5t-206.5 -597t-146.5 -423.5z" />
    <glyph glyph-name="z" unicode="z" horiz-adv-x="1079" 
d="M72 0v233q83 94 207 235t211.5 241.5t115.5 130.5l-2 2q-59 -4 -252 -4h-262v237h893v-233q-440 -496 -532 -604v-2q184 4 272 4h291v-240h-942z" />
    <glyph glyph-name="braceleft" unicode="{" horiz-adv-x="690" 
d="M63 545v141q52 16 78 35.5t41 64t15 123.5v305q0 149 58.5 204t227.5 55q7 0 33 -1.5t41 -1.5h49v-188q-74 -5 -100.5 -37t-26.5 -129v-186q0 -112 -13 -169t-42.5 -87t-93.5 -56v-4q64 -26 93.5 -55.5t42.5 -86.5t13 -169v-194q0 -66 12.5 -99.5t37.5 -45.5t77 -15v-189
q-18 -2 -49 -2h-74q-169 0 -227.5 54.5t-58.5 203.5v306q0 79 -15 123.5t-41 64t-78 35.5z" />
    <glyph glyph-name="bar" unicode="|" horiz-adv-x="624" 
d="M172 -127v1624h281v-1624h-281z" />
    <glyph glyph-name="braceright" unicode="}" horiz-adv-x="690" 
d="M627 686v-141q-52 -16 -77.5 -35.5t-40.5 -63.5t-15 -124v-306q0 -149 -59 -203.5t-228 -54.5h-74q-31 0 -49 2v189q52 3 77 15t37.5 45.5t12.5 99.5v194q0 112 13 169t42.5 86.5t93.5 55.5v4q-64 26 -93.5 56t-42.5 87t-13 169v186q0 97 -26.5 129t-100.5 37v188h49
q15 0 40.5 1.5t33.5 1.5q169 0 228 -55t59 -204v-305q0 -80 15 -124t40.5 -63.5t77.5 -35.5z" />
    <glyph glyph-name="asciitilde" unicode="~" 
d="M977 881l182 -142q-147 -264 -332 -264q-55 0 -105.5 16.5t-129.5 53.5l-35 16q-5 2 -26.5 12.5t-27.5 13t-22.5 9.5t-25 9t-21.5 4.5t-24 2.5q-41 0 -75 -30t-75 -105l-182 141q148 265 332 265q55 0 105.5 -16.5t129.5 -53.5l35 -16q6 -3 31 -15t33 -15.5t26 -10.5
t30.5 -9t26.5 -2q41 0 75 30.5t75 105.5z" />
    <glyph glyph-name="uni00A0" unicode="&#xa0;" horiz-adv-x="473" 
 />
    <glyph glyph-name="exclamdown" unicode="&#xa1;" horiz-adv-x="634" 
d="M186 645h271q3 -83 12 -240t14.5 -298t5.5 -285v-223h-335v223q0 144 5.5 285t14.5 298t12 240zM487 1075v-305h-335v305h335z" />
    <glyph glyph-name="cent" unicode="&#xa2;" 
d="M862 383h314q-31 -160 -134 -264.5t-266 -136.5v-150h-272v150q-202 41 -316 188q-114 150 -114 367q0 214 116.5 365.5t313.5 195.5v176h272v-174q161 -31 264 -135t134 -269h-322q-26 86 -82 127v-573q69 43 92 133zM403 539q0 -201 107 -277v551q-107 -87 -107 -274z
" />
    <glyph glyph-name="sterling" unicode="&#xa3;" 
d="M1124 240v-240h-991v223q126 13 185 76.5t59 157.5q0 84 -43 184h-254v233h158q-27 100 -27 187q0 90 31.5 167.5t91 136t153 91.5t211.5 33q221 0 340.5 -110t124.5 -310h-293q-24 180 -180 180q-92 0 -134 -55t-42 -141q0 -71 33 -172h338v-240h-250q41 -112 41 -201
q0 -116 -64 -202q27 0 111.5 1t103.5 1h297z" />
    <glyph glyph-name="currency" unicode="&#xa4;" 
d="M971 162l-109 106q-117 -60 -244.5 -59.5t-242.5 61.5l-113 -110l-223 225l113 113q-58 117 -58.5 242t58.5 239l-113 115l223 225l115 -115q115 60 242.5 60t240.5 -58l111 111l225 -223l-109 -109q61 -117 62 -246.5t-59 -246.5l106 -107zM436 551q78 -78 185.5 -78
t185.5 78q77 77 77.5 186.5t-75.5 186.5q-77 76 -187 76t-186 -76q-78 -78 -78 -186.5t78 -186.5z" />
    <glyph glyph-name="yen" unicode="&#xa5;" 
d="M1266 1464l-260 -489h127v-232h-248l-80 -151h328v-232h-351v-360h-336v360h-346v232h324q-8 15 -19.5 36.5t-29.5 55.5t-31 59h-244v232h125q-118 223 -256 489h375l281 -604h4q49 121 276 604h361z" />
    <glyph glyph-name="brokenbar" unicode="&#xa6;" horiz-adv-x="628" 
d="M174 877v620h281v-620h-281zM174 -127v621h281v-621h-281z" />
    <glyph glyph-name="section" unicode="&#xa7;" 
d="M94 160h326q11 -68 62 -108t136 -40q77 0 123.5 26.5t46.5 74.5q0 19 -5 34t-20 28.5t-27.5 23t-41.5 22.5t-47.5 20.5t-60.5 23.5t-66 26l-114 45q-167 67 -251.5 150t-84.5 212q0 181 204 258q0 1 1 2.5t1 2.5q-22 15 -33.5 24t-32 30t-31.5 41.5t-20 53.5t-9 72
q0 143 125.5 227t351.5 84q209 0 336 -87t137 -249h-307q-26 115 -179 115q-71 0 -110 -23t-39 -65q0 -41 36.5 -65t142.5 -66q15 -6 22 -9l77 -30q92 -38 152.5 -66.5t116.5 -64t86.5 -71t48.5 -81t18 -100.5q0 -98 -43.5 -161t-136.5 -108q71 -54 103 -103t32 -128
q0 -154 -139.5 -249t-368.5 -95q-228 0 -364 101.5t-154 271.5zM578 565l196 -84q38 6 65 39.5t27 71.5q0 57 -50.5 90.5t-194.5 89.5l-162 64q-39 -12 -64.5 -38t-25.5 -65q0 -53 45 -86t164 -82z" />
    <glyph glyph-name="dieresis" unicode="&#xa8;" horiz-adv-x="1005" 
d="M256 1221v243h254v-243h-254zM657 1221v243h252v-243h-252z" />
    <glyph glyph-name="copyright" unicode="&#xa9;" horiz-adv-x="1693" 
d="M1038 567h234q-43 -141 -154 -218t-272 -77q-205 0 -328 123t-123 336q0 209 125.5 335t327.5 126q160 0 272.5 -81t153.5 -224h-227q-59 127 -203 127q-108 0 -169 -76.5t-61 -206.5q0 -125 61.5 -199.5t168.5 -74.5q136 0 194 110zM1618 737q0 -159 -60.5 -302
t-164 -246t-247 -163.5t-302.5 -60.5q-157 0 -299.5 61t-245 164t-163 246t-60.5 301q0 157 60 299.5t162.5 245.5t246 164t303.5 61q157 0 299.5 -61t245.5 -164t164 -245.5t61 -299.5zM1477 737q0 129 -50 246.5t-134.5 202.5t-201 135.5t-243.5 50.5q-130 0 -246.5 -50.5
t-200.5 -135.5t-133 -202.5t-49 -246.5q0 -173 83 -320t227.5 -233t316.5 -86t317.5 85.5t229.5 232.5t84 321z" />
    <glyph glyph-name="ordfeminine" unicode="&#xaa;" horiz-adv-x="960" 
d="M848 367h-221q-4 70 -4 82q-45 -47 -100 -73t-150 -26q-133 0 -214 63.5t-81 178.5q0 56 26.5 100.5t68 73t104 49t123 31t137.5 18.5l69 6q-5 82 -35 122t-94 40q-56 0 -88.5 -30t-38.5 -82h-235q11 127 103 201.5t259 74.5q185 0 274 -83.5t89 -281.5v-284
q0 -96 8 -180zM604 723l-33 -4q-124 -18 -183.5 -45.5t-59.5 -73.5q0 -41 32 -65.5t86 -24.5q155 0 158 197v16z" />
    <glyph glyph-name="guillemotleft" unicode="&#xab;" horiz-adv-x="1107" 
d="M580 969l-197 -383l197 -385h-295l-209 385l209 383h295zM1016 969l-187 -383l187 -385h-291l-209 385l209 383h291z" />
    <glyph glyph-name="logicalnot" unicode="&#xac;" 
d="M84 682v274h1034v-675h-297v401h-737z" />
    <glyph glyph-name="uni00AD" unicode="&#xad;" horiz-adv-x="854" 
d="M117 471v277h620v-277h-620z" />
    <glyph glyph-name="registered" unicode="&#xae;" horiz-adv-x="1097" 
d="M489 950v-196h-145v555h244q59 0 110 -23q84 -44 84 -143q0 -125 -114 -170l133 -219h-166l-113 196h-33zM489 1190v-123h64q84 0 84 61q0 34 -23 48t-69 14h-56zM1028 1026q0 -131 -64 -241t-174 -174t-241 -64q-97 0 -185 37.5t-152 101.5t-102 153t-38 187
q0 199 139 339t340 140q97 0 185 -38t152 -102t102 -153t38 -186zM926 1026q0 158 -110 269.5t-265 111.5q-158 0 -267.5 -111t-109.5 -270q0 -160 109 -271.5t266 -111.5q156 0 266.5 112t110.5 271z" />
    <glyph glyph-name="macron" unicode="&#xaf;" horiz-adv-x="876" 
d="M164 1241v191h559v-191h-559z" />
    <glyph glyph-name="degree" unicode="&#xb0;" horiz-adv-x="825" 
d="M414 819q-143 0 -242.5 97t-99.5 239t99.5 240t242.5 98q144 0 242 -97.5t98 -240.5t-97.5 -239.5t-242.5 -96.5zM268 1155q0 -61 42 -102t104 -41t102.5 41t40.5 102q0 63 -41.5 104t-101.5 41q-62 0 -104 -41t-42 -104z" />
    <glyph glyph-name="plusminus" unicode="&#xb1;" 
d="M104 0v274h1020v-274h-1020zM96 674v266h385v287h275v-287h385v-266h-385v-287h-275v287h-385z" />
    <glyph glyph-name="twosuperior" unicode="&#xb2;" horiz-adv-x="911" 
d="M799 555h-690v172q31 24 127 98.5t178 141.5q80 63 112.5 116.5t32.5 108.5q0 49 -28 75.5t-76 26.5q-58 0 -86.5 -38t-28.5 -103h-229q2 154 96 244t254 90q158 0 247 -75.5t89 -205.5q0 -102 -52.5 -182t-152.5 -156q-71 -55 -94 -69l-90 -64h391v-180z" />
    <glyph glyph-name="threesuperior" unicode="&#xb3;" horiz-adv-x="849" 
d="M78 856h215q9 -127 127 -127q62 0 93.5 30t31.5 85q0 114 -168 114h-27v172q81 0 121.5 23.5t40.5 77.5q0 38 -26 60t-68 22q-44 0 -71.5 -26t-27.5 -79h-213q5 128 90.5 203.5t227.5 75.5q140 0 224.5 -67.5t84.5 -178.5q0 -71 -32 -114.5t-93 -71.5q73 -30 117.5 -81
t44.5 -143q0 -126 -94 -202t-256 -76q-159 0 -248.5 78.5t-93.5 224.5z" />
    <glyph glyph-name="acute" unicode="&#xb4;" horiz-adv-x="874" 
d="M516 1221h-344l213 243h420z" />
    <glyph glyph-name="mu" unicode="&#xb5;" horiz-adv-x="1263" 
d="M446 -369h-319v1444h319v-520q0 -172 36.5 -252t135.5 -80q103 0 151 75.5t48 225.5v551h320v-911q0 -109 2 -164h-305v147q-41 -85 -116.5 -126t-172.5 -41q-58 0 -99 10v-359z" />
    <glyph glyph-name="paragraph" unicode="&#xb6;" horiz-adv-x="1366" 
d="M772 1245v-1476h-219v796q-98 0 -188.5 32.5t-159.5 90.5t-110.5 144t-41.5 186q0 228 183 356q76 53 166 71.5t221 18.5h608v-219h-88v-1476h-219v1476h-152z" />
    <glyph glyph-name="periodcentered" unicode="&#xb7;" horiz-adv-x="567" 
d="M117 483v340h334v-340h-334z" />
    <glyph glyph-name="cedilla" unicode="&#xb8;" horiz-adv-x="755" 
d="M172 -334l190 234h300l-156 -234h-334z" />
    <glyph glyph-name="onesuperior" unicode="&#xb9;" horiz-adv-x="606" 
d="M274 1165h-221v142h21q89 0 145.5 41t77.5 116h180v-899h-203v600z" />
    <glyph glyph-name="ordmasculine" unicode="&#xba;" horiz-adv-x="1013" 
d="M504 1204q196 0 317 -120t121 -312q0 -191 -119.5 -308.5t-316.5 -117.5q-198 0 -316 117.5t-118 310.5q0 192 119 311t313 119zM502 1014q-85 0 -132.5 -65t-47.5 -175q0 -112 46.5 -174.5t135.5 -62.5t135.5 61.5t46.5 173.5t-47 177t-137 65z" />
    <glyph glyph-name="guillemotright" unicode="&#xbb;" horiz-adv-x="1107" 
d="M725 586l-197 383h295l209 -383l-209 -385h-295zM279 586l-187 383h291l209 -383l-209 -385h-291z" />
    <glyph glyph-name="onequarter" unicode="&#xbc;" horiz-adv-x="1677" 
d="M1290 170h-438v156l258 368l90 131l51 76h242v-565h119v-166h-119v-170h-203v170zM1284 336v199q0 61 4 139l-90 -139q-28 -44 -72 -108t-61 -91h219zM387 0l563 1464h191l-563 -1464h-191zM283 1165h-222v142h21q89 0 145.5 41t77.5 116h180v-899h-202v600z" />
    <glyph glyph-name="onehalf" unicode="&#xbd;" horiz-adv-x="1728" 
d="M1645 0h-691v172q35 27 130 100.5t176 139.5q80 63 112.5 116.5t32.5 108.5q0 49 -28.5 75.5t-76.5 26.5q-58 0 -86 -38t-28 -103h-230q1 154 96 244t255 90q158 0 246.5 -75.5t88.5 -205.5q0 -102 -52.5 -182.5t-151.5 -155.5q-67 -51 -95 -69l-90 -64h392v-180zM387 0
l563 1464h191l-563 -1464h-191zM283 1165h-222v142h21q89 0 145.5 41t77.5 116h180v-899h-202v600z" />
    <glyph glyph-name="threequarters" unicode="&#xbe;" horiz-adv-x="1878" 
d="M70 856h215q9 -127 127 -127q62 0 93.5 30t31.5 85q0 114 -168 114h-27v172q81 0 121.5 23.5t40.5 77.5q0 38 -26 60t-68 22q-44 0 -71.5 -26t-27.5 -79h-213q5 128 90.5 203.5t227.5 75.5q140 0 224.5 -67.5t84.5 -178.5q0 -71 -32 -114.5t-93 -71.5q73 -30 117.5 -81
t44.5 -143q0 -126 -94 -202t-256 -76q-159 0 -248.5 78.5t-93.5 224.5zM1493 170h-438v156l258 368l90 131l51 76h242v-565h119v-166h-119v-170h-203v170zM1487 336v199q0 61 4 139l-90 -139q-28 -44 -72 -108t-61 -91h219zM590 0l563 1464h190l-563 -1464h-190z" />
    <glyph glyph-name="questiondown" unicode="&#xbf;" horiz-adv-x="1130" 
d="M752 63h321q-5 -223 -140 -351t-376 -128q-118 0 -213.5 32t-157 88t-94.5 131t-33 161q0 112 49.5 201t149.5 170l18 14q93 74 125.5 125t32.5 143h291q0 -100 -15 -163t-47.5 -111t-99.5 -109l-78 -71q-94 -84 -94 -193q0 -69 47 -114.5t127 -45.5q95 0 142 57.5
t45 163.5zM410 772v303h333v-303h-333z" />
    <glyph glyph-name="Agrave" unicode="&#xc0;" horiz-adv-x="1474" 
d="M326 0h-346q330 881 561 1464h403q246 -663 547 -1464h-352q-15 42 -60 159.5t-69 186.5h-553zM547 612h371q-31 97 -93.5 286t-91.5 288h-4q-23 -82 -50.5 -170t-72.5 -225t-59 -179zM952 1559h-331l-285 235h403z" />
    <glyph glyph-name="Aacute" unicode="&#xc1;" horiz-adv-x="1474" 
d="M326 0h-346q330 881 561 1464h403q246 -663 547 -1464h-352q-15 42 -60 159.5t-69 186.5h-553zM547 612h371q-31 97 -93.5 286t-91.5 288h-4q-23 -82 -50.5 -170t-72.5 -225t-59 -179zM872 1559h-331l213 235h403z" />
    <glyph glyph-name="Acircumflex" unicode="&#xc2;" horiz-adv-x="1474" 
d="M326 0h-346q330 881 561 1464h403q246 -663 547 -1464h-352q-15 42 -60 159.5t-69 186.5h-553zM547 612h371q-31 97 -93.5 286t-91.5 288h-4q-23 -82 -50.5 -170t-72.5 -225t-59 -179zM565 1794h328l217 -235h-281l-96 104l-98 -104h-281z" />
    <glyph glyph-name="Atilde" unicode="&#xc3;" horiz-adv-x="1474" 
d="M326 0h-346q330 881 561 1464h403q246 -663 547 -1464h-352q-15 42 -60 159.5t-69 186.5h-553zM547 612h371q-31 97 -93.5 286t-91.5 288h-4q-23 -82 -50.5 -170t-72.5 -225t-59 -179zM729 1591q-32 17 -43 22t-26 10t-27 5q-52 0 -58 -63h-172q0 104 57 177t158 73
q39 0 68.5 -10t73.5 -31q71 -35 98 -35q28 0 39.5 15t17.5 54h166q0 -111 -53.5 -184.5t-148.5 -73.5q-66 0 -150 41z" />
    <glyph glyph-name="Adieresis" unicode="&#xc4;" horiz-adv-x="1474" 
d="M326 0h-346q330 881 561 1464h403q246 -663 547 -1464h-352q-15 42 -60 159.5t-69 186.5h-553zM547 612h371q-31 97 -93.5 286t-91.5 288h-4q-23 -82 -50.5 -170t-72.5 -225t-59 -179zM416 1544v244h254v-244h-254zM817 1544v244h252v-244h-252z" />
    <glyph glyph-name="Aring" unicode="&#xc5;" horiz-adv-x="1474" 
d="M326 0h-346q330 881 561 1464h403q246 -663 547 -1464h-352q-15 42 -60 159.5t-69 186.5h-553zM547 612h371q-31 97 -93.5 286t-91.5 288h-4q-23 -82 -50.5 -170t-72.5 -225t-59 -179zM729 1511q-92 0 -155.5 65.5t-63.5 158.5q0 91 65 155t156 64q92 0 156.5 -64
t64.5 -155q0 -93 -65 -158.5t-158 -65.5zM649 1735q0 -36 22.5 -60t57.5 -24t58.5 23.5t23.5 60.5q0 33 -23.5 56.5t-58.5 23.5t-57.5 -23.5t-22.5 -56.5z" />
    <glyph glyph-name="AE" unicode="&#xc6;" horiz-adv-x="2035" 
d="M1333 598l6 -311h609v-287h-959l-8 346h-475l-195 -346h-352l846 1464h1134v-286h-618l6 -297h561v-283h-555zM651 612h322q-3 105 -6 291.5t-6 282.5h-5q-71 -143 -305 -574z" />
    <glyph glyph-name="Ccedilla" unicode="&#xc7;" horiz-adv-x="1562" 
d="M1141 459h375q-72 -233 -254 -359.5t-449 -126.5q-336 0 -538.5 203.5t-202.5 554.5q0 229 94 402t262.5 265.5t388.5 92.5q266 0 449.5 -132.5t253.5 -369.5l-367 -2q-100 223 -338 223q-184 0 -288.5 -129.5t-104.5 -351.5q0 -215 105 -341t288 -126q220 0 326 197z
M498 -334l190 234h299l-156 -234h-333z" />
    <glyph glyph-name="Egrave" unicode="&#xc8;" horiz-adv-x="1210" 
d="M483 598v-311h639v-287h-970v1464h962v-286h-631v-297h580v-283h-580zM852 1559h-332l-284 235h403z" />
    <glyph glyph-name="Eacute" unicode="&#xc9;" horiz-adv-x="1210" 
d="M483 598v-311h639v-287h-970v1464h962v-286h-631v-297h580v-283h-580zM723 1559h-332l213 235h404z" />
    <glyph glyph-name="Ecircumflex" unicode="&#xca;" horiz-adv-x="1210" 
d="M483 598v-311h639v-287h-970v1464h962v-286h-631v-297h580v-283h-580zM473 1794h328l217 -235h-281l-96 104l-98 -104h-281z" />
    <glyph glyph-name="Edieresis" unicode="&#xcb;" horiz-adv-x="1210" 
d="M483 598v-311h639v-287h-970v1464h962v-286h-631v-297h580v-283h-580zM313 1544v244h254v-244h-254zM715 1544v244h252v-244h-252z" />
    <glyph glyph-name="Igrave" unicode="&#xcc;" horiz-adv-x="638" 
d="M487 0h-335v1464h335v-1464zM510 1559h-332l-284 235h403z" />
    <glyph glyph-name="Iacute" unicode="&#xcd;" horiz-adv-x="638" 
d="M487 0h-335v1464h335v-1464zM485 1559h-331l213 235h403z" />
    <glyph glyph-name="Icircumflex" unicode="&#xce;" horiz-adv-x="638" 
d="M487 0h-335v1464h335v-1464zM154 1794h327l217 -235h-280l-96 104l-99 -104h-280z" />
    <glyph glyph-name="Idieresis" unicode="&#xcf;" horiz-adv-x="638" 
d="M487 0h-335v1464h335v-1464zM-4 1544v244h254v-244h-254zM397 1544v244h252v-244h-252z" />
    <glyph glyph-name="Eth" unicode="&#xd0;" horiz-adv-x="1525" 
d="M41 602v283h123v579h364q139 0 211 -2q330 -12 521.5 -202.5t191.5 -522.5q0 -126 -36 -248t-104 -219.5t-157 -146.5q-112 -79 -252.5 -101t-378.5 -22h-360v602h-123zM500 1182v-297h217v-283h-217v-317h114q138 0 220 26q264 78 264 424q0 336 -264 420
q-80 27 -199 27h-135z" />
    <glyph glyph-name="Ntilde" unicode="&#xd1;" horiz-adv-x="1570" 
d="M1419 1464v-1464h-428l-317 614q-178 352 -215 449h-2q4 -79 4 -465v-598h-309v1464h434l372 -733q33 -66 63 -130.5t57.5 -127.5t35.5 -80h2q-6 123 -6 424v647h309zM803 1591q-32 17 -43 22t-26 10t-27 5q-52 0 -58 -63h-172q0 104 57 177t158 73q39 0 68.5 -10
t73.5 -31q71 -35 98 -35q28 0 39.5 15t17.5 54h166q0 -110 -54 -184t-149 -74q-65 0 -149 41z" />
    <glyph glyph-name="Ograve" unicode="&#xd2;" horiz-adv-x="1632" 
d="M815 1491q220 0 389 -92.5t263 -265.5t94 -402q0 -352 -203.5 -555t-544.5 -203q-336 0 -538.5 203.5t-202.5 554.5q0 346 204.5 553t538.5 207zM815 262q182 0 286.5 126t104.5 341q0 222 -104.5 351.5t-286.5 129.5q-184 0 -288.5 -129.5t-104.5 -351.5
q0 -215 105 -341t288 -126zM1034 1559h-332l-284 235h403z" />
    <glyph glyph-name="Oacute" unicode="&#xd3;" horiz-adv-x="1632" 
d="M815 1491q220 0 389 -92.5t263 -265.5t94 -402q0 -352 -203.5 -555t-544.5 -203q-336 0 -538.5 203.5t-202.5 554.5q0 346 204.5 553t538.5 207zM815 262q182 0 286.5 126t104.5 341q0 222 -104.5 351.5t-286.5 129.5q-184 0 -288.5 -129.5t-104.5 -351.5
q0 -215 105 -341t288 -126zM938 1559h-332l213 235h404z" />
    <glyph glyph-name="Ocircumflex" unicode="&#xd4;" horiz-adv-x="1632" 
d="M815 1491q220 0 389 -92.5t263 -265.5t94 -402q0 -352 -203.5 -555t-544.5 -203q-336 0 -538.5 203.5t-202.5 554.5q0 346 204.5 553t538.5 207zM815 262q182 0 286.5 126t104.5 341q0 222 -104.5 351.5t-286.5 129.5q-184 0 -288.5 -129.5t-104.5 -351.5
q0 -215 105 -341t288 -126zM653 1794h328l217 -235h-280l-97 104l-98 -104h-281z" />
    <glyph glyph-name="Otilde" unicode="&#xd5;" horiz-adv-x="1632" 
d="M815 1491q220 0 389 -92.5t263 -265.5t94 -402q0 -352 -203.5 -555t-544.5 -203q-336 0 -538.5 203.5t-202.5 554.5q0 346 204.5 553t538.5 207zM815 262q182 0 286.5 126t104.5 341q0 222 -104.5 351.5t-286.5 129.5q-184 0 -288.5 -129.5t-104.5 -351.5
q0 -215 105 -341t288 -126zM803 1591q-32 17 -43 22t-26 10t-27 5q-52 0 -58 -63h-172q0 104 57 177t158 73q39 0 68.5 -10t73.5 -31q71 -35 98 -35q28 0 39.5 15t17.5 54h166q0 -110 -54 -184t-149 -74q-65 0 -149 41z" />
    <glyph glyph-name="Odieresis" unicode="&#xd6;" horiz-adv-x="1632" 
d="M815 1491q220 0 389 -92.5t263 -265.5t94 -402q0 -352 -203.5 -555t-544.5 -203q-336 0 -538.5 203.5t-202.5 554.5q0 346 204.5 553t538.5 207zM815 262q182 0 286.5 126t104.5 341q0 222 -104.5 351.5t-286.5 129.5q-184 0 -288.5 -129.5t-104.5 -351.5
q0 -215 105 -341t288 -126zM483 1544v244h254v-244h-254zM885 1544v244h252v-244h-252z" />
    <glyph glyph-name="multiply" unicode="&#xd7;" 
d="M911 1139l191 -191l-293 -293l293 -293l-191 -190l-293 293l-292 -293l-191 190l293 293l-293 293l191 191l292 -293z" />
    <glyph glyph-name="Oslash" unicode="&#xd8;" horiz-adv-x="1632" 
d="M815 1491q108 0 211 -25l88 156l291 -158l-84 -149q116 -99 178 -248t62 -336q0 -352 -203.5 -555t-544.5 -203q-125 0 -240 31l-92 -164l-291 158l95 168q-213 204 -213 565q0 346 204.5 553t538.5 207zM815 262q182 0 286.5 126t104.5 341q0 166 -59 281l-422 -740
q36 -8 90 -8zM422 729q0 -139 45 -244l410 721q-36 4 -62 4q-184 0 -288.5 -129.5t-104.5 -351.5z" />
    <glyph glyph-name="Ugrave" unicode="&#xd9;" horiz-adv-x="1449" 
d="M725 262q252 0 252 340v862h336v-872q0 -265 -115 -416q-150 -201 -473 -201q-322 0 -473 201q-115 151 -115 416v872h336v-862q0 -340 252 -340zM950 1559h-332l-284 235h403z" />
    <glyph glyph-name="Uacute" unicode="&#xda;" horiz-adv-x="1449" 
d="M725 262q252 0 252 340v862h336v-872q0 -265 -115 -416q-150 -201 -473 -201q-322 0 -473 201q-115 151 -115 416v872h336v-862q0 -340 252 -340zM829 1559h-331l213 235h403z" />
    <glyph glyph-name="Ucircumflex" unicode="&#xdb;" horiz-adv-x="1449" 
d="M725 262q252 0 252 340v862h336v-872q0 -265 -115 -416q-150 -201 -473 -201q-322 0 -473 201q-115 151 -115 416v872h336v-862q0 -340 252 -340zM559 1794h328l217 -235h-281l-96 104l-98 -104h-281z" />
    <glyph glyph-name="Udieresis" unicode="&#xdc;" horiz-adv-x="1449" 
d="M725 262q252 0 252 340v862h336v-872q0 -265 -115 -416q-150 -201 -473 -201q-322 0 -473 201q-115 151 -115 416v872h336v-862q0 -340 252 -340zM399 1544v244h254v-244h-254zM801 1544v244h252v-244h-252z" />
    <glyph glyph-name="Yacute" unicode="&#xdd;" horiz-adv-x="1273" 
d="M1288 1464l-483 -915v-549h-336v549l-174 334q-46 86 -152 291t-151 290h375q85 -182 280 -604h4q17 42 37 87.5t50.5 111.5t50.5 109.5t67.5 143.5t71.5 152h360zM770 1559h-332l213 235h404z" />
    <glyph glyph-name="Thorn" unicode="&#xde;" horiz-adv-x="1282" 
d="M152 1464h335v-247h103q82 0 155 -3q241 -7 373.5 -129.5t132.5 -336.5q0 -118 -42.5 -214t-123.5 -157q-81 -62 -190 -82.5t-285 -20.5h-123v-274h-335v1464zM487 932v-383h170q256 0 256 192q0 99 -63 145t-199 46h-164z" />
    <glyph glyph-name="germandbls" unicode="&#xdf;" horiz-adv-x="1228" 
d="M127 0v977q0 144 32.5 240.5t108.5 160.5q125 103 346 103q228 0 354 -93.5t126 -259.5q0 -243 -238 -299q137 -34 221 -133t84 -256q0 -219 -133.5 -335.5t-349.5 -116.5q-62 0 -131 10v229q6 -2 16 -2q6 -2 37 -2q105 0 172.5 58.5t67.5 177.5q0 231 -265 231h-26v236
h18q205 0 205 168q0 70 -40 109.5t-120 39.5q-64 0 -100.5 -28.5t-54.5 -86.5q-11 -45 -11 -118v-1010h-319z" />
    <glyph glyph-name="agrave" unicode="&#xe0;" horiz-adv-x="1177" 
d="M1085 0h-288q-9 61 -6 121q-32 -32 -57.5 -52t-67 -43t-97 -34.5t-125.5 -11.5q-175 0 -282 84.5t-107 234.5q0 64 24 117t68.5 90.5t100 65.5t127.5 47t141.5 30.5t151.5 18.5q11 1 46 3.5t48 2.5q0 112 -40.5 165.5t-131.5 53.5q-162 0 -178 -154h-308
q12 170 139.5 269.5t346.5 99.5q121 0 206 -24t146.5 -79t91 -149t29.5 -231v-328q0 -219 22 -297zM760 440q0 23 2 37l-55 -6q-182 -21 -254 -55.5t-72 -106.5q0 -59 44.5 -92t117.5 -33q217 0 217 256zM815 1221h-344l-289 243h420z" />
    <glyph glyph-name="aacute" unicode="&#xe1;" horiz-adv-x="1177" 
d="M1085 0h-288q-9 61 -6 121q-32 -32 -57.5 -52t-67 -43t-97 -34.5t-125.5 -11.5q-175 0 -282 84.5t-107 234.5q0 64 24 117t68.5 90.5t100 65.5t127.5 47t141.5 30.5t151.5 18.5q11 1 46 3.5t48 2.5q0 112 -40.5 165.5t-131.5 53.5q-162 0 -178 -154h-308
q12 170 139.5 269.5t346.5 99.5q121 0 206 -24t146.5 -79t91 -149t29.5 -231v-328q0 -219 22 -297zM760 440q0 23 2 37l-55 -6q-182 -21 -254 -55.5t-72 -106.5q0 -59 44.5 -92t117.5 -33q217 0 217 256zM709 1221h-344l213 243h419z" />
    <glyph glyph-name="acircumflex" unicode="&#xe2;" horiz-adv-x="1177" 
d="M1085 0h-288q-9 61 -6 121q-32 -32 -57.5 -52t-67 -43t-97 -34.5t-125.5 -11.5q-175 0 -282 84.5t-107 234.5q0 64 24 117t68.5 90.5t100 65.5t127.5 47t141.5 30.5t151.5 18.5q11 1 46 3.5t48 2.5q0 112 -40.5 165.5t-131.5 53.5q-162 0 -178 -154h-308
q12 170 139.5 269.5t346.5 99.5q121 0 206 -24t146.5 -79t91 -149t29.5 -231v-328q0 -219 22 -297zM760 440q0 23 2 37l-55 -6q-182 -21 -254 -55.5t-72 -106.5q0 -59 44.5 -92t117.5 -33q217 0 217 256zM426 1464h326l217 -243h-281l-96 104l-98 -104h-281z" />
    <glyph glyph-name="atilde" unicode="&#xe3;" horiz-adv-x="1177" 
d="M1085 0h-288q-9 61 -6 121q-32 -32 -57.5 -52t-67 -43t-97 -34.5t-125.5 -11.5q-175 0 -282 84.5t-107 234.5q0 64 24 117t68.5 90.5t100 65.5t127.5 47t141.5 30.5t151.5 18.5q11 1 46 3.5t48 2.5q0 112 -40.5 165.5t-131.5 53.5q-162 0 -178 -154h-308
q12 170 139.5 269.5t346.5 99.5q121 0 206 -24t146.5 -79t91 -149t29.5 -231v-328q0 -219 22 -297zM760 440q0 23 2 37l-55 -6q-182 -21 -254 -55.5t-72 -106.5q0 -59 44.5 -92t117.5 -33q217 0 217 256zM582 1247q-73 37 -97 37q-51 0 -57 -63h-172q0 104 57 176.5
t158 72.5q59 0 141 -40q71 -35 99 -35t39.5 15t17.5 54h166q0 -110 -54 -184t-149 -74q-65 0 -149 41z" />
    <glyph glyph-name="adieresis" unicode="&#xe4;" horiz-adv-x="1177" 
d="M1085 0h-288q-9 61 -6 121q-32 -32 -57.5 -52t-67 -43t-97 -34.5t-125.5 -11.5q-175 0 -282 84.5t-107 234.5q0 64 24 117t68.5 90.5t100 65.5t127.5 47t141.5 30.5t151.5 18.5q11 1 46 3.5t48 2.5q0 112 -40.5 165.5t-131.5 53.5q-162 0 -178 -154h-308
q12 170 139.5 269.5t346.5 99.5q121 0 206 -24t146.5 -79t91 -149t29.5 -231v-328q0 -219 22 -297zM760 440q0 23 2 37l-55 -6q-182 -21 -254 -55.5t-72 -106.5q0 -59 44.5 -92t117.5 -33q217 0 217 256zM258 1221v243h254v-243h-254zM659 1221v243h252v-243h-252z" />
    <glyph glyph-name="aring" unicode="&#xe5;" horiz-adv-x="1177" 
d="M1085 0h-288q-9 61 -6 121q-32 -32 -57.5 -52t-67 -43t-97 -34.5t-125.5 -11.5q-175 0 -282 84.5t-107 234.5q0 64 24 117t68.5 90.5t100 65.5t127.5 47t141.5 30.5t151.5 18.5q11 1 46 3.5t48 2.5q0 112 -40.5 165.5t-131.5 53.5q-162 0 -178 -154h-308
q12 170 139.5 269.5t346.5 99.5q121 0 206 -24t146.5 -79t91 -149t29.5 -231v-328q0 -219 22 -297zM760 440q0 23 2 37l-55 -6q-182 -21 -254 -55.5t-72 -106.5q0 -59 44.5 -92t117.5 -33q217 0 217 256zM588 1163q-92 0 -155.5 65t-63.5 158q0 91 65 155.5t156 64.5
q92 0 156.5 -64.5t64.5 -155.5q0 -93 -65 -158t-158 -65zM508 1386q0 -36 22.5 -59.5t57.5 -23.5q36 0 59 23.5t23 59.5q0 33 -23.5 56.5t-58.5 23.5t-57.5 -23.5t-22.5 -56.5z" />
    <glyph glyph-name="ae" unicode="&#xe6;" horiz-adv-x="1900" 
d="M1507 319h324q-51 -163 -189.5 -257.5t-349.5 -94.5q-264 0 -415 160q-150 -150 -420 -150q-192 0 -297 84t-105 238q0 74 35 133t91.5 97.5t138.5 66.5t164.5 42.5t181.5 23.5q9 1 45 3.5t51 2.5q-2 117 -43 169t-133 52q-76 0 -121 -40.5t-53 -109.5h-310
q12 170 137 268.5t349 98.5q239 0 354 -115q160 121 358 121q262 0 404.5 -162.5t142.5 -433.5q0 -5 -1 -17.5t-1 -17.5v-18h-796q10 -120 78.5 -188t175.5 -68q147 0 204 112zM1057 662h471q-12 106 -72.5 164.5t-159.5 58.5t-162.5 -59t-76.5 -164zM760 477l-53 -6
q-181 -20 -252.5 -55.5t-71.5 -104.5q0 -59 43.5 -91t116.5 -32q102 0 157.5 60.5t59.5 204.5v24z" />
    <glyph glyph-name="ccedilla" unicode="&#xe7;" horiz-adv-x="1216" 
d="M852 383h313q-38 -190 -177.5 -303t-356.5 -113q-257 0 -412.5 158.5t-155.5 411.5t158 413t412 160q217 0 355 -108t175 -308h-321q-49 164 -205 164q-113 0 -178.5 -85.5t-65.5 -233.5q0 -156 66 -237t186 -81q74 0 131 40t76 122zM297 -334l190 234h299l-155 -234
h-334z" />
    <glyph glyph-name="egrave" unicode="&#xe8;" 
d="M842 319h325q-51 -163 -190 -257.5t-350 -94.5q-257 0 -409 155t-152 419q0 252 157.5 411.5t409.5 159.5q175 0 300.5 -76t188 -209.5t62.5 -310.5q0 -5 -1 -17.5t-1 -17.5v-18h-799q10 -120 78.5 -188t175.5 -68q148 0 205 112zM391 662h471q-12 106 -72 164.5
t-159 58.5t-163 -59t-77 -164zM866 1221h-344l-289 243h420z" />
    <glyph glyph-name="eacute" unicode="&#xe9;" 
d="M842 319h325q-51 -163 -190 -257.5t-350 -94.5q-257 0 -409 155t-152 419q0 252 157.5 411.5t409.5 159.5q175 0 300.5 -76t188 -209.5t62.5 -310.5q0 -5 -1 -17.5t-1 -17.5v-18h-799q10 -120 78.5 -188t175.5 -68q148 0 205 112zM391 662h471q-12 106 -72 164.5
t-159 58.5t-163 -59t-77 -164zM766 1221h-344l213 243h420z" />
    <glyph glyph-name="ecircumflex" unicode="&#xea;" 
d="M842 319h325q-51 -163 -190 -257.5t-350 -94.5q-257 0 -409 155t-152 419q0 252 157.5 411.5t409.5 159.5q175 0 300.5 -76t188 -209.5t62.5 -310.5q0 -5 -1 -17.5t-1 -17.5v-18h-799q10 -120 78.5 -188t175.5 -68q148 0 205 112zM391 662h471q-12 106 -72 164.5
t-159 58.5t-163 -59t-77 -164zM473 1464h326l217 -243h-281l-96 104l-98 -104h-281z" />
    <glyph glyph-name="edieresis" unicode="&#xeb;" 
d="M842 319h325q-51 -163 -190 -257.5t-350 -94.5q-257 0 -409 155t-152 419q0 252 157.5 411.5t409.5 159.5q175 0 300.5 -76t188 -209.5t62.5 -310.5q0 -5 -1 -17.5t-1 -17.5v-18h-799q10 -120 78.5 -188t175.5 -68q148 0 205 112zM391 662h471q-12 106 -72 164.5
t-159 58.5t-163 -59t-77 -164zM309 1221v243h254v-243h-254zM711 1221v243h252v-243h-252z" />
    <glyph glyph-name="igrave" unicode="&#xec;" horiz-adv-x="573" 
d="M446 0h-319v1075h319v-1075zM512 1221h-344l-289 243h420z" />
    <glyph glyph-name="iacute" unicode="&#xed;" horiz-adv-x="573" 
d="M446 0h-319v1075h319v-1075zM446 1221h-344l213 243h420z" />
    <glyph glyph-name="icircumflex" unicode="&#xee;" horiz-adv-x="573" 
d="M446 0h-319v1075h319v-1075zM127 1464h326l217 -243h-281l-96 104l-98 -104h-281z" />
    <glyph glyph-name="idieresis" unicode="&#xef;" horiz-adv-x="573" 
d="M446 0h-319v1075h319v-1075zM-35 1221v243h254v-243h-254zM367 1221v243h251v-243h-251z" />
    <glyph glyph-name="eth" unicode="&#xf0;" horiz-adv-x="1298" 
d="M881 1493l145 -147l-149 -52q177 -156 263.5 -330t86.5 -395q0 -284 -157.5 -442t-430.5 -158q-255 0 -414 154.5t-159 408.5q0 135 44 246t118 181.5t168.5 108.5t197.5 38q82 0 123 -21l6 7q-34 38 -121 110l-229 -78l-146 150l181 59q-81 48 -242 131h455l69 -37z
M641 860q-117 0 -181.5 -86.5t-64.5 -234.5q0 -152 63.5 -236t184.5 -84t183.5 83.5t62.5 234.5q0 150 -64 236.5t-184 86.5z" />
    <glyph glyph-name="ntilde" unicode="&#xf1;" horiz-adv-x="1261" 
d="M446 0h-319v911q0 109 -2 164h305v-147q37 75 122 124.5t210 49.5q109 0 191 -44.5t130 -127.5q39 -66 50.5 -147t11.5 -232v-551h-320v520q0 171 -38 251.5t-138 80.5q-203 0 -203 -301v-551zM651 1247q-32 17 -43 22t-26 10t-27 5q-51 0 -57 -63h-172q0 104 57 176.5
t158 72.5q59 0 141 -40q71 -35 98 -35q28 0 40 15t18 54h166q0 -110 -54 -184t-149 -74q-66 0 -150 41z" />
    <glyph glyph-name="ograve" unicode="&#xf2;" horiz-adv-x="1286" 
d="M641 1112q260 0 421 -159.5t161 -415.5q0 -254 -159 -412t-421 -158q-263 0 -421.5 158.5t-158.5 413.5q0 254 160.5 413.5t417.5 159.5zM639 860q-117 0 -181.5 -86.5t-64.5 -234.5q0 -152 63.5 -236t184.5 -84t183.5 83.5t62.5 234.5q0 150 -64 236.5t-184 86.5z
M864 1221h-344l-289 243h420z" />
    <glyph glyph-name="oacute" unicode="&#xf3;" horiz-adv-x="1286" 
d="M641 1112q260 0 421 -159.5t161 -415.5q0 -254 -159 -412t-421 -158q-263 0 -421.5 158.5t-158.5 413.5q0 254 160.5 413.5t417.5 159.5zM639 860q-117 0 -181.5 -86.5t-64.5 -234.5q0 -152 63.5 -236t184.5 -84t183.5 83.5t62.5 234.5q0 150 -64 236.5t-184 86.5z
M764 1221h-344l213 243h420z" />
    <glyph glyph-name="ocircumflex" unicode="&#xf4;" horiz-adv-x="1286" 
d="M641 1112q260 0 421 -159.5t161 -415.5q0 -254 -159 -412t-421 -158q-263 0 -421.5 158.5t-158.5 413.5q0 254 160.5 413.5t417.5 159.5zM639 860q-117 0 -181.5 -86.5t-64.5 -234.5q0 -152 63.5 -236t184.5 -84t183.5 83.5t62.5 234.5q0 150 -64 236.5t-184 86.5z
M477 1464h326l217 -243h-281l-96 104l-98 -104h-281z" />
    <glyph glyph-name="otilde" unicode="&#xf5;" horiz-adv-x="1286" 
d="M641 1112q260 0 421 -159.5t161 -415.5q0 -254 -159 -412t-421 -158q-263 0 -421.5 158.5t-158.5 413.5q0 254 160.5 413.5t417.5 159.5zM639 860q-117 0 -181.5 -86.5t-64.5 -234.5q0 -152 63.5 -236t184.5 -84t183.5 83.5t62.5 234.5q0 150 -64 236.5t-184 86.5z
M625 1247q-73 37 -97 37q-51 0 -57 -63h-172q0 104 57 176.5t158 72.5q59 0 141 -40q71 -35 99 -35t39.5 15t17.5 54h166q0 -110 -54 -184t-149 -74q-65 0 -149 41z" />
    <glyph glyph-name="odieresis" unicode="&#xf6;" horiz-adv-x="1286" 
d="M641 1112q260 0 421 -159.5t161 -415.5q0 -254 -159 -412t-421 -158q-263 0 -421.5 158.5t-158.5 413.5q0 254 160.5 413.5t417.5 159.5zM639 860q-117 0 -181.5 -86.5t-64.5 -234.5q0 -152 63.5 -236t184.5 -84t183.5 83.5t62.5 234.5q0 150 -64 236.5t-184 86.5z
M311 1221v243h254v-243h-254zM713 1221v243h252v-243h-252z" />
    <glyph glyph-name="divide" unicode="&#xf7;" 
d="M109 520v275h1019v-275h-1019zM463 115v299h311v-299h-311zM463 901v299h311v-299h-311z" />
    <glyph glyph-name="oslash" unicode="&#xf8;" horiz-adv-x="1286" 
d="M641 1112q70 0 145 -16l70 123l252 -127l-70 -119q185 -164 185 -436q0 -254 -159 -412t-421 -158q-85 0 -166 19l-65 -115l-250 129l67 117q-166 163 -166 422q0 254 160.5 413.5t417.5 159.5zM887 537q0 83 -21 147l-266 -463q14 -2 41 -2q121 0 183.5 83.5t62.5 234.5
zM639 860q-117 0 -181.5 -86.5t-64.5 -234.5q0 -75 15 -131l256 450q-6 2 -25 2z" />
    <glyph glyph-name="ugrave" unicode="&#xf9;" horiz-adv-x="1253" 
d="M807 1075h319v-911q0 -109 2 -164h-305v147q-38 -76 -118.5 -125t-204.5 -49q-109 0 -191.5 44.5t-130.5 127.5q-39 66 -50 146t-11 233v551h319v-520q0 -172 36.5 -252t135.5 -80q103 0 151 75.5t48 225.5v551zM836 1221h-344l-289 243h420z" />
    <glyph glyph-name="uacute" unicode="&#xfa;" horiz-adv-x="1253" 
d="M807 1075h319v-911q0 -109 2 -164h-305v147q-38 -76 -118.5 -125t-204.5 -49q-109 0 -191.5 44.5t-130.5 127.5q-39 66 -50 146t-11 233v551h319v-520q0 -172 36.5 -252t135.5 -80q103 0 151 75.5t48 225.5v551zM727 1221h-344l213 243h420z" />
    <glyph glyph-name="ucircumflex" unicode="&#xfb;" horiz-adv-x="1253" 
d="M807 1075h319v-911q0 -109 2 -164h-305v147q-38 -76 -118.5 -125t-204.5 -49q-109 0 -191.5 44.5t-130.5 127.5q-39 66 -50 146t-11 233v551h319v-520q0 -172 36.5 -252t135.5 -80q103 0 151 75.5t48 225.5v551zM459 1464h325l217 -243h-280l-96 104l-99 -104h-280z" />
    <glyph glyph-name="udieresis" unicode="&#xfc;" horiz-adv-x="1253" 
d="M807 1075h319v-911q0 -109 2 -164h-305v147q-38 -76 -118.5 -125t-204.5 -49q-109 0 -191.5 44.5t-130.5 127.5q-39 66 -50 146t-11 233v551h319v-520q0 -172 36.5 -252t135.5 -80q103 0 151 75.5t48 225.5v551zM305 1221v243h254v-243h-254zM707 1221v243h251v-243h-251
z" />
    <glyph glyph-name="yacute" unicode="&#xfd;" horiz-adv-x="1126" 
d="M606 -369h-327l53 164q17 49 41.5 126.5t29.5 92.5q-20 54 -173 454t-226 607h340q36 -116 84 -268.5t80 -257t59 -199.5h11q14 61 41 161t48 174.5t61 211t52 178.5h330q-54 -145 -151 -423.5t-206.5 -597t-146.5 -423.5zM692 1221h-344l213 243h420z" />
    <glyph glyph-name="thorn" unicode="&#xfe;" horiz-adv-x="1312" 
d="M444 967q46 55 130 97t200 42q212 0 341.5 -149.5t129.5 -409.5q0 -257 -133 -415.5t-352 -158.5q-211 0 -316 138q2 -63 2 -230v-250h-319v1833h319v-250q0 -78 -1 -160.5t-1 -86.5zM666 862q-109 0 -174.5 -85.5t-65.5 -227.5q0 -150 63 -239t177 -89q113 0 177 90
t64 232q0 143 -64 231t-177 88z" />
    <glyph glyph-name="ydieresis" unicode="&#xff;" horiz-adv-x="1126" 
d="M606 -369h-327l53 164q17 49 41.5 126.5t29.5 92.5q-20 54 -173 454t-226 607h340q36 -116 84 -268.5t80 -257t59 -199.5h11q14 61 41 161t48 174.5t61 211t52 178.5h330q-54 -145 -151 -423.5t-206.5 -597t-146.5 -423.5zM254 1221v243h254v-243h-254zM655 1221v243h252
v-243h-252z" />
    <glyph glyph-name="Amacron" unicode="&#x100;" horiz-adv-x="1474" 
d="M326 0h-346q330 881 561 1464h403q246 -663 547 -1464h-352q-15 42 -60 159.5t-69 186.5h-553zM547 612h371q-31 97 -93.5 286t-91.5 288h-4q-23 -82 -50.5 -170t-72.5 -225t-59 -179zM453 1567v190h559v-190h-559z" />
    <glyph glyph-name="amacron" unicode="&#x101;" horiz-adv-x="1177" 
d="M1085 0h-288q-9 61 -6 121q-32 -32 -57.5 -52t-67 -43t-97 -34.5t-125.5 -11.5q-175 0 -282 84.5t-107 234.5q0 64 24 117t68.5 90.5t100 65.5t127.5 47t141.5 30.5t151.5 18.5q11 1 46 3.5t48 2.5q0 112 -40.5 165.5t-131.5 53.5q-162 0 -178 -154h-308
q12 170 139.5 269.5t346.5 99.5q121 0 206 -24t146.5 -79t91 -149t29.5 -231v-328q0 -219 22 -297zM760 440q0 23 2 37l-55 -6q-182 -21 -254 -55.5t-72 -106.5q0 -59 44.5 -92t117.5 -33q217 0 217 256zM311 1241v191h559v-191h-559z" />
    <glyph glyph-name="Abreve" unicode="&#x102;" horiz-adv-x="1474" 
d="M326 0h-346q330 881 561 1464h403q246 -663 547 -1464h-352q-15 42 -60 159.5t-69 186.5h-553zM547 612h371q-31 97 -93.5 286t-91.5 288h-4q-23 -82 -50.5 -170t-72.5 -225t-59 -179zM733 1526q-128 0 -207 70t-96 198h195q8 -39 35.5 -61.5t72.5 -22.5q84 0 109 84h192
q-17 -128 -95 -198t-206 -70z" />
    <glyph glyph-name="abreve" unicode="&#x103;" horiz-adv-x="1177" 
d="M1085 0h-288q-9 61 -6 121q-32 -32 -57.5 -52t-67 -43t-97 -34.5t-125.5 -11.5q-175 0 -282 84.5t-107 234.5q0 64 24 117t68.5 90.5t100 65.5t127.5 47t141.5 30.5t151.5 18.5q11 1 46 3.5t48 2.5q0 112 -40.5 165.5t-131.5 53.5q-162 0 -178 -154h-308
q12 170 139.5 269.5t346.5 99.5q121 0 206 -24t146.5 -79t91 -149t29.5 -231v-328q0 -219 22 -297zM760 440q0 23 2 37l-55 -6q-182 -21 -254 -55.5t-72 -106.5q0 -59 44.5 -92t117.5 -33q217 0 217 256zM592 1196q-128 0 -207 70t-96 198h194q8 -38 35.5 -61t73.5 -23
q83 0 108 84h193q-17 -128 -95 -198t-206 -70z" />
    <glyph glyph-name="Aogonek" unicode="&#x104;" horiz-adv-x="1474" 
d="M326 0h-346q330 881 561 1464h403q246 -663 547 -1464h-352q-15 42 -60 159.5t-69 186.5h-553zM547 612h371q-31 97 -93.5 286t-91.5 288h-4q-23 -82 -50.5 -170t-72.5 -225t-59 -179zM1427 -100l191 -234h-334l-156 234h299z" />
    <glyph glyph-name="aogonek" unicode="&#x105;" horiz-adv-x="1177" 
d="M1085 0h-288q-9 61 -6 121q-32 -32 -57.5 -52t-67 -43t-97 -34.5t-125.5 -11.5q-175 0 -282 84.5t-107 234.5q0 64 24 117t68.5 90.5t100 65.5t127.5 47t141.5 30.5t151.5 18.5q11 1 46 3.5t48 2.5q0 112 -40.5 165.5t-131.5 53.5q-162 0 -178 -154h-308
q12 170 139.5 269.5t346.5 99.5q121 0 206 -24t146.5 -79t91 -149t29.5 -231v-328q0 -219 22 -297zM760 440q0 23 2 37l-55 -6q-182 -21 -254 -55.5t-72 -106.5q0 -59 44.5 -92t117.5 -33q217 0 217 256zM1073 -100l191 -234h-334l-156 234h299z" />
    <glyph glyph-name="Cacute" unicode="&#x106;" horiz-adv-x="1562" 
d="M1141 459h375q-72 -233 -254 -359.5t-449 -126.5q-336 0 -538.5 203.5t-202.5 554.5q0 229 94 402t262.5 265.5t388.5 92.5q266 0 449.5 -132.5t253.5 -369.5l-367 -2q-100 223 -338 223q-184 0 -288.5 -129.5t-104.5 -351.5q0 -215 105 -341t288 -126q220 0 326 197z
M963 1559h-332l213 235h403z" />
    <glyph glyph-name="cacute" unicode="&#x107;" horiz-adv-x="1216" 
d="M852 383h313q-38 -190 -177.5 -303t-356.5 -113q-257 0 -412.5 158.5t-155.5 411.5t158 413t412 160q217 0 355 -108t175 -308h-321q-49 164 -205 164q-113 0 -178.5 -85.5t-65.5 -233.5q0 -156 66 -237t186 -81q74 0 131 40t76 122zM745 1221h-344l213 243h420z" />
    <glyph glyph-name="Ccircumflex" unicode="&#x108;" horiz-adv-x="1562" 
d="M1141 459h375q-72 -233 -254 -359.5t-449 -126.5q-336 0 -538.5 203.5t-202.5 554.5q0 229 94 402t262.5 265.5t388.5 92.5q266 0 449.5 -132.5t253.5 -369.5l-367 -2q-100 223 -338 223q-184 0 -288.5 -129.5t-104.5 -351.5q0 -215 105 -341t288 -126q220 0 326 197z
M651 1794h328l217 -235h-281l-96 104l-98 -104h-281z" />
    <glyph glyph-name="ccircumflex" unicode="&#x109;" horiz-adv-x="1216" 
d="M852 383h313q-38 -190 -177.5 -303t-356.5 -113q-257 0 -412.5 158.5t-155.5 411.5t158 413t412 160q217 0 355 -108t175 -308h-321q-49 164 -205 164q-113 0 -178.5 -85.5t-65.5 -233.5q0 -156 66 -237t186 -81q74 0 131 40t76 122zM475 1464h326l217 -243h-281l-96 104
l-98 -104h-281z" />
    <glyph glyph-name="Cdotaccent" unicode="&#x10a;" horiz-adv-x="1562" 
d="M1141 459h375q-72 -233 -254 -359.5t-449 -126.5q-336 0 -538.5 203.5t-202.5 554.5q0 229 94 402t262.5 265.5t388.5 92.5q266 0 449.5 -132.5t253.5 -369.5l-367 -2q-100 223 -338 223q-184 0 -288.5 -129.5t-104.5 -351.5q0 -215 105 -341t288 -126q220 0 326 197z
M694 1559v235h250v-235h-250z" />
    <glyph glyph-name="cdotaccent" unicode="&#x10b;" horiz-adv-x="1216" 
d="M852 383h313q-38 -190 -177.5 -303t-356.5 -113q-257 0 -412.5 158.5t-155.5 411.5t158 413t412 160q217 0 355 -108t175 -308h-321q-49 164 -205 164q-113 0 -178.5 -85.5t-65.5 -233.5q0 -156 66 -237t186 -81q74 0 131 40t76 122zM514 1221v243h254v-243h-254z" />
    <glyph glyph-name="Ccaron" unicode="&#x10c;" horiz-adv-x="1562" 
d="M1141 459h375q-72 -233 -254 -359.5t-449 -126.5q-336 0 -538.5 203.5t-202.5 554.5q0 229 94 402t262.5 265.5t388.5 92.5q266 0 449.5 -132.5t253.5 -369.5l-367 -2q-100 223 -338 223q-184 0 -288.5 -129.5t-104.5 -351.5q0 -215 105 -341t288 -126q220 0 326 197z
M989 1559h-327l-211 235h280l98 -104l97 104h280z" />
    <glyph glyph-name="ccaron" unicode="&#x10d;" horiz-adv-x="1216" 
d="M852 383h313q-38 -190 -177.5 -303t-356.5 -113q-257 0 -412.5 158.5t-155.5 411.5t158 413t412 160q217 0 355 -108t175 -308h-321q-49 164 -205 164q-113 0 -178.5 -85.5t-65.5 -233.5q0 -156 66 -237t186 -81q74 0 131 40t76 122zM801 1221h-326l-213 243h281l98 -104
l96 104h281z" />
    <glyph glyph-name="Dcaron" unicode="&#x10e;" horiz-adv-x="1513" 
d="M152 0v1464h364q139 0 211 -2q330 -12 521.5 -202.5t191.5 -522.5q0 -126 -36 -248t-104 -219.5t-157 -146.5q-112 -79 -252.5 -101t-378.5 -22h-360zM487 1182v-897h115q137 0 219 26q264 78 264 424q0 336 -264 420q-79 27 -198 27h-136zM866 1559h-327l-211 235h280
l99 -104l96 104h280z" />
    <glyph glyph-name="dcaron" unicode="&#x10f;" horiz-adv-x="1546" 
d="M1186 0h-301q0 108 2 143q-43 -68 -128 -119t-210 -51q-218 0 -349.5 153.5t-131.5 410.5q0 259 132.5 414t344.5 155q203 0 323 -143q0 26 -1 109.5t-1 109.5v282h320v-1464zM647 862q-113 0 -177 -88t-64 -231q0 -142 64 -232t177 -90q114 0 177 89t63 239
q0 142 -65.5 227.5t-174.5 85.5zM1722 1464l-190 -522h-275l148 522h317z" />
    <glyph glyph-name="Dcroat" unicode="&#x110;" horiz-adv-x="1525" 
d="M41 602v283h123v579h364q139 0 211 -2q330 -12 521.5 -202.5t191.5 -522.5q0 -126 -36 -248t-104 -219.5t-157 -146.5q-112 -79 -252.5 -101t-378.5 -22h-360v602h-123zM500 1182v-297h217v-283h-217v-317h114q138 0 220 26q264 78 264 424q0 336 -264 420
q-80 27 -199 27h-135z" />
    <glyph glyph-name="dcroat" unicode="&#x111;" horiz-adv-x="1312" 
d="M762 1153v221h104v90h320v-90h96v-221h-96v-1153h-301q0 108 2 143q-43 -68 -128 -119t-210 -51q-218 0 -349.5 153.5t-131.5 410.5q0 259 132.5 414t344.5 155q203 0 323 -143q0 22 -1 90.5t-1 99.5h-104zM647 862q-113 0 -177 -88t-64 -231q0 -142 64 -232t177 -90
q114 0 177 89t63 239q0 142 -65.5 227.5t-174.5 85.5z" />
    <glyph glyph-name="Emacron" unicode="&#x112;" horiz-adv-x="1210" 
d="M483 598v-311h639v-287h-970v1464h962v-286h-631v-297h580v-283h-580zM356 1567v190h559v-190h-559z" />
    <glyph glyph-name="emacron" unicode="&#x113;" 
d="M842 319h325q-51 -163 -190 -257.5t-350 -94.5q-257 0 -409 155t-152 419q0 252 157.5 411.5t409.5 159.5q175 0 300.5 -76t188 -209.5t62.5 -310.5q0 -5 -1 -17.5t-1 -17.5v-18h-799q10 -120 78.5 -188t175.5 -68q148 0 205 112zM391 662h471q-12 106 -72 164.5
t-159 58.5t-163 -59t-77 -164zM356 1241v191h559v-191h-559z" />
    <glyph glyph-name="Ebreve" unicode="&#x114;" horiz-adv-x="1210" 
d="M483 598v-311h639v-287h-970v1464h962v-286h-631v-297h580v-283h-580zM641 1526q-128 0 -207 70t-96 198h194q8 -38 35.5 -61t73.5 -23q84 0 109 84h192q-17 -128 -95 -198t-206 -70z" />
    <glyph glyph-name="ebreve" unicode="&#x115;" 
d="M842 319h325q-51 -163 -190 -257.5t-350 -94.5q-257 0 -409 155t-152 419q0 252 157.5 411.5t409.5 159.5q175 0 300.5 -76t188 -209.5t62.5 -310.5q0 -5 -1 -17.5t-1 -17.5v-18h-799q10 -120 78.5 -188t175.5 -68q148 0 205 112zM391 662h471q-12 106 -72 164.5
t-159 58.5t-163 -59t-77 -164zM641 1196q-128 0 -207 70t-96 198h194q8 -38 35.5 -61t73.5 -23q84 0 109 84h192q-17 -128 -95 -198t-206 -70z" />
    <glyph glyph-name="Edotaccent" unicode="&#x116;" horiz-adv-x="1210" 
d="M483 598v-311h639v-287h-970v1464h962v-286h-631v-297h580v-283h-580zM522 1559v235h250v-235h-250z" />
    <glyph glyph-name="edotaccent" unicode="&#x117;" 
d="M842 319h325q-51 -163 -190 -257.5t-350 -94.5q-257 0 -409 155t-152 419q0 252 157.5 411.5t409.5 159.5q175 0 300.5 -76t188 -209.5t62.5 -310.5q0 -5 -1 -17.5t-1 -17.5v-18h-799q10 -120 78.5 -188t175.5 -68q148 0 205 112zM391 662h471q-12 106 -72 164.5
t-159 58.5t-163 -59t-77 -164zM506 1221v243h254v-243h-254z" />
    <glyph glyph-name="Eogonek" unicode="&#x118;" horiz-adv-x="1210" 
d="M483 598v-311h639v-287h-970v1464h962v-286h-631v-297h580v-283h-580zM766 -100l190 -234h-333l-156 234h299z" />
    <glyph glyph-name="eogonek" unicode="&#x119;" 
d="M842 319h325q-51 -163 -190 -257.5t-350 -94.5q-257 0 -409 155t-152 419q0 252 157.5 411.5t409.5 159.5q175 0 300.5 -76t188 -209.5t62.5 -310.5q0 -5 -1 -17.5t-1 -17.5v-18h-799q10 -120 78.5 -188t175.5 -68q148 0 205 112zM391 662h471q-12 106 -72 164.5
t-159 58.5t-163 -59t-77 -164zM733 -100l191 -234h-334l-156 234h299z" />
    <glyph glyph-name="Ecaron" unicode="&#x11a;" horiz-adv-x="1210" 
d="M483 598v-311h639v-287h-970v1464h962v-286h-631v-297h580v-283h-580zM803 1559h-328l-211 235h281l98 -104l96 104h281z" />
    <glyph glyph-name="ecaron" unicode="&#x11b;" 
d="M842 319h325q-51 -163 -190 -257.5t-350 -94.5q-257 0 -409 155t-152 419q0 252 157.5 411.5t409.5 159.5q175 0 300.5 -76t188 -209.5t62.5 -310.5q0 -5 -1 -17.5t-1 -17.5v-18h-799q10 -120 78.5 -188t175.5 -68q148 0 205 112zM391 662h471q-12 106 -72 164.5
t-159 58.5t-163 -59t-77 -164zM795 1221h-326l-213 243h281l98 -104l96 104h281z" />
    <glyph glyph-name="Gcircumflex" unicode="&#x11c;" horiz-adv-x="1619" 
d="M823 1491q266 0 446.5 -132.5t250.5 -369.5l-367 -2q-100 223 -336 223q-183 0 -289 -130t-106 -343q0 -220 107 -350.5t296 -130.5q157 0 246.5 77.5t116.5 203.5q-66 -2 -189 -2h-262v272h783v-807h-314v78q0 18 1 45t1 37h-2q-66 -83 -183 -135t-269 -52
q-199 0 -354 95t-241.5 268t-86.5 397q0 341 205 549.5t546 208.5zM659 1794h328l217 -235h-280l-97 104l-98 -104h-280z" />
    <glyph glyph-name="gcircumflex" unicode="&#x11d;" horiz-adv-x="1316" 
d="M94 -39h336q30 -67 79 -99t126 -32q142 0 200.5 93t53.5 286h-4q-44 -72 -132.5 -118t-207.5 -46q-215 0 -345 145t-130 383q0 235 135.5 384t343.5 149q123 0 208.5 -47t127.5 -119q-4 29 -4 135h309v-907q0 -280 -145.5 -424.5t-421.5 -144.5q-227 0 -361.5 96.5
t-167.5 265.5zM649 862q-111 0 -176 -80t-65 -211q0 -126 64 -204t177 -78q107 0 173.5 78t66.5 215q0 124 -65.5 202t-174.5 78zM506 1464h325l218 -243h-281l-96 104l-99 -104h-280z" />
    <glyph glyph-name="Gbreve" unicode="&#x11e;" horiz-adv-x="1619" 
d="M823 1491q266 0 446.5 -132.5t250.5 -369.5l-367 -2q-100 223 -336 223q-183 0 -289 -130t-106 -343q0 -220 107 -350.5t296 -130.5q157 0 246.5 77.5t116.5 203.5q-66 -2 -189 -2h-262v272h783v-807h-314v78q0 18 1 45t1 37h-2q-66 -83 -183 -135t-269 -52
q-199 0 -354 95t-241.5 268t-86.5 397q0 341 205 549.5t546 208.5zM831 1526q-128 0 -207 70t-96 198h195q8 -39 35.5 -61.5t72.5 -22.5q84 0 109 84h193q-17 -128 -95.5 -198t-206.5 -70z" />
    <glyph glyph-name="gbreve" unicode="&#x11f;" horiz-adv-x="1316" 
d="M94 -39h336q30 -67 79 -99t126 -32q142 0 200.5 93t53.5 286h-4q-44 -72 -132.5 -118t-207.5 -46q-215 0 -345 145t-130 383q0 235 135.5 384t343.5 149q123 0 208.5 -47t127.5 -119q-4 29 -4 135h309v-907q0 -280 -145.5 -424.5t-421.5 -144.5q-227 0 -361.5 96.5
t-167.5 265.5zM649 862q-111 0 -176 -80t-65 -211q0 -126 64 -204t177 -78q107 0 173.5 78t66.5 215q0 124 -65.5 202t-174.5 78zM662 1196q-129 0 -208 70t-96 198h195q8 -38 35.5 -61t73.5 -23q83 0 108 84h193q-17 -128 -95 -198t-206 -70z" />
    <glyph glyph-name="Gdotaccent" unicode="&#x120;" horiz-adv-x="1619" 
d="M823 1491q266 0 446.5 -132.5t250.5 -369.5l-367 -2q-100 223 -336 223q-183 0 -289 -130t-106 -343q0 -220 107 -350.5t296 -130.5q157 0 246.5 77.5t116.5 203.5q-66 -2 -189 -2h-262v272h783v-807h-314v78q0 18 1 45t1 37h-2q-66 -83 -183 -135t-269 -52
q-199 0 -354 95t-241.5 268t-86.5 397q0 341 205 549.5t546 208.5zM696 1559v235h250v-235h-250z" />
    <glyph glyph-name="gdotaccent" unicode="&#x121;" horiz-adv-x="1316" 
d="M94 -39h336q30 -67 79 -99t126 -32q142 0 200.5 93t53.5 286h-4q-44 -72 -132.5 -118t-207.5 -46q-215 0 -345 145t-130 383q0 235 135.5 384t343.5 149q123 0 208.5 -47t127.5 -119q-4 29 -4 135h309v-907q0 -280 -145.5 -424.5t-421.5 -144.5q-227 0 -361.5 96.5
t-167.5 265.5zM649 862q-111 0 -176 -80t-65 -211q0 -126 64 -204t177 -78q107 0 173.5 78t66.5 215q0 124 -65.5 202t-174.5 78zM528 1221v243h254v-243h-254z" />
    <glyph glyph-name="Gcommaaccent" unicode="&#x122;" horiz-adv-x="1619" 
d="M823 1491q266 0 446.5 -132.5t250.5 -369.5l-367 -2q-100 223 -336 223q-183 0 -289 -130t-106 -343q0 -220 107 -350.5t296 -130.5q157 0 246.5 77.5t116.5 203.5q-66 -2 -189 -2h-262v272h783v-807h-314v78q0 18 1 45t1 37h-2q-66 -83 -183 -135t-269 -52
q-199 0 -354 95t-241.5 268t-86.5 397q0 341 205 549.5t546 208.5zM561 -334l191 234h299l-156 -234h-334z" />
    <glyph glyph-name="gcommaaccent" unicode="&#x123;" horiz-adv-x="1316" 
d="M94 -39h336q30 -67 79 -99t126 -32q142 0 200.5 93t53.5 286h-4q-44 -72 -132.5 -118t-207.5 -46q-215 0 -345 145t-130 383q0 235 135.5 384t343.5 149q123 0 208.5 -47t127.5 -119q-4 29 -4 135h309v-907q0 -280 -145.5 -424.5t-421.5 -144.5q-227 0 -361.5 96.5
t-167.5 265.5zM649 862q-111 0 -176 -80t-65 -211q0 -126 64 -204t177 -78q107 0 173.5 78t66.5 215q0 124 -65.5 202t-174.5 78zM971 1464l-191 -233h-299l156 233h334z" />
    <glyph glyph-name="Hcircumflex" unicode="&#x124;" horiz-adv-x="1507" 
d="M487 0h-335v1464h335v-565h533v565h336v-1464h-336v610h-533v-610zM582 1794h327l217 -235h-280l-96 104l-99 -104h-280z" />
    <glyph glyph-name="hcircumflex" unicode="&#x125;" horiz-adv-x="1261" 
d="M446 0h-319v1464h319v-229q0 -193 -2 -283q42 66 122.5 108t195.5 42q109 0 191 -44.5t130 -127.5q39 -66 50.5 -147t11.5 -232v-551h-320v520q0 171 -38 251.5t-138 80.5q-203 0 -203 -301v-551zM125 1794h328l217 -235h-281l-96 104l-98 -104h-281z" />
    <glyph glyph-name="Hbar" unicode="&#x126;" horiz-adv-x="1507" 
d="M487 0h-335v1464h335v-139h533v139h336v-1464h-336v610h-533v-610zM487 899h533v137h-533v-137z" />
    <glyph glyph-name="hbar" unicode="&#x127;" horiz-adv-x="1261" 
d="M31 1153v221h96v90h319v-90h105v-221h-105q0 -35 -1 -102.5t-1 -98.5q42 66 122.5 108t195.5 42q109 0 191 -44.5t130 -127.5q39 -66 50.5 -147t11.5 -232v-551h-320v520q0 171 -38 251.5t-138 80.5q-203 0 -203 -301v-551h-319v1153h-96z" />
    <glyph glyph-name="Itilde" unicode="&#x128;" horiz-adv-x="638" 
d="M489 0h-335v1464h335v-1464zM311 1591q-32 17 -43 22t-26 10t-27 5q-51 0 -57 -63h-172q0 104 57 177t158 73q27 0 53 -6.5t42 -13t46 -21.5q71 -35 98 -35q28 0 40 15t18 54h166q0 -110 -54 -184t-149 -74q-66 0 -150 41z" />
    <glyph glyph-name="itilde" unicode="&#x129;" horiz-adv-x="573" 
d="M449 0h-320v1075h320v-1075zM279 1247q-73 37 -97 37q-51 0 -57 -63h-172q0 104 57 176.5t158 72.5q59 0 141 -40q71 -35 99 -35t39.5 15t17.5 54h166q0 -110 -54 -184t-149 -74q-65 0 -149 41z" />
    <glyph glyph-name="Imacron" unicode="&#x12a;" horiz-adv-x="638" 
d="M487 0h-335v1464h335v-1464zM45 1567v190h559v-190h-559z" />
    <glyph glyph-name="imacron" unicode="&#x12b;" horiz-adv-x="573" 
d="M446 0h-319v1075h319v-1075zM-12 1241v191h559v-191h-559z" />
    <glyph glyph-name="Ibreve" unicode="&#x12c;" horiz-adv-x="638" 
d="M487 0h-335v1464h335v-1464zM326 1526q-128 0 -207 70t-96 198h194q8 -38 35.5 -61t73.5 -23q83 0 108 84h193q-17 -128 -95 -198t-206 -70z" />
    <glyph glyph-name="ibreve" unicode="&#x12d;" horiz-adv-x="573" 
d="M446 0h-319v1075h319v-1075zM291 1196q-128 0 -207 70t-96 198h194q8 -38 35.5 -61t73.5 -23q83 0 108 84h193q-17 -128 -95 -198t-206 -70z" />
    <glyph glyph-name="Iogonek" unicode="&#x12e;" horiz-adv-x="638" 
d="M487 0h-335v1464h335v-1464zM463 -100l190 -234h-334l-155 234h299z" />
    <glyph glyph-name="iogonek" unicode="&#x12f;" horiz-adv-x="573" 
d="M127 1202v262h319v-262h-319zM446 0h-319v1075h319v-1075zM428 -100l190 -234h-333l-156 234h299z" />
    <glyph glyph-name="Idotaccent" unicode="&#x130;" horiz-adv-x="638" 
d="M487 0h-335v1464h335v-1464zM197 1559v235h249v-235h-249z" />
    <glyph glyph-name="dotlessi" unicode="&#x131;" horiz-adv-x="573" 
d="M446 0h-319v1075h319v-1075z" />
    <glyph glyph-name="IJ" unicode="&#x132;" horiz-adv-x="1740" 
d="M487 0h-335v1464h335v-1464zM1133 -31q-232 0 -346.5 110t-114.5 312h327q5 -59 32 -94t93 -35q86 0 113 64.5t27 224.5v913h338v-917q0 -144 -24 -247.5t-77.5 -179.5t-145 -113.5t-222.5 -37.5z" />
    <glyph glyph-name="ij" unicode="&#x133;" horiz-adv-x="1146" 
d="M127 1202v262h319v-262h-319zM446 0h-319v1075h319v-1075zM1020 1075v-1073q0 -218 -82 -306.5t-293 -88.5q-79 0 -143 12v221q16 -2 35 -2q90 0 126.5 40t36.5 130v1067h320zM700 1202v262h320v-262h-320z" />
    <glyph glyph-name="Jcircumflex" unicode="&#x134;" horiz-adv-x="1101" 
d="M494 -31q-232 0 -346.5 110t-114.5 312h327q5 -59 32 -94t93 -35q86 0 113 64.5t27 224.5v913h338v-917q0 -144 -24 -247.5t-77.5 -179.5t-145 -113.5t-222.5 -37.5zM625 1794h327l217 -235h-280l-96 104l-99 -104h-280z" />
    <glyph glyph-name="jcircumflex" unicode="&#x135;" horiz-adv-x="573" 
d="M446 1075v-1073q0 -218 -81.5 -306.5t-292.5 -88.5q-79 0 -144 12v221q16 -2 35 -2q90 0 127 40t37 130v1067h319zM125 1464h326l217 -243h-281l-96 104l-98 -104h-281z" />
    <glyph glyph-name="Kcommaaccent" unicode="&#x136;" horiz-adv-x="1357" 
d="M487 0h-335v1464h335v-649h5q49 77 110.5 166.5t106 150.5t124 170t117.5 162h404q-97 -124 -279 -351t-262 -329l576 -784h-414q-390 575 -483 727h-5v-727zM455 -334l190 234h299l-156 -234h-333z" />
    <glyph glyph-name="kcommaaccent" unicode="&#x137;" horiz-adv-x="1191" 
d="M446 0h-319v1464h319v-866h3q24 34 93.5 135.5t146 215t85.5 126.5h385q-326 -392 -401 -493q59 -86 191 -258t255 -324h-405q-48 77 -134.5 201.5t-146 212t-69.5 114.5h-3v-528zM336 -334l190 234h299l-155 -234h-334z" />
    <glyph glyph-name="kgreenlandic" unicode="&#x138;" horiz-adv-x="1191" 
d="M127 1075h319v-477h3q24 34 93.5 135.5t146 215t85.5 126.5h385q-326 -392 -401 -493q59 -86 191 -258t255 -324h-405q-48 77 -134.5 201.5t-146 212t-69.5 114.5h-3v-528h-319v1075z" />
    <glyph glyph-name="Lacute" unicode="&#x139;" horiz-adv-x="1144" 
d="M152 1464h335v-1175h615v-289h-950v1464zM504 1559h-332l213 235h403z" />
    <glyph glyph-name="lacute" unicode="&#x13a;" horiz-adv-x="585" 
d="M453 0h-320v1464h320v-1464zM461 1559h-332l213 235h403z" />
    <glyph glyph-name="Lcommaaccent" unicode="&#x13b;" horiz-adv-x="1144" 
d="M152 1464h335v-1175h615v-289h-950v1464zM352 -334l191 234h299l-156 -234h-334z" />
    <glyph glyph-name="lcommaaccent" unicode="&#x13c;" horiz-adv-x="585" 
d="M453 0h-320v1464h320v-1464zM-8 -334l190 234h299l-155 -234h-334z" />
    <glyph glyph-name="Lcaron" unicode="&#x13d;" horiz-adv-x="1148" 
d="M152 1464h335v-1175h615v-289h-950v1464zM1081 1464l-190 -522h-275l148 522h317z" />
    <glyph glyph-name="lcaron" unicode="&#x13e;" horiz-adv-x="808" 
d="M453 0h-320v1464h320v-1464zM985 1464l-190 -522h-275l148 522h317z" />
    <glyph glyph-name="Ldot" unicode="&#x13f;" horiz-adv-x="1146" 
d="M152 1464h335v-1175h615v-289h-950v1464zM651 659v340h334v-340h-334z" />
    <glyph glyph-name="ldot" unicode="&#x140;" horiz-adv-x="903" 
d="M453 0h-320v1464h320v-1464zM578 483v340h333v-340h-333z" />
    <glyph glyph-name="Lslash" unicode="&#x141;" horiz-adv-x="1169" 
d="M176 1464h336v-463l215 140v-275l-215 -139v-438h614v-289h-950v508l-156 -100v274l156 100v682z" />
    <glyph glyph-name="lslash" unicode="&#x142;" horiz-adv-x="665" 
d="M481 0h-319v565l-127 -82v275l127 82v624h319v-417l137 90v-275l-137 -90v-772z" />
    <glyph glyph-name="Nacute" unicode="&#x143;" horiz-adv-x="1570" 
d="M1419 1464v-1464h-428l-317 614q-178 352 -215 449h-2q4 -79 4 -465v-598h-309v1464h434l372 -733q33 -66 63 -130.5t57.5 -127.5t35.5 -80h2q-6 123 -6 424v647h309zM897 1559h-332l213 235h404z" />
    <glyph glyph-name="nacute" unicode="&#x144;" horiz-adv-x="1261" 
d="M446 0h-319v911q0 109 -2 164h305v-147q37 75 122 124.5t210 49.5q109 0 191 -44.5t130 -127.5q39 -66 50.5 -147t11.5 -232v-551h-320v520q0 171 -38 251.5t-138 80.5q-203 0 -203 -301v-551zM795 1221h-344l213 243h419z" />
    <glyph glyph-name="Ncommaaccent" unicode="&#x145;" horiz-adv-x="1570" 
d="M1419 1464v-1464h-428l-317 614q-178 352 -215 449h-2q4 -79 4 -465v-598h-309v1464h434l372 -733q33 -66 63 -130.5t57.5 -127.5t35.5 -80h2q-6 123 -6 424v647h309zM479 -334l191 234h299l-156 -234h-334z" />
    <glyph glyph-name="ncommaaccent" unicode="&#x146;" horiz-adv-x="1261" 
d="M446 0h-319v911q0 109 -2 164h305v-147q37 75 122 124.5t210 49.5q109 0 191 -44.5t130 -127.5q39 -66 50.5 -147t11.5 -232v-551h-320v520q0 171 -38 251.5t-138 80.5q-203 0 -203 -301v-551zM336 -334l190 234h299l-155 -234h-334z" />
    <glyph glyph-name="Ncaron" unicode="&#x147;" horiz-adv-x="1570" 
d="M1419 1464v-1464h-428l-317 614q-178 352 -215 449h-2q4 -79 4 -465v-598h-309v1464h434l372 -733q33 -66 63 -130.5t57.5 -127.5t35.5 -80h2q-6 123 -6 424v647h309zM967 1559h-328l-211 235h281l98 -104l96 104h281z" />
    <glyph glyph-name="ncaron" unicode="&#x148;" horiz-adv-x="1261" 
d="M446 0h-319v911q0 109 -2 164h305v-147q37 75 122 124.5t210 49.5q109 0 191 -44.5t130 -127.5q39 -66 50.5 -147t11.5 -232v-551h-320v520q0 171 -38 251.5t-138 80.5q-203 0 -203 -301v-551zM821 1221h-325l-213 243h280l99 -104l96 104h280z" />
    <glyph glyph-name="napostrophe" unicode="&#x149;" horiz-adv-x="1519" 
d="M705 0h-320v911q0 109 -2 164h305v-147q37 75 122 124.5t210 49.5q109 0 191 -44.5t130 -127.5q39 -66 50.5 -147t11.5 -232v-551h-320v520q0 171 -38 251.5t-138 80.5q-202 0 -202 -301v-551zM440 1464l-190 -522h-275l148 522h317z" />
    <glyph glyph-name="Eng" unicode="&#x14a;" horiz-adv-x="1570" 
d="M1419 1464v-1280q0 -289 -111 -433t-368 -144q-208 0 -322.5 104.5t-128.5 288.5h326q20 -119 137 -119t135 119h-96l-317 614q-178 352 -215 449h-2q4 -79 4 -465v-598h-309v1464h434l372 -733q33 -66 63 -130.5t57.5 -127.5t35.5 -80h2q-6 123 -6 424v647h309z" />
    <glyph glyph-name="eng" unicode="&#x14b;" horiz-adv-x="1261" 
d="M825 8v512q0 171 -38 251.5t-138 80.5q-203 0 -203 -301v-551h-319v911q0 109 -2 164h305v-147q37 75 122 124.5t210 49.5q109 0 191 -44.5t130 -127.5q39 -66 50.5 -147t11.5 -232v-551q0 -217 -82 -305t-293 -88q-78 0 -143 12v221q16 -2 35 -2q90 0 126.5 40t36.5 130
z" />
    <glyph glyph-name="Omacron" unicode="&#x14c;" horiz-adv-x="1632" 
d="M815 1491q220 0 389 -92.5t263 -265.5t94 -402q0 -352 -203.5 -555t-544.5 -203q-336 0 -538.5 203.5t-202.5 554.5q0 346 204.5 553t538.5 207zM815 262q182 0 286.5 126t104.5 341q0 222 -104.5 351.5t-286.5 129.5q-184 0 -288.5 -129.5t-104.5 -351.5
q0 -215 105 -341t288 -126zM541 1567v190h559v-190h-559z" />
    <glyph glyph-name="omacron" unicode="&#x14d;" horiz-adv-x="1286" 
d="M641 1112q260 0 421 -159.5t161 -415.5q0 -254 -159 -412t-421 -158q-263 0 -421.5 158.5t-158.5 413.5q0 254 160.5 413.5t417.5 159.5zM639 860q-117 0 -181.5 -86.5t-64.5 -234.5q0 -152 63.5 -236t184.5 -84t183.5 83.5t62.5 234.5q0 150 -64 236.5t-184 86.5z
M358 1241v191h560v-191h-560z" />
    <glyph glyph-name="Obreve" unicode="&#x14e;" horiz-adv-x="1632" 
d="M815 1491q220 0 389 -92.5t263 -265.5t94 -402q0 -352 -203.5 -555t-544.5 -203q-336 0 -538.5 203.5t-202.5 554.5q0 346 204.5 553t538.5 207zM815 262q182 0 286.5 126t104.5 341q0 222 -104.5 351.5t-286.5 129.5q-184 0 -288.5 -129.5t-104.5 -351.5
q0 -215 105 -341t288 -126zM815 1526q-128 0 -207 70t-96 198h195q8 -39 35.5 -61.5t72.5 -22.5q84 0 109 84h192q-17 -128 -95 -198t-206 -70z" />
    <glyph glyph-name="obreve" unicode="&#x14f;" horiz-adv-x="1286" 
d="M641 1112q260 0 421 -159.5t161 -415.5q0 -254 -159 -412t-421 -158q-263 0 -421.5 158.5t-158.5 413.5q0 254 160.5 413.5t417.5 159.5zM639 860q-117 0 -181.5 -86.5t-64.5 -234.5q0 -152 63.5 -236t184.5 -84t183.5 83.5t62.5 234.5q0 150 -64 236.5t-184 86.5z
M647 1196q-128 0 -207 70t-96 198h195q8 -39 35.5 -61.5t72.5 -22.5q84 0 109 84h192q-17 -128 -95 -198t-206 -70z" />
    <glyph glyph-name="Ohungarumlaut" unicode="&#x150;" horiz-adv-x="1632" 
d="M815 1491q220 0 389 -92.5t263 -265.5t94 -402q0 -352 -203.5 -555t-544.5 -203q-336 0 -538.5 203.5t-202.5 554.5q0 346 204.5 553t538.5 207zM815 262q182 0 286.5 126t104.5 341q0 222 -104.5 351.5t-286.5 129.5q-184 0 -288.5 -129.5t-104.5 -351.5
q0 -215 105 -341t288 -126zM680 1559h-318l216 235h389zM1190 1559h-318l215 235h390z" />
    <glyph glyph-name="ohungarumlaut" unicode="&#x151;" horiz-adv-x="1286" 
d="M641 1112q260 0 421 -159.5t161 -415.5q0 -254 -159 -412t-421 -158q-263 0 -421.5 158.5t-158.5 413.5q0 254 160.5 413.5t417.5 159.5zM639 860q-117 0 -181.5 -86.5t-64.5 -234.5q0 -152 63.5 -236t184.5 -84t183.5 83.5t62.5 234.5q0 150 -64 236.5t-184 86.5z
M506 1221h-318l220 243h389zM1016 1221h-318l220 243h389z" />
    <glyph glyph-name="OE" unicode="&#x152;" horiz-adv-x="2240" 
d="M1509 598v-311h643v-287h-966v76q-167 -105 -391 -105q-225 0 -390.5 98.5t-249 269t-83.5 390.5t87.5 392t252.5 270t383 98q229 0 391 -107v82h958v-286h-635v-297h584v-283h-584zM811 262q182 0 284.5 126t102.5 341q0 223 -102.5 352t-284.5 129q-183 0 -286 -129
t-103 -352q0 -216 103 -341.5t286 -125.5z" />
    <glyph glyph-name="oe" unicode="&#x153;" horiz-adv-x="2013" 
d="M1618 319h326q-51 -163 -188.5 -257.5t-348.5 -94.5q-232 0 -381 137q-153 -137 -385 -137q-263 0 -419 158t-156 414q0 255 157.5 414t415.5 159q233 0 391 -145q155 145 383 145q262 0 404.5 -162.5t142.5 -433.5q0 -5 -1 -17.5t-1 -17.5v-18h-791q10 -121 77 -188.5
t173 -67.5q144 0 201 112zM637 860q-117 0 -179.5 -86t-62.5 -235q0 -152 61.5 -236t182.5 -84q120 0 181 83.5t61 234.5q0 150 -62 236.5t-182 86.5zM1176 662h462q-12 107 -70 165t-157 58q-98 0 -159.5 -58.5t-75.5 -164.5z" />
    <glyph glyph-name="Racute" unicode="&#x154;" horiz-adv-x="1327" 
d="M485 528v-528h-333v1464h540q137 0 229 -19.5t166 -70.5q80 -60 123 -148.5t43 -193.5q0 -178 -91 -289t-232 -157l366 -586h-376l-310 528h-125zM485 1180v-383h189q121 0 186.5 48t65.5 144q0 101 -68.5 146t-206.5 45h-166zM748 1559h-332l213 235h403z" />
    <glyph glyph-name="racute" unicode="&#x155;" horiz-adv-x="819" 
d="M127 0v881q0 126 -2 194h297q0 -61 -2 -110t-2 -60h4q79 197 299 197q37 0 65 -4v-291q-36 8 -84 8q-50 0 -88.5 -10t-65.5 -27t-45.5 -49t-30 -66t-17 -88.5t-7.5 -106.5t-2 -130v-338h-319zM457 1221h-344l213 243h419z" />
    <glyph glyph-name="Rcommaaccent" unicode="&#x156;" horiz-adv-x="1327" 
d="M485 528v-528h-333v1464h540q137 0 229 -19.5t166 -70.5q80 -60 123 -148.5t43 -193.5q0 -178 -91 -289t-232 -157l366 -586h-376l-310 528h-125zM485 1180v-383h189q121 0 186.5 48t65.5 144q0 101 -68.5 146t-206.5 45h-166zM354 -334l191 234h299l-156 -234h-334z" />
    <glyph glyph-name="rcommaaccent" unicode="&#x157;" horiz-adv-x="819" 
d="M127 0v881q0 126 -2 194h297q0 -61 -2 -110t-2 -60h4q79 197 299 197q37 0 65 -4v-291q-36 8 -84 8q-50 0 -88.5 -10t-65.5 -27t-45.5 -49t-30 -66t-17 -88.5t-7.5 -106.5t-2 -130v-338h-319zM-10 -334l190 234h299l-155 -234h-334z" />
    <glyph glyph-name="Rcaron" unicode="&#x158;" horiz-adv-x="1327" 
d="M485 528v-528h-333v1464h540q137 0 229 -19.5t166 -70.5q80 -60 123 -148.5t43 -193.5q0 -178 -91 -289t-232 -157l366 -586h-376l-310 528h-125zM485 1180v-383h189q121 0 186.5 48t65.5 144q0 101 -68.5 146t-206.5 45h-166zM811 1559h-328l-211 235h281l98 -104
l97 104h280z" />
    <glyph glyph-name="rcaron" unicode="&#x159;" horiz-adv-x="819" 
d="M127 0v881q0 126 -2 194h297q0 -61 -2 -110t-2 -60h4q79 197 299 197q37 0 65 -4v-291q-36 8 -84 8q-50 0 -88.5 -10t-65.5 -27t-45.5 -49t-30 -66t-17 -88.5t-7.5 -106.5t-2 -130v-338h-319zM535 1221h-326l-213 243h280l99 -104l96 104h281z" />
    <glyph glyph-name="Sacute" unicode="&#x15a;" horiz-adv-x="1292" 
d="M55 444h344q30 -200 258 -200q103 0 164.5 46t61.5 124q0 70 -50.5 102t-183.5 68l-100 28q-244 70 -348.5 170.5t-104.5 270.5q0 196 152 317t401 121q245 0 390 -114.5t157 -325.5h-336q-35 174 -223 174q-91 0 -141 -40.5t-50 -107.5q1 -68 43.5 -101t139.5 -61
l112 -32q105 -29 179 -57.5t135.5 -66.5t98 -84t56 -106.5t19.5 -138.5q0 -210 -160 -333.5t-426 -123.5t-422 125t-166 346zM768 1559h-332l213 235h404z" />
    <glyph glyph-name="sacute" unicode="&#x15b;" horiz-adv-x="1146" 
d="M49 352h330q30 -157 211 -157q75 0 122.5 27t47.5 73q0 47 -39 68.5t-141 48.5l-138 37q-94 26 -156 52.5t-109 64.5t-68 89t-21 121q0 154 127 245t356 91q212 0 343.5 -88t148.5 -260h-311q-39 125 -191 125q-71 0 -110 -25t-39 -67q0 -48 44 -70t175 -55l71 -19
q215 -55 301.5 -127.5t86.5 -210.5q0 -162 -133 -255t-371 -93q-251 0 -381.5 93.5t-155.5 291.5zM682 1221h-344l213 243h420z" />
    <glyph glyph-name="Scircumflex" unicode="&#x15c;" horiz-adv-x="1292" 
d="M55 444h344q30 -200 258 -200q103 0 164.5 46t61.5 124q0 70 -50.5 102t-183.5 68l-100 28q-244 70 -348.5 170.5t-104.5 270.5q0 196 152 317t401 121q245 0 390 -114.5t157 -325.5h-336q-35 174 -223 174q-91 0 -141 -40.5t-50 -107.5q1 -68 43.5 -101t139.5 -61
l112 -32q105 -29 179 -57.5t135.5 -66.5t98 -84t56 -106.5t19.5 -138.5q0 -210 -160 -333.5t-426 -123.5t-422 125t-166 346zM485 1794h328l217 -235h-280l-97 104l-98 -104h-281z" />
    <glyph glyph-name="scircumflex" unicode="&#x15d;" horiz-adv-x="1146" 
d="M49 352h330q30 -157 211 -157q75 0 122.5 27t47.5 73q0 47 -39 68.5t-141 48.5l-138 37q-94 26 -156 52.5t-109 64.5t-68 89t-21 121q0 154 127 245t356 91q212 0 343.5 -88t148.5 -260h-311q-39 125 -191 125q-71 0 -110 -25t-39 -67q0 -48 44 -70t175 -55l71 -19
q215 -55 301.5 -127.5t86.5 -210.5q0 -162 -133 -255t-371 -93q-251 0 -381.5 93.5t-155.5 291.5zM412 1464h325l217 -243h-280l-96 104l-99 -104h-280z" />
    <glyph glyph-name="Scedilla" unicode="&#x15e;" horiz-adv-x="1292" 
d="M55 444h344q30 -200 258 -200q103 0 164.5 46t61.5 124q0 70 -50.5 102t-183.5 68l-100 28q-244 70 -348.5 170.5t-104.5 270.5q0 196 152 317t401 121q245 0 390 -114.5t157 -325.5h-336q-35 174 -223 174q-91 0 -141 -40.5t-50 -107.5q1 -68 43.5 -101t139.5 -61
l112 -32q105 -29 179 -57.5t135.5 -66.5t98 -84t56 -106.5t19.5 -138.5q0 -210 -160 -333.5t-426 -123.5t-422 125t-166 346zM330 -334l190 234h299l-155 -234h-334z" />
    <glyph glyph-name="scedilla" unicode="&#x15f;" horiz-adv-x="1146" 
d="M49 352h330q30 -157 211 -157q75 0 122.5 27t47.5 73q0 47 -39 68.5t-141 48.5l-138 37q-94 26 -156 52.5t-109 64.5t-68 89t-21 121q0 154 127 245t356 91q212 0 343.5 -88t148.5 -260h-311q-39 125 -191 125q-71 0 -110 -25t-39 -67q0 -48 44 -70t175 -55l71 -19
q215 -55 301.5 -127.5t86.5 -210.5q0 -162 -133 -255t-371 -93q-251 0 -381.5 93.5t-155.5 291.5zM268 -334l191 234h299l-156 -234h-334z" />
    <glyph glyph-name="Scaron" unicode="&#x160;" horiz-adv-x="1292" 
d="M55 444h344q30 -200 258 -200q103 0 164.5 46t61.5 124q0 70 -50.5 102t-183.5 68l-100 28q-244 70 -348.5 170.5t-104.5 270.5q0 196 152 317t401 121q245 0 390 -114.5t157 -325.5h-336q-35 174 -223 174q-91 0 -141 -40.5t-50 -107.5q1 -68 43.5 -101t139.5 -61
l112 -32q105 -29 179 -57.5t135.5 -66.5t98 -84t56 -106.5t19.5 -138.5q0 -210 -160 -333.5t-426 -123.5t-422 125t-166 346zM817 1559h-328l-210 235h280l98 -104l97 104h280z" />
    <glyph glyph-name="scaron" unicode="&#x161;" horiz-adv-x="1146" 
d="M49 352h330q30 -157 211 -157q75 0 122.5 27t47.5 73q0 47 -39 68.5t-141 48.5l-138 37q-94 26 -156 52.5t-109 64.5t-68 89t-21 121q0 154 127 245t356 91q212 0 343.5 -88t148.5 -260h-311q-39 125 -191 125q-71 0 -110 -25t-39 -67q0 -48 44 -70t175 -55l71 -19
q215 -55 301.5 -127.5t86.5 -210.5q0 -162 -133 -255t-371 -93q-251 0 -381.5 93.5t-155.5 291.5zM737 1221h-325l-213 243h280l99 -104l96 104h280z" />
    <glyph glyph-name="uni0162" unicode="&#x162;" horiz-adv-x="1200" 
d="M283 -334l190 234h299l-156 -234h-333zM768 0h-336v1176h-387v288h1110v-288h-387v-1176z" />
    <glyph glyph-name="uni0163" unicode="&#x163;" horiz-adv-x="768" 
d="M147 -334l191 234h299l-156 -234h-334zM193 844h-162v231h162v287h319v-287h195v-231h-195v-367q0 -45 0.5 -68t2 -54.5t4.5 -46t9.5 -34t15.5 -27.5t22.5 -16.5t31 -11t41.5 -2.5q28 0 55 6v-235q-67 -13 -127 -13q-102 0 -169.5 17t-115 60.5t-68.5 117t-21 186.5v488z
" />
    <glyph glyph-name="Tcaron" unicode="&#x164;" horiz-adv-x="1200" 
d="M768 0h-336v1176h-387v288h1110v-288h-387v-1176zM762 1559h-328l-211 235h281l98 -104l96 104h281z" />
    <glyph glyph-name="tcaron" unicode="&#x165;" horiz-adv-x="1015" 
d="M193 844h-162v231h162v287h319v-287h195v-231h-195v-367q0 -45 0.5 -68t2 -54.5t4.5 -46t9.5 -34t15.5 -27.5t22.5 -16.5t31 -11t41.5 -2.5q28 0 55 6v-235q-67 -13 -127 -13q-102 0 -169.5 17t-115 60.5t-68.5 117t-21 186.5v488zM1229 1464l-191 -522h-274l147 522h318
z" />
    <glyph glyph-name="Tbar" unicode="&#x166;" horiz-adv-x="1228" 
d="M160 602v283h286v291h-387v288h1110v-288h-387v-291h293v-283h-293v-602h-336v602h-286z" />
    <glyph glyph-name="tbar" unicode="&#x167;" horiz-adv-x="774" 
d="M199 844h-162v231h162v287h319v-287h195v-231h-195v-135h195v-222h-195v-10q0 -45 0.5 -68t2 -54.5t4.5 -46t9.5 -34t15.5 -27.5t22.5 -16.5t31 -11t41.5 -2.5q28 0 55 6v-235q-67 -13 -127 -13q-102 0 -169.5 17t-115 60.5t-68.5 117t-21 186.5v131h-162v222h162v135z
" />
    <glyph glyph-name="Utilde" unicode="&#x168;" horiz-adv-x="1449" 
d="M725 262q252 0 252 340v862h336v-872q0 -265 -115 -416q-150 -201 -473 -201q-322 0 -473 201q-115 151 -115 416v872h336v-862q0 -340 252 -340zM731 1591q-32 17 -43 22t-26 10t-27 5q-51 0 -57 -63h-172q0 104 57 177t158 73q27 0 53 -6.5t42 -13t46 -21.5
q71 -35 98 -35q28 0 40 15t18 54h165q0 -111 -53.5 -184.5t-148.5 -73.5q-66 0 -150 41z" />
    <glyph glyph-name="utilde" unicode="&#x169;" horiz-adv-x="1253" 
d="M807 1075h319v-911q0 -109 2 -164h-305v147q-38 -76 -118.5 -125t-204.5 -49q-109 0 -191.5 44.5t-130.5 127.5q-39 66 -50 146t-11 233v551h319v-520q0 -172 36.5 -252t135.5 -80q103 0 151 75.5t48 225.5v551zM621 1247q-73 37 -97 37q-51 0 -57 -63h-172
q0 104 57 176.5t158 72.5q59 0 141 -40q71 -35 99 -35t39.5 15t17.5 54h166q0 -110 -54 -184t-149 -74q-65 0 -149 41z" />
    <glyph glyph-name="Umacron" unicode="&#x16a;" horiz-adv-x="1449" 
d="M725 262q252 0 252 340v862h336v-872q0 -265 -115 -416q-150 -201 -473 -201q-322 0 -473 201q-115 151 -115 416v872h336v-862q0 -340 252 -340zM451 1567v190h559v-190h-559z" />
    <glyph glyph-name="umacron" unicode="&#x16b;" horiz-adv-x="1253" 
d="M807 1075h319v-911q0 -109 2 -164h-305v147q-38 -76 -118.5 -125t-204.5 -49q-109 0 -191.5 44.5t-130.5 127.5q-39 66 -50 146t-11 233v551h319v-520q0 -172 36.5 -252t135.5 -80q103 0 151 75.5t48 225.5v551zM350 1241v191h559v-191h-559z" />
    <glyph glyph-name="Ubreve" unicode="&#x16c;" horiz-adv-x="1449" 
d="M725 262q252 0 252 340v862h336v-872q0 -265 -115 -416q-150 -201 -473 -201q-322 0 -473 201q-115 151 -115 416v872h336v-862q0 -340 252 -340zM733 1526q-128 0 -207 70t-96 198h195q8 -39 35.5 -61.5t72.5 -22.5q84 0 109 84h192q-17 -128 -95 -198t-206 -70z" />
    <glyph glyph-name="ubreve" unicode="&#x16d;" horiz-adv-x="1253" 
d="M807 1075h319v-911q0 -109 2 -164h-305v147q-38 -76 -118.5 -125t-204.5 -49q-109 0 -191.5 44.5t-130.5 127.5q-39 66 -50 146t-11 233v551h319v-520q0 -172 36.5 -252t135.5 -80q103 0 151 75.5t48 225.5v551zM641 1196q-128 0 -207 70t-96 198h194q8 -38 35.5 -61
t73.5 -23q84 0 109 84h192q-17 -128 -95 -198t-206 -70z" />
    <glyph glyph-name="Uring" unicode="&#x16e;" horiz-adv-x="1449" 
d="M725 262q252 0 252 340v862h336v-872q0 -265 -115 -416q-150 -201 -473 -201q-322 0 -473 201q-115 151 -115 416v872h336v-862q0 -340 252 -340zM729 1511q-92 0 -155.5 65.5t-63.5 158.5q0 91 65 155t156 64q92 0 156.5 -64t64.5 -155q0 -93 -65 -158.5t-158 -65.5z
M649 1735q0 -36 22.5 -60t57.5 -24t58.5 23.5t23.5 60.5q0 33 -23.5 56.5t-58.5 23.5t-57.5 -23.5t-22.5 -56.5z" />
    <glyph glyph-name="uring" unicode="&#x16f;" horiz-adv-x="1253" 
d="M807 1075h319v-911q0 -109 2 -164h-305v147q-38 -76 -118.5 -125t-204.5 -49q-109 0 -191.5 44.5t-130.5 127.5q-39 66 -50 146t-11 233v551h319v-520q0 -172 36.5 -252t135.5 -80q103 0 151 75.5t48 225.5v551zM637 1163q-92 0 -155.5 65t-63.5 158q0 91 65 155.5
t156 64.5q92 0 156.5 -64.5t64.5 -155.5q0 -93 -65 -158t-158 -65zM557 1386q0 -36 22.5 -59.5t57.5 -23.5t58.5 23.5t23.5 59.5q0 33 -23.5 56.5t-58.5 23.5t-57.5 -23.5t-22.5 -56.5z" />
    <glyph glyph-name="Uhungarumlaut" unicode="&#x170;" horiz-adv-x="1449" 
d="M725 262q252 0 252 340v862h336v-872q0 -265 -115 -416q-150 -201 -473 -201q-322 0 -473 201q-115 151 -115 416v872h336v-862q0 -340 252 -340zM594 1559h-318l216 235h389zM1104 1559h-318l215 235h390z" />
    <glyph glyph-name="uhungarumlaut" unicode="&#x171;" horiz-adv-x="1253" 
d="M807 1075h319v-911q0 -109 2 -164h-305v147q-38 -76 -118.5 -125t-204.5 -49q-109 0 -191.5 44.5t-130.5 127.5q-39 66 -50 146t-11 233v551h319v-520q0 -172 36.5 -252t135.5 -80q103 0 151 75.5t48 225.5v551zM492 1221h-318l219 243h389zM1001 1221h-317l219 243h389z
" />
    <glyph glyph-name="Uogonek" unicode="&#x172;" horiz-adv-x="1449" 
d="M725 262q252 0 252 340v862h336v-872q0 -265 -115 -416q-150 -201 -473 -201q-322 0 -473 201q-115 151 -115 416v872h336v-862q0 -340 252 -340zM827 -100l191 -234h-334l-156 234h299z" />
    <glyph glyph-name="uogonek" unicode="&#x173;" horiz-adv-x="1253" 
d="M807 1075h319v-911q0 -109 2 -164h-305v147q-38 -76 -118.5 -125t-204.5 -49q-109 0 -191.5 44.5t-130.5 127.5q-39 66 -50 146t-11 233v551h319v-520q0 -172 36.5 -252t135.5 -80q103 0 151 75.5t48 225.5v551zM717 -100l190 -234h-334l-155 234h299z" />
    <glyph glyph-name="Wcircumflex" unicode="&#x174;" horiz-adv-x="1978" 
d="M1634 1464h312q-49 -246 -149.5 -732t-149.5 -732h-441l-153 831q-12 59 -19.5 106t-17.5 119t-17 122h-6q-32 -214 -55 -336l-160 -842h-448l-297 1464h340q21 -116 56.5 -343t55.5 -341l29 -162q13 -77 25.5 -171.5t21.5 -157.5h8q10 71 19 127.5t15 89t22.5 119.5
t29.5 155l133 684h433l120 -651q66 -353 86 -528h9q21 178 51 333zM831 1794h328l217 -235h-280l-97 104l-98 -104h-280z" />
    <glyph glyph-name="wcircumflex" unicode="&#x175;" horiz-adv-x="1753" 
d="M713 0h-385q-46 158 -96 335t-112 402.5t-93 337.5h327l95 -395q23 -88 45 -218.5t32 -178.5h6q10 50 26 131.5t30 145.5t33 142l84 373h346l90 -379q17 -73 46.5 -217t41.5 -200h4q83 403 86 415l86 381h324q-52 -189 -154.5 -546.5t-149.5 -528.5h-387l-80 328
q-65 270 -79 362h-7q-40 -190 -79 -360zM715 1464h325l217 -243h-280l-96 104l-99 -104h-280z" />
    <glyph glyph-name="Ycircumflex" unicode="&#x176;" horiz-adv-x="1273" 
d="M1288 1464l-483 -915v-549h-336v549l-174 334q-46 86 -152 291t-151 290h375q85 -182 280 -604h4q17 42 37 87.5t50.5 111.5t50.5 109.5t67.5 143.5t71.5 152h360zM483 1794h328l217 -235h-280l-97 104l-98 -104h-281z" />
    <glyph glyph-name="ycircumflex" unicode="&#x177;" horiz-adv-x="1126" 
d="M606 -369h-327l53 164q17 49 41.5 126.5t29.5 92.5q-20 54 -173 454t-226 607h340q36 -116 84 -268.5t80 -257t59 -199.5h11q14 61 41 161t48 174.5t61 211t52 178.5h330q-54 -145 -151 -423.5t-206.5 -597t-146.5 -423.5zM414 1464h325l217 -243h-280l-96 104l-99 -104
h-280z" />
    <glyph glyph-name="Ydieresis" unicode="&#x178;" horiz-adv-x="1273" 
d="M1288 1464l-483 -915v-549h-336v549l-174 334q-46 86 -152 291t-151 290h375q85 -182 280 -604h4q17 42 37 87.5t50.5 111.5t50.5 109.5t67.5 143.5t71.5 152h360zM311 1544v244h254v-244h-254zM713 1544v244h252v-244h-252z" />
    <glyph glyph-name="Zacute" unicode="&#x179;" horiz-adv-x="1222" 
d="M72 0v268l454 623l207 287q-90 -2 -254 -2h-381v288h1024v-270q-76 -109 -153 -211l-295 -408q-48 -65 -215 -288q96 2 266 2h430v-289h-1083zM737 1559h-331l212 235h404z" />
    <glyph glyph-name="zacute" unicode="&#x17a;" horiz-adv-x="1079" 
d="M72 0v233q83 94 207 235t211.5 241.5t115.5 130.5l-2 2q-59 -4 -252 -4h-262v237h893v-233q-440 -496 -532 -604v-2q184 4 272 4h291v-240h-942zM668 1221h-344l213 243h419z" />
    <glyph glyph-name="Zdotaccent" unicode="&#x17b;" horiz-adv-x="1222" 
d="M72 0v268l454 623l207 287q-90 -2 -254 -2h-381v288h1024v-270q-76 -109 -153 -211l-295 -408q-48 -65 -215 -288q96 2 266 2h430v-289h-1083zM483 1559v235h250v-235h-250z" />
    <glyph glyph-name="zdotaccent" unicode="&#x17c;" horiz-adv-x="1079" 
d="M72 0v233q83 94 207 235t211.5 241.5t115.5 130.5l-2 2q-59 -4 -252 -4h-262v237h893v-233q-440 -496 -532 -604v-2q184 4 272 4h291v-240h-942zM412 1221v243h254v-243h-254z" />
    <glyph glyph-name="Zcaron" unicode="&#x17d;" horiz-adv-x="1222" 
d="M72 0v268l454 623l207 287q-90 -2 -254 -2h-381v288h1024v-270q-76 -109 -153 -211l-295 -408q-48 -65 -215 -288q96 2 266 2h430v-289h-1083zM795 1559h-328l-211 235h281l98 -104l96 104h281z" />
    <glyph glyph-name="zcaron" unicode="&#x17e;" horiz-adv-x="1079" 
d="M72 0v233q83 94 207 235t211.5 241.5t115.5 130.5l-2 2q-59 -4 -252 -4h-262v237h893v-233q-440 -496 -532 -604v-2q184 4 272 4h291v-240h-942zM711 1221h-326l-213 243h281l98 -104l96 104h281z" />
    <glyph glyph-name="uni0186" unicode="&#x186;" horiz-adv-x="1562" 
d="M47 459h375q106 -197 326 -197q183 0 288 126t105 341q0 222 -104.5 351.5t-288.5 129.5q-238 0 -338 -223l-367 2q70 237 253 369.5t449 132.5q220 0 389 -92.5t263 -265.5t94 -402q0 -351 -202.5 -554.5t-538.5 -203.5q-267 0 -449 126.5t-254 359.5z" />
    <glyph glyph-name="uni018F" unicode="&#x18f;" horiz-adv-x="1595" 
d="M55 827h1116q-17 182 -119 281.5t-270 99.5q-215 0 -323 -180l-369 10q70 196 253.5 324.5t444.5 128.5q334 0 535 -209.5t201 -548.5q0 -164 -50 -303t-143 -240.5t-235 -159t-318 -57.5q-146 0 -266.5 40t-205 110t-142.5 167.5t-85.5 211t-27.5 241.5q0 22 4 84z
M1159 590h-727q5 -158 94.5 -250t255.5 -92q81 0 150 29.5t115 78.5t74.5 109t37.5 125z" />
    <glyph glyph-name="uni0190" unicode="&#x190;" horiz-adv-x="1230" 
d="M864 444h332q-4 -226 -153.5 -351.5t-405.5 -125.5q-260 0 -412.5 123.5t-152.5 327.5q0 280 295 373v4q-115 40 -174.5 110.5t-59.5 196.5q0 179 136 288t360 109q231 0 368 -119t142 -317h-318q-1 87 -51 130.5t-129 43.5q-78 0 -126 -41.5t-48 -110.5q0 -96 67.5 -139
t200.5 -43v-260h-26q-146 0 -220.5 -49t-74.5 -156q0 -95 56.5 -150t166.5 -55q104 0 161.5 54t65.5 157z" />
    <glyph glyph-name="florin" unicode="&#x192;" horiz-adv-x="968" 
d="M90 735l37 254h217l2 8q34 245 140.5 368.5t314.5 123.5q83 0 135 -12l-33 -275q-45 15 -78 15q-75 0 -109 -53t-52 -175h217l-37 -254h-215l-78 -561q-21 -152 -51.5 -250t-82.5 -165.5t-128 -96.5t-187 -29q-94 0 -170 25l29 250q50 -17 98 -17q35 0 62 14t44.5 36
t31 60t21 76.5t15.5 94.5l76 563h-219z" />
    <glyph glyph-name="uni019D" unicode="&#x19d;" horiz-adv-x="1570" 
d="M152 1464h434l372 -733q33 -66 63 -130.5t57.5 -127.5t35.5 -80h2q-6 123 -6 424v647h309v-1464h-428l-317 614q-178 352 -215 449h-2q4 -79 4 -465v-596q0 -218 -82 -306.5t-293 -88.5q-68 0 -133 12v221q16 -2 35 -2q90 0 127 40t37 130v1456z" />
    <glyph glyph-name="uni019F" unicode="&#x19f;" horiz-adv-x="1632" 
d="M815 1491q220 0 389 -92.5t263 -265.5t94 -402q0 -352 -203.5 -555t-544.5 -203q-336 0 -538.5 203.5t-202.5 554.5q0 346 204.5 553t538.5 207zM815 262q152 0 250.5 89.5t128.5 246.5h-760q30 -157 129 -246.5t252 -89.5zM815 1210q-150 0 -246.5 -85.5t-132.5 -241.5
h754q-32 155 -130 241t-245 86z" />
    <glyph glyph-name="Ohorn" unicode="&#x1a0;" horiz-adv-x="1632" 
d="M815 1491q220 0 389 -92.5t263 -265.5t94 -402q0 -352 -203.5 -555t-544.5 -203q-336 0 -538.5 203.5t-202.5 554.5q0 346 204.5 553t538.5 207zM815 262q182 0 286.5 126t104.5 341q0 222 -104.5 351.5t-286.5 129.5q-184 0 -288.5 -129.5t-104.5 -351.5
q0 -215 105 -341t288 -126zM1587 1855l-174 -391h-266l113 391h327z" />
    <glyph glyph-name="ohorn" unicode="&#x1a1;" horiz-adv-x="1290" 
d="M641 1112q260 0 421 -159.5t161 -415.5q0 -254 -159 -412t-421 -158q-263 0 -421.5 158.5t-158.5 413.5q0 254 160.5 413.5t417.5 159.5zM639 860q-117 0 -181.5 -86.5t-64.5 -234.5q0 -152 63.5 -236t184.5 -84t183.5 83.5t62.5 234.5q0 150 -64 236.5t-184 86.5z
M1370 1464l-174 -391h-266l112 391h328z" />
    <glyph glyph-name="Uhorn" unicode="&#x1af;" horiz-adv-x="1449" 
d="M1305 1855l-175 -391h183v-872q0 -265 -115 -416q-150 -201 -473 -201q-322 0 -473 201q-115 151 -115 416v872h336v-862q0 -340 252 -340t252 340v862h-113l113 391h328z" />
    <glyph glyph-name="uhorn" unicode="&#x1b0;" horiz-adv-x="1253" 
d="M1153 1464l-174 -389h147v-911q0 -109 2 -164h-305v147q-38 -76 -118.5 -125t-204.5 -49q-109 0 -191.5 44.5t-130.5 127.5q-39 66 -50 146t-11 233v551h319v-520q0 -172 36.5 -252t135.5 -80q103 0 151 75.5t48 225.5v549h-94l112 391h328z" />
    <glyph glyph-name="uni01C4" unicode="&#x1c4;" horiz-adv-x="2736" 
d="M152 0v1464h364q139 0 211 -2q330 -12 521.5 -202.5t191.5 -522.5q0 -126 -36 -248t-104 -219.5t-157 -146.5q-112 -79 -252.5 -101t-378.5 -22h-360zM487 1182v-897h115q137 0 219 26q264 78 264 424q0 336 -264 420q-79 27 -198 27h-136zM1585 0v268l455 623l207 287
q-90 -2 -254 -2h-381v288h1024v-270q-64 -92 -154 -211l-295 -408q-48 -65 -215 -288q96 2 266 2h431v-289h-1084zM2308 1559h-328l-211 235h281l98 -104l97 104h280z" />
    <glyph glyph-name="uni01C5" unicode="&#x1c5;" horiz-adv-x="2592" 
d="M152 0v1464h364q139 0 211 -2q330 -12 521.5 -202.5t191.5 -522.5q0 -126 -36 -248t-104 -219.5t-157 -146.5q-112 -79 -252.5 -101t-378.5 -22h-360zM487 1182v-897h115q137 0 219 26q264 78 264 424q0 336 -264 420q-79 27 -198 27h-136zM1585 0v233q82 93 207 235
t212.5 241.5t115.5 130.5l-2 2q-59 -4 -252 -4h-262v237h893v-233q-467 -526 -533 -604v-2q184 4 272 4h291v-240h-942zM2224 1221h-326l-212 243h280l98 -104l97 104h280z" />
    <glyph glyph-name="uni01C6" unicode="&#x1c6;" horiz-adv-x="2392" 
d="M1186 0h-301q0 108 2 143q-43 -68 -128 -119t-210 -51q-218 0 -349.5 153.5t-131.5 410.5q0 259 132.5 414t344.5 155q203 0 323 -143q0 26 -1 109.5t-1 109.5v282h320v-1464zM647 862q-113 0 -177 -88t-64 -231q0 -142 64 -232t177 -90q114 0 177 89t63 239
q0 142 -65.5 227.5t-174.5 85.5zM1384 0v233q82 93 207 235t212.5 241.5t115.5 130.5l-2 2q-59 -4 -252 -4h-262v237h893v-233q-467 -526 -533 -604v-2q184 4 273 4h291v-240h-943zM2023 1221h-325l-213 243h280l99 -104l96 104h281z" />
    <glyph glyph-name="uni01C7" unicode="&#x1c7;" horiz-adv-x="2246" 
d="M152 1464h335v-1175h615v-289h-950v1464zM1638 -31q-232 0 -346 110t-114 312h327q5 -59 32 -94t93 -35q86 0 112.5 64t26.5 225v913h338v-917q0 -144 -24 -247.5t-77.5 -179.5t-145 -113.5t-222.5 -37.5z" />
    <glyph glyph-name="uni01C8" unicode="&#x1c8;" horiz-adv-x="1718" 
d="M152 1464h335v-1175h615v-289h-950v1464zM1591 1075v-1073q0 -218 -81.5 -306.5t-292.5 -88.5q-79 0 -144 12v221q16 -2 35 -2q90 0 127 40t37 130v1067h319zM1272 1202v262h319v-262h-319z" />
    <glyph glyph-name="uni01C9" unicode="&#x1c9;" horiz-adv-x="1159" 
d="M453 0h-320v1464h320v-1464zM1032 1075v-1073q0 -218 -82 -306.5t-293 -88.5q-79 0 -143 12v221q16 -2 35 -2q90 0 127 40t37 130v1067h319zM713 1202v262h319v-262h-319z" />
    <glyph glyph-name="uni01CA" unicode="&#x1ca;" horiz-adv-x="2672" 
d="M1419 1464v-1464h-428l-317 614q-178 352 -215 449h-2q4 -79 4 -465v-598h-309v1464h434l372 -733q33 -66 63 -130.5t57.5 -127.5t35.5 -80h2q-6 123 -6 424v647h309zM2064 -31q-232 0 -346 110t-114 312h327q5 -59 32 -94t93 -35q86 0 112.5 64t26.5 225v913h338v-917
q0 -144 -24 -247.5t-77.5 -179.5t-145 -113.5t-222.5 -37.5z" />
    <glyph glyph-name="uni01CB" unicode="&#x1cb;" horiz-adv-x="2144" 
d="M1419 1464v-1464h-428l-317 614q-178 352 -215 449h-2q4 -79 4 -465v-598h-309v1464h434l372 -733q33 -66 63 -130.5t57.5 -127.5t35.5 -80h2q-6 123 -6 424v647h309zM2017 1075v-1073q0 -218 -82 -306.5t-293 -88.5q-79 0 -143 12v221q16 -2 35 -2q90 0 127 40t37 130
v1067h319zM1698 1202v262h319v-262h-319z" />
    <glyph glyph-name="uni01CC" unicode="&#x1cc;" horiz-adv-x="1835" 
d="M446 0h-319v911q0 109 -2 164h305v-147q37 75 122 124.5t210 49.5q109 0 191 -44.5t130 -127.5q39 -66 50.5 -147t11.5 -232v-551h-320v520q0 171 -38 251.5t-138 80.5q-203 0 -203 -301v-551zM1708 1075v-1073q0 -218 -82 -306.5t-293 -88.5q-79 0 -143 12v221
q16 -2 35 -2q90 0 127 40t37 130v1067h319zM1389 1202v262h319v-262h-319z" />
    <glyph glyph-name="uni01F1" unicode="&#x1f1;" horiz-adv-x="2713" 
d="M152 0v1464h364q139 0 211 -2q330 -12 521.5 -202.5t191.5 -522.5q0 -126 -36 -248t-104 -219.5t-157 -146.5q-112 -79 -252.5 -101t-378.5 -22h-360zM487 1182v-897h115q137 0 219 26q264 78 264 424q0 336 -264 420q-79 27 -198 27h-136zM1563 0v268l454 623l207 287
q-90 -2 -254 -2h-381v288h1024v-270q-76 -109 -153 -211l-295 -408q-48 -65 -215 -288q96 2 266 2h430v-289h-1083z" />
    <glyph glyph-name="uni01F2" unicode="&#x1f2;" horiz-adv-x="2592" 
d="M152 0v1464h364q139 0 211 -2q330 -12 521.5 -202.5t191.5 -522.5q0 -126 -36 -248t-104 -219.5t-157 -146.5q-112 -79 -252.5 -101t-378.5 -22h-360zM487 1182v-897h115q137 0 219 26q264 78 264 424q0 336 -264 420q-79 27 -198 27h-136zM1585 0v233q82 93 207 235
t212.5 241.5t115.5 130.5l-2 2q-59 -4 -252 -4h-262v237h893v-233q-467 -526 -533 -604v-2q184 4 272 4h291v-240h-942z" />
    <glyph glyph-name="uni01F3" unicode="&#x1f3;" horiz-adv-x="2392" 
d="M1186 0h-301q0 108 2 143q-43 -68 -128 -119t-210 -51q-218 0 -349.5 153.5t-131.5 410.5q0 259 132.5 414t344.5 155q203 0 323 -143q0 26 -1 109.5t-1 109.5v282h320v-1464zM647 862q-113 0 -177 -88t-64 -231q0 -142 64 -232t177 -90q114 0 177 89t63 239
q0 142 -65.5 227.5t-174.5 85.5zM1384 0v233q82 93 207 235t212.5 241.5t115.5 130.5l-2 2q-59 -4 -252 -4h-262v237h893v-233q-467 -526 -533 -604v-2q184 4 273 4h291v-240h-943z" />
    <glyph glyph-name="Aringacute" unicode="&#x1fa;" horiz-adv-x="1474" 
d="M326 0h-346q330 881 561 1464h403q246 -663 547 -1464h-352q-15 42 -60 159.5t-69 186.5h-553zM547 612h371q-31 97 -93.5 286t-91.5 288h-4q-23 -82 -50.5 -170t-72.5 -225t-59 -179zM729 1495q-92 0 -155.5 65t-63.5 158q0 91 65 155t156 64q92 0 156.5 -64t64.5 -155
q0 -93 -65 -158t-158 -65zM649 1718q0 -36 22.5 -60t57.5 -24t58.5 23.5t23.5 60.5q0 33 -23.5 56.5t-58.5 23.5t-57.5 -23.5t-22.5 -56.5zM866 1970h-331l213 236h403z" />
    <glyph glyph-name="aringacute" unicode="&#x1fb;" horiz-adv-x="1177" 
d="M1085 0h-288q-9 61 -6 121q-32 -32 -57.5 -52t-67 -43t-97 -34.5t-125.5 -11.5q-175 0 -282 84.5t-107 234.5q0 64 24 117t68.5 90.5t100 65.5t127.5 47t141.5 30.5t151.5 18.5q11 1 46 3.5t48 2.5q0 112 -40.5 165.5t-131.5 53.5q-162 0 -178 -154h-308
q12 170 139.5 269.5t346.5 99.5q121 0 206 -24t146.5 -79t91 -149t29.5 -231v-328q0 -219 22 -297zM760 440q0 23 2 37l-55 -6q-182 -21 -254 -55.5t-72 -106.5q0 -59 44.5 -92t117.5 -33q217 0 217 256zM604 1139q-92 0 -155.5 65t-63.5 158q0 91 65 155t156 64
q92 0 156.5 -64t64.5 -155q0 -93 -65 -158t-158 -65zM524 1362q0 -36 22.5 -60t57.5 -24t58.5 23.5t23.5 60.5q0 33 -23.5 56.5t-58.5 23.5t-57.5 -23.5t-22.5 -56.5zM719 1604h-344l213 243h420z" />
    <glyph glyph-name="AEacute" unicode="&#x1fc;" horiz-adv-x="2035" 
d="M1333 598l6 -311h609v-287h-959l-8 346h-475l-195 -346h-352l846 1464h1134v-286h-618l6 -297h561v-283h-555zM651 612h322q-3 105 -6 291.5t-6 282.5h-5q-71 -143 -305 -574zM1403 1559h-332l213 235h404z" />
    <glyph glyph-name="aeacute" unicode="&#x1fd;" horiz-adv-x="1900" 
d="M1507 319h324q-51 -163 -189.5 -257.5t-349.5 -94.5q-264 0 -415 160q-150 -150 -420 -150q-192 0 -297 84t-105 238q0 74 35 133t91.5 97.5t138.5 66.5t164.5 42.5t181.5 23.5q9 1 45 3.5t51 2.5q-2 117 -43 169t-133 52q-76 0 -121 -40.5t-53 -109.5h-310
q12 170 137 268.5t349 98.5q239 0 354 -115q160 121 358 121q262 0 404.5 -162.5t142.5 -433.5q0 -5 -1 -17.5t-1 -17.5v-18h-796q10 -120 78.5 -188t175.5 -68q147 0 204 112zM1057 662h471q-12 106 -72.5 164.5t-159.5 58.5t-162.5 -59t-76.5 -164zM760 477l-53 -6
q-181 -20 -252.5 -55.5t-71.5 -104.5q0 -59 43.5 -91t116.5 -32q102 0 157.5 60.5t59.5 204.5v24zM1073 1221h-344l213 243h420z" />
    <glyph glyph-name="Oslashacute" unicode="&#x1fe;" horiz-adv-x="1632" 
d="M815 1491q108 0 211 -25l88 156l291 -158l-84 -149q116 -99 178 -248t62 -336q0 -352 -203.5 -555t-544.5 -203q-125 0 -240 31l-92 -164l-291 158l95 168q-213 204 -213 565q0 346 204.5 553t538.5 207zM815 262q182 0 286.5 126t104.5 341q0 166 -59 281l-422 -740
q36 -8 90 -8zM422 729q0 -139 45 -244l410 721q-36 4 -62 4q-184 0 -288.5 -129.5t-104.5 -351.5zM979 1559h-332l213 235h404z" />
    <glyph glyph-name="oslashacute" unicode="&#x1ff;" horiz-adv-x="1286" 
d="M776 1221h-344l213 243h420zM641 1112q70 0 145 -16l70 123l252 -127l-70 -119q185 -164 185 -436q0 -254 -159 -412t-421 -158q-85 0 -166 19l-65 -115l-250 129l67 117q-166 163 -166 422q0 254 160.5 413.5t417.5 159.5zM887 537q0 83 -21 147l-266 -463q14 -2 41 -2
q121 0 183.5 83.5t62.5 234.5zM639 860q-117 0 -181.5 -86.5t-64.5 -234.5q0 -75 15 -131l256 450q-6 2 -25 2z" />
    <glyph glyph-name="uni0218" unicode="&#x218;" horiz-adv-x="1292" 
d="M340 -334l190 234h299l-155 -234h-334zM55 444h344q30 -200 258 -200q103 0 164.5 46t61.5 124q0 70 -50.5 102t-183.5 68l-100 28q-244 70 -348.5 170.5t-104.5 270.5q0 196 152 317t401 121q245 0 390 -114.5t157 -325.5h-336q-35 174 -223 174q-91 0 -141 -40.5
t-50 -107.5q1 -68 43.5 -101t139.5 -61l112 -32q105 -29 179 -57.5t135.5 -66.5t98 -84t56 -106.5t19.5 -138.5q0 -210 -160 -333.5t-426 -123.5t-422 125t-166 346z" />
    <glyph glyph-name="uni0219" unicode="&#x219;" horiz-adv-x="1146" 
d="M256 -334l190 234h299l-155 -234h-334zM49 352h330q30 -157 211 -157q75 0 122.5 27t47.5 73q0 47 -39 68.5t-141 48.5l-138 37q-94 26 -156 52.5t-109 64.5t-68 89t-21 121q0 154 127 245t356 91q212 0 343.5 -88t148.5 -260h-311q-39 125 -191 125q-71 0 -110 -25
t-39 -67q0 -48 44 -70t175 -55l71 -19q215 -55 301.5 -127.5t86.5 -210.5q0 -162 -133 -255t-371 -93q-251 0 -381.5 93.5t-155.5 291.5z" />
    <glyph glyph-name="uni021A" unicode="&#x21a;" horiz-adv-x="1200" 
d="M283 -334l190 234h299l-156 -234h-333zM768 0h-336v1176h-387v288h1110v-288h-387v-1176z" />
    <glyph glyph-name="uni021B" unicode="&#x21b;" horiz-adv-x="768" 
d="M147 -334l191 234h299l-156 -234h-334zM193 844h-162v231h162v287h319v-287h195v-231h-195v-367q0 -45 0.5 -68t2 -54.5t4.5 -46t9.5 -34t15.5 -27.5t22.5 -16.5t31 -11t41.5 -2.5q28 0 55 6v-235q-67 -13 -127 -13q-102 0 -169.5 17t-115 60.5t-68.5 117t-21 186.5v488z
" />
    <glyph glyph-name="uni021D" unicode="&#x21d;" horiz-adv-x="1196" 
d="M31 59h331q8 -103 66 -157t162 -54q110 0 166.5 55t56.5 150q0 107 -74.5 156t-220.5 49h-26v260q133 0 200.5 43t67.5 139q0 69 -48 110.5t-126 41.5q-79 0 -129 -43.5t-51 -130.5h-318q5 198 142 317t368 119q224 0 360 -109t136 -288q0 -126 -59.5 -196.5
t-174.5 -110.5v-4q295 -93 295 -373q0 -204 -152.5 -327.5t-412.5 -123.5q-256 0 -405.5 125.5t-153.5 351.5z" />
    <glyph glyph-name="uni0226" unicode="&#x226;" horiz-adv-x="1474" 
d="M326 0h-346q330 881 561 1464h403q246 -663 547 -1464h-352q-15 42 -60 159.5t-69 186.5h-553zM547 612h371q-31 97 -93.5 286t-91.5 288h-4q-23 -82 -50.5 -170t-72.5 -225t-59 -179zM612 1559v235h250v-235h-250z" />
    <glyph glyph-name="uni0227" unicode="&#x227;" horiz-adv-x="1177" 
d="M1085 0h-288q-9 61 -6 121q-32 -32 -57.5 -52t-67 -43t-97 -34.5t-125.5 -11.5q-175 0 -282 84.5t-107 234.5q0 64 24 117t68.5 90.5t100 65.5t127.5 47t141.5 30.5t151.5 18.5q11 1 46 3.5t48 2.5q0 112 -40.5 165.5t-131.5 53.5q-162 0 -178 -154h-308
q12 170 139.5 269.5t346.5 99.5q121 0 206 -24t146.5 -79t91 -149t29.5 -231v-328q0 -219 22 -297zM760 440q0 23 2 37l-55 -6q-182 -21 -254 -55.5t-72 -106.5q0 -59 44.5 -92t117.5 -33q217 0 217 256zM469 1221v243h254v-243h-254z" />
    <glyph glyph-name="uni0232" unicode="&#x232;" horiz-adv-x="1273" 
d="M1288 1464l-483 -915v-549h-336v549l-174 334q-46 86 -152 291t-151 290h375q85 -182 280 -604h4q17 42 37 87.5t50.5 111.5t50.5 109.5t67.5 143.5t71.5 152h360zM371 1567v190h559v-190h-559z" />
    <glyph glyph-name="uni0233" unicode="&#x233;" horiz-adv-x="1126" 
d="M606 -369h-327l53 164q17 49 41.5 126.5t29.5 92.5q-20 54 -173 454t-226 607h340q36 -116 84 -268.5t80 -257t59 -199.5h11q14 61 41 161t48 174.5t61 211t52 178.5h330q-54 -145 -151 -423.5t-206.5 -597t-146.5 -423.5zM299 1241v191h559v-191h-559z" />
    <glyph glyph-name="dotlessj" unicode="&#x237;" horiz-adv-x="573" 
d="M446 1075v-1073q0 -218 -81.5 -306.5t-292.5 -88.5q-79 0 -144 12v221q16 -2 35 -2q90 0 127 40t37 130v1067h319z" />
    <glyph glyph-name="uni0254" unicode="&#x254;" horiz-adv-x="1216" 
d="M365 694h-314q38 190 178 303t357 113q257 0 412 -158t155 -411t-157.5 -413.5t-411.5 -160.5q-218 0 -356 108t-175 308h322q49 -164 205 -164q112 0 177.5 86t65.5 234q0 156 -66 236.5t-186 80.5q-74 0 -130.5 -40t-75.5 -122z" />
    <glyph glyph-name="uni0259" unicode="&#x259;" 
d="M395 756h-325q51 163 190 257.5t350 94.5q257 0 409 -154.5t152 -418.5q0 -253 -158 -412.5t-409 -159.5q-175 0 -300.5 76t-188 209.5t-62.5 310.5q0 5 1 17.5t1 17.5v18h799q-10 120 -78.5 188t-175.5 68q-148 0 -205 -112zM846 414h-471q12 -106 72 -165t159 -59
t163 59.5t77 164.5z" />
    <glyph glyph-name="uni025B" unicode="&#x25b;" horiz-adv-x="1196" 
d="M836 59h331q-4 -226 -153.5 -351.5t-405.5 -125.5q-260 0 -412.5 123.5t-152.5 327.5q0 280 295 373v4q-115 40 -174.5 110.5t-59.5 196.5q0 179 136 288t360 109q231 0 368 -119t142 -317h-317q-1 87 -51 130.5t-130 43.5q-78 0 -126 -41.5t-48 -110.5q0 -96 68 -139
t201 -43v-260h-27q-146 0 -220.5 -49t-74.5 -156q0 -95 56.5 -150t166.5 -55q104 0 162 54t66 157z" />
    <glyph glyph-name="uni0272" unicode="&#x272;" horiz-adv-x="1261" 
d="M-37 -162q90 0 127 40t37 130v903q0 109 -2 164h305v-147q37 75 122 124.5t210 49.5q109 0 191 -44.5t130 -127.5q39 -66 50.5 -147t11.5 -232v-551h-320v520q0 171 -38 251.5t-138 80.5q-203 0 -203 -301v-549q0 -218 -81.5 -306.5t-292.5 -88.5q-79 0 -144 12v221
q16 -2 35 -2z" />
    <glyph glyph-name="uni0275" unicode="&#x275;" horiz-adv-x="1286" 
d="M641 1112q260 0 421 -159.5t161 -415.5q0 -254 -159 -412t-421 -158q-263 0 -421.5 158.5t-158.5 413.5q0 254 160.5 413.5t417.5 159.5zM641 219q97 0 157 54.5t79 158.5h-474q42 -213 238 -213zM639 860q-91 0 -149 -51t-82 -145h464q-24 94 -82.5 145t-150.5 51z" />
    <glyph glyph-name="apostrophemod" unicode="&#x2bc;" horiz-adv-x="565" 
d="M506 1464l-191 -522h-274l147 522h318z" />
    <glyph glyph-name="circumflex" unicode="&#x2c6;" horiz-adv-x="1030" 
d="M365 1464h325l217 -243h-280l-97 104l-98 -104h-280z" />
    <glyph glyph-name="caron" unicode="&#x2c7;" horiz-adv-x="1030" 
d="M690 1221h-325l-213 243h280l98 -104l97 104h280z" />
    <glyph glyph-name="breve" unicode="&#x2d8;" horiz-adv-x="952" 
d="M477 1196q-128 0 -207 70t-96 198h195q8 -39 35.5 -61.5t72.5 -22.5q84 0 109 84h192q-17 -128 -95 -198t-206 -70z" />
    <glyph glyph-name="dotaccent" unicode="&#x2d9;" horiz-adv-x="671" 
d="M209 1221v243h254v-243h-254z" />
    <glyph glyph-name="ring" unicode="&#x2da;" horiz-adv-x="829" 
d="M489 1163q-92 0 -155.5 65t-63.5 158q0 91 65.5 155.5t156.5 64.5q92 0 156.5 -64.5t64.5 -155.5q0 -92 -65.5 -157.5t-158.5 -65.5zM410 1386q0 -36 22 -59.5t57 -23.5t58.5 23.5t23.5 59.5q0 33 -23.5 56.5t-58.5 23.5q-34 0 -56.5 -23.5t-22.5 -56.5z" />
    <glyph glyph-name="ogonek" unicode="&#x2db;" horiz-adv-x="677" 
d="M410 -100l190 -234h-334l-155 234h299z" />
    <glyph glyph-name="tilde" unicode="&#x2dc;" horiz-adv-x="962" 
d="M623 1247q-73 37 -97 37q-51 0 -57 -63h-172q0 104 57 176.5t158 72.5q59 0 141 -40q71 -35 99 -35t39.5 15t17.5 54h166q0 -110 -54 -184t-149 -74q-65 0 -149 41z" />
    <glyph glyph-name="hungarumlaut" unicode="&#x2dd;" horiz-adv-x="1253" 
d="M444 1221h-317l219 243h389zM954 1221h-317l219 243h389z" />
    <glyph glyph-name="uni032C" unicode="&#x32c;" horiz-adv-x="1030" 
d="M354 -98h326l217 -244h-281l-96 104l-98 -104h-281z" />
    <glyph glyph-name="uni0394" unicode="&#x394;" horiz-adv-x="1374" 
d="M498 1464h381l497 -1464h-1378zM688 1157l-278 -899h557z" />
    <glyph glyph-name="uni03A9" unicode="&#x3a9;" horiz-adv-x="1679" 
d="M840 1206q-124 0 -215.5 -60t-136 -155.5t-44.5 -212.5q0 -174 80.5 -301t225.5 -203v-274h-654v276h252q-113 77 -182.5 205.5t-69.5 313.5q0 140 49 265t141 221t235 152t319 56t319 -56t234.5 -152t140.5 -220.5t49 -265.5q0 -185 -69.5 -313.5t-182.5 -205.5h252
v-276h-653v274q145 76 225 203t80 301q0 117 -44.5 212.5t-135.5 155.5t-215 60z" />
    <glyph glyph-name="uni03BC" unicode="&#x3bc;" horiz-adv-x="1263" 
d="M446 -369h-319v1444h319v-520q0 -172 36.5 -252t135.5 -80q103 0 151 75.5t48 225.5v551h320v-911q0 -109 2 -164h-305v147q-41 -85 -116.5 -126t-172.5 -41q-58 0 -99 10v-359z" />
    <glyph glyph-name="pi" unicode="&#x3c0;" horiz-adv-x="1411" 
d="M1331 813h-182v-336q0 -45 0.5 -68t2 -54.5t4.5 -46t9.5 -34t15.5 -27.5t22.5 -16.5t31 -11t41.5 -2.5q28 0 55 6v-235q-67 -13 -127 -13q-102 0 -169.5 17t-115.5 60.5t-69 117t-21 186.5v457h-303v-813h-319v813h-172v262h1296v-262z" />
    <glyph glyph-name="Wgrave" unicode="&#x1e80;" horiz-adv-x="1978" 
d="M1634 1464h312q-49 -246 -149.5 -732t-149.5 -732h-441l-153 831q-12 59 -19.5 106t-17.5 119t-17 122h-6q-32 -214 -55 -336l-160 -842h-448l-297 1464h340q21 -116 56.5 -343t55.5 -341l29 -162q13 -77 25.5 -171.5t21.5 -157.5h8q10 71 19 127.5t15 89t22.5 119.5
t29.5 155l133 684h433l120 -651q66 -353 86 -528h9q21 178 51 333zM1200 1559h-332l-284 235h403z" />
    <glyph glyph-name="wgrave" unicode="&#x1e81;" horiz-adv-x="1753" 
d="M713 0h-385q-46 158 -96 335t-112 402.5t-93 337.5h327l95 -395q23 -88 45 -218.5t32 -178.5h6q10 50 26 131.5t30 145.5t33 142l84 373h346l90 -379q17 -73 46.5 -217t41.5 -200h4q83 403 86 415l86 381h324q-52 -189 -154.5 -546.5t-149.5 -528.5h-387l-80 328
q-65 270 -79 362h-7q-40 -190 -79 -360zM1094 1221h-344l-289 243h420z" />
    <glyph glyph-name="Wacute" unicode="&#x1e82;" horiz-adv-x="1978" 
d="M1634 1464h312q-49 -246 -149.5 -732t-149.5 -732h-441l-153 831q-12 59 -19.5 106t-17.5 119t-17 122h-6q-32 -214 -55 -336l-160 -842h-448l-297 1464h340q21 -116 56.5 -343t55.5 -341l29 -162q13 -77 25.5 -171.5t21.5 -157.5h8q10 71 19 127.5t15 89t22.5 119.5
t29.5 155l133 684h433l120 -651q66 -353 86 -528h9q21 178 51 333zM1128 1559h-331l213 235h403z" />
    <glyph glyph-name="wacute" unicode="&#x1e83;" horiz-adv-x="1753" 
d="M713 0h-385q-46 158 -96 335t-112 402.5t-93 337.5h327l95 -395q23 -88 45 -218.5t32 -178.5h6q10 50 26 131.5t30 145.5t33 142l84 373h346l90 -379q17 -73 46.5 -217t41.5 -200h4q83 403 86 415l86 381h324q-52 -189 -154.5 -546.5t-149.5 -528.5h-387l-80 328
q-65 270 -79 362h-7q-40 -190 -79 -360zM1030 1221h-344l213 243h420z" />
    <glyph glyph-name="Wdieresis" unicode="&#x1e84;" horiz-adv-x="1978" 
d="M1634 1464h312q-49 -246 -149.5 -732t-149.5 -732h-441l-153 831q-12 59 -19.5 106t-17.5 119t-17 122h-6q-32 -214 -55 -336l-160 -842h-448l-297 1464h340q21 -116 56.5 -343t55.5 -341l29 -162q13 -77 25.5 -171.5t21.5 -157.5h8q10 71 19 127.5t15 89t22.5 119.5
t29.5 155l133 684h433l120 -651q66 -353 86 -528h9q21 178 51 333zM676 1544v244h254v-244h-254zM1077 1544v244h252v-244h-252z" />
    <glyph glyph-name="wdieresis" unicode="&#x1e85;" horiz-adv-x="1753" 
d="M713 0h-385q-46 158 -96 335t-112 402.5t-93 337.5h327l95 -395q23 -88 45 -218.5t32 -178.5h6q10 50 26 131.5t30 145.5t33 142l84 373h346l90 -379q17 -73 46.5 -217t41.5 -200h4q83 403 86 415l86 381h324q-52 -189 -154.5 -546.5t-149.5 -528.5h-387l-80 328
q-65 270 -79 362h-7q-40 -190 -79 -360zM549 1221v243h254v-243h-254zM950 1221v243h252v-243h-252z" />
    <glyph glyph-name="uni1EA0" unicode="&#x1ea0;" horiz-adv-x="1474" 
d="M326 0h-346q330 881 561 1464h403q246 -663 547 -1464h-352q-15 42 -60 159.5t-69 186.5h-553zM547 612h371q-31 97 -93.5 286t-91.5 288h-4q-23 -82 -50.5 -170t-72.5 -225t-59 -179zM604 -338v244h254v-244h-254z" />
    <glyph glyph-name="uni1EA1" unicode="&#x1ea1;" horiz-adv-x="1177" 
d="M1085 0h-288q-9 61 -6 121q-32 -32 -57.5 -52t-67 -43t-97 -34.5t-125.5 -11.5q-175 0 -282 84.5t-107 234.5q0 64 24 117t68.5 90.5t100 65.5t127.5 47t141.5 30.5t151.5 18.5q11 1 46 3.5t48 2.5q0 112 -40.5 165.5t-131.5 53.5q-162 0 -178 -154h-308
q12 170 139.5 269.5t346.5 99.5q121 0 206 -24t146.5 -79t91 -149t29.5 -231v-328q0 -219 22 -297zM760 440q0 23 2 37l-55 -6q-182 -21 -254 -55.5t-72 -106.5q0 -59 44.5 -92t117.5 -33q217 0 217 256zM463 -338v244h254v-244h-254z" />
    <glyph glyph-name="uni1EB8" unicode="&#x1eb8;" horiz-adv-x="1210" 
d="M483 598v-311h639v-287h-970v1464h962v-286h-631v-297h580v-283h-580zM496 -338v244h254v-244h-254z" />
    <glyph glyph-name="uni1EB9" unicode="&#x1eb9;" 
d="M842 319h325q-51 -163 -190 -257.5t-350 -94.5q-257 0 -409 155t-152 419q0 252 157.5 411.5t409.5 159.5q175 0 300.5 -76t188 -209.5t62.5 -310.5q0 -5 -1 -17.5t-1 -17.5v-18h-799q10 -120 78.5 -188t175.5 -68q148 0 205 112zM391 662h471q-12 106 -72 164.5
t-159 58.5t-163 -59t-77 -164zM463 -338v244h254v-244h-254z" />
    <glyph glyph-name="uni1ECA" unicode="&#x1eca;" horiz-adv-x="638" 
d="M487 0h-335v1464h335v-1464zM197 -338v244h254v-244h-254z" />
    <glyph glyph-name="uni1ECB" unicode="&#x1ecb;" horiz-adv-x="573" 
d="M127 1202v262h319v-262h-319zM446 0h-319v1075h319v-1075zM164 -338v244h254v-244h-254z" />
    <glyph glyph-name="uni1ECC" unicode="&#x1ecc;" horiz-adv-x="1632" 
d="M815 1491q220 0 389 -92.5t263 -265.5t94 -402q0 -352 -203.5 -555t-544.5 -203q-336 0 -538.5 203.5t-202.5 554.5q0 346 204.5 553t538.5 207zM815 262q182 0 286.5 126t104.5 341q0 222 -104.5 351.5t-286.5 129.5q-184 0 -288.5 -129.5t-104.5 -351.5
q0 -215 105 -341t288 -126zM698 -338v244h254v-244h-254z" />
    <glyph glyph-name="uni1ECD" unicode="&#x1ecd;" horiz-adv-x="1286" 
d="M641 1112q260 0 421 -159.5t161 -415.5q0 -254 -159 -412t-421 -158q-263 0 -421.5 158.5t-158.5 413.5q0 254 160.5 413.5t417.5 159.5zM639 860q-117 0 -181.5 -86.5t-64.5 -234.5q0 -152 63.5 -236t184.5 -84t183.5 83.5t62.5 234.5q0 150 -64 236.5t-184 86.5z
M516 -338v244h254v-244h-254z" />
    <glyph glyph-name="uni1EE4" unicode="&#x1ee4;" horiz-adv-x="1449" 
d="M725 262q252 0 252 340v862h336v-872q0 -265 -115 -416q-150 -201 -473 -201q-322 0 -473 201q-115 151 -115 416v872h336v-862q0 -340 252 -340zM596 -338v244h254v-244h-254z" />
    <glyph glyph-name="uni1EE5" unicode="&#x1ee5;" horiz-adv-x="1253" 
d="M807 1075h319v-911q0 -109 2 -164h-305v147q-38 -76 -118.5 -125t-204.5 -49q-109 0 -191.5 44.5t-130.5 127.5q-39 66 -50 146t-11 233v551h319v-520q0 -172 36.5 -252t135.5 -80q103 0 151 75.5t48 225.5v551zM494 -338v244h254v-244h-254z" />
    <glyph glyph-name="Ygrave" unicode="&#x1ef2;" horiz-adv-x="1273" 
d="M1288 1464l-483 -915v-549h-336v549l-174 334q-46 86 -152 291t-151 290h375q85 -182 280 -604h4q17 42 37 87.5t50.5 111.5t50.5 109.5t67.5 143.5t71.5 152h360zM852 1559h-332l-284 235h403z" />
    <glyph glyph-name="ygrave" unicode="&#x1ef3;" horiz-adv-x="1126" 
d="M606 -369h-327l53 164q17 49 41.5 126.5t29.5 92.5q-20 54 -173 454t-226 607h340q36 -116 84 -268.5t80 -257t59 -199.5h11q14 61 41 161t48 174.5t61 211t52 178.5h330q-54 -145 -151 -423.5t-206.5 -597t-146.5 -423.5zM778 1221h-344l-289 243h420z" />
    <glyph glyph-name="enspace" unicode="&#x2002;" horiz-adv-x="1024" 
 />
    <glyph glyph-name="emspace" unicode="&#x2003;" horiz-adv-x="2048" 
 />
    <glyph glyph-name="threeperemspace" unicode="&#x2004;" horiz-adv-x="0" 
 />
    <glyph glyph-name="fourperemspace" unicode="&#x2005;" horiz-adv-x="512" 
 />
    <glyph glyph-name="thinspace" unicode="&#x2009;" horiz-adv-x="272" 
 />
    <glyph glyph-name="hairspace" unicode="&#x200a;" horiz-adv-x="153" 
 />
    <glyph glyph-name="endash" unicode="&#x2013;" horiz-adv-x="1212" 
d="M119 481v273h975v-273h-975z" />
    <glyph glyph-name="emdash" unicode="&#x2014;" horiz-adv-x="1959" 
d="M119 481v273h1722v-273h-1722z" />
    <glyph glyph-name="quoteleft" unicode="&#x2018;" horiz-adv-x="595" 
d="M76 942l190 522h275l-148 -522h-317z" />
    <glyph glyph-name="quoteright" unicode="&#x2019;" horiz-adv-x="589" 
d="M547 1464l-191 -522h-274l147 522h318z" />
    <glyph glyph-name="quotesinglbase" unicode="&#x201a;" horiz-adv-x="589" 
d="M498 340l-191 -522h-280l147 522h324z" />
    <glyph glyph-name="quotedblleft" unicode="&#x201c;" horiz-adv-x="1038" 
d="M520 942l191 522h272l-147 -522h-316zM76 942l190 522h273l-148 -522h-315z" />
    <glyph glyph-name="quotedblright" unicode="&#x201d;" horiz-adv-x="1030" 
d="M543 1464l-191 -522h-270l147 522h314zM987 1464l-190 -522h-271l148 522h313z" />
    <glyph glyph-name="quotedblbase" unicode="&#x201e;" horiz-adv-x="1034" 
d="M498 340l-191 -522h-280l147 522h324zM942 340l-190 -522h-281l147 522h324z" />
    <glyph glyph-name="dagger" unicode="&#x2020;" horiz-adv-x="1044" 
d="M680 1464v-346h299v-266h-299v-991h-313v991h-301v266h301v346h313z" />
    <glyph glyph-name="daggerdbl" unicode="&#x2021;" horiz-adv-x="1097" 
d="M707 852v-379h299v-266h-299v-346h-314v346h-301v266h301v379h-301v266h301v346h314v-346h299v-266h-299z" />
    <glyph glyph-name="bullet" unicode="&#x2022;" horiz-adv-x="1075" 
d="M539 283q-167 0 -285.5 117.5t-118.5 283.5q0 167 118 283t286 116q166 0 283.5 -116t117.5 -283q0 -166 -117.5 -283.5t-283.5 -117.5z" />
    <glyph glyph-name="ellipsis" unicode="&#x2026;" horiz-adv-x="1923" 
d="M117 0v340h334v-340h-334zM795 0v340h333v-340h-333zM1473 0v340h333v-340h-333z" />
    <glyph glyph-name="perthousand" unicode="&#x2030;" horiz-adv-x="2656" 
d="M414 662q-170 0 -260.5 109.5t-90.5 303.5q0 192 90 302t259 110t258.5 -110.5t89.5 -303.5q0 -195 -88.5 -303t-257.5 -108zM279 1071q0 -113 29.5 -174t103.5 -61q73 0 102 60.5t29 174.5q0 120 -28 181t-103 61t-104 -61.5t-29 -180.5zM539 0l563 1464h190l-563 -1464
h-190zM1421 -31q-169 0 -259.5 109.5t-90.5 304.5q0 193 89.5 302.5t258.5 109.5t258.5 -110.5t89.5 -303.5q0 -195 -88.5 -303.5t-257.5 -108.5zM1286 379q0 -114 30 -175t103 -61t102 61t29 175q0 120 -28 181t-103 61t-104 -61.5t-29 -180.5zM2247 -31
q-170 0 -260.5 109.5t-90.5 304.5q0 192 90 302t259 110t258.5 -110.5t89.5 -303.5q0 -195 -88.5 -303.5t-257.5 -108.5zM2111 379q0 -113 30 -174.5t104 -61.5q73 0 102 61t29 175q0 120 -28 181t-103 61t-104.5 -62t-29.5 -180z" />
    <glyph glyph-name="guilsinglleft" unicode="&#x2039;" horiz-adv-x="669" 
d="M580 969l-197 -383l197 -385h-295l-209 385l209 383h295z" />
    <glyph glyph-name="guilsinglright" unicode="&#x203a;" horiz-adv-x="669" 
d="M287 586l-197 383h295l209 -383l-209 -385h-295z" />
    <glyph glyph-name="fraction" unicode="&#x2044;" horiz-adv-x="864" 
d="M-12 -215l594 1679h295l-590 -1679h-299z" />
    <glyph glyph-name="Euro" unicode="&#x20ac;" 
d="M-8 745l67 238h97q26 221 129 346q135 170 422 170q475 0 524 -481l-324 -2q-18 111 -62.5 164t-137.5 53q-102 0 -152 -61.5t-68 -188.5h459l-67 -238h-402v-77h387l-67 -238h-305q19 -100 69 -147t146 -47q95 0 138.5 49.5t61.5 160.5l322 -2q-30 -239 -155 -357
t-367 -118q-278 0 -412 154q-103 114 -131 307h-172l67 238h84v22v55h-151z" />
    <glyph glyph-name="trademark" unicode="&#x2122;" horiz-adv-x="1972" 
d="M1421 608h-178q-24 74 -65.5 203t-76.5 237.5t-71 213.5h-6q2 -123 2 -388v-266h-188v856h329l176 -573q25 78 173 573h321v-856h-192v377q0 56 1 148t1 131h-7q-42 -129 -117.5 -353.5t-101.5 -302.5zM741 1464v-166h-215v-690h-202v690h-215v166h632z" />
    <glyph glyph-name="Omega" unicode="&#x2126;" horiz-adv-x="1679" 
d="M840 1206q-124 0 -215.5 -60t-136 -155.5t-44.5 -212.5q0 -174 80.5 -301t225.5 -203v-274h-654v276h252q-113 77 -182.5 205.5t-69.5 313.5q0 140 49 265t141 221t235 152t319 56t319 -56t234.5 -152t140.5 -220.5t49 -265.5q0 -185 -69.5 -313.5t-182.5 -205.5h252
v-276h-653v274q145 76 225 203t80 301q0 117 -44.5 212.5t-135.5 155.5t-215 60z" />
    <glyph glyph-name="onethird" unicode="&#x2153;" horiz-adv-x="1722" 
d="M387 0l563 1464h191l-563 -1464h-191zM283 1165h-222v142h21q89 0 145.5 41t77.5 116h180v-899h-202v600zM958 291h216q9 -127 126 -127q62 0 93.5 30t31.5 85q0 120 -168 120h-26v174q162 0 162 105q0 38 -26.5 60t-68.5 22q-44 0 -71 -26t-27 -79h-213
q5 128 90.5 203.5t227.5 75.5q140 0 224.5 -67.5t84.5 -178.5q0 -134 -125 -192q162 -67 162 -230q0 -126 -94 -202t-257 -76q-159 0 -248.5 78.5t-93.5 224.5z" />
    <glyph glyph-name="twothirds" unicode="&#x2154;" horiz-adv-x="1968" 
d="M1554 -16q-161 0 -254.5 74t-93.5 202q0 165 166 229q-62 30 -96.5 81t-34.5 118q0 107 85.5 177.5t225.5 70.5q144 0 230 -70.5t86 -177.5q0 -140 -131 -201q166 -64 166 -227q0 -128 -94 -202t-255 -74zM1552 401q-60 0 -95.5 -34t-35.5 -88q0 -52 36 -85.5t95 -33.5
t94 33.5t35 85.5q0 55 -35 88.5t-94 33.5zM1554 762q-50 0 -79 -28t-29 -70q0 -43 29 -71t79 -28t79.5 28.5t29.5 70.5t-29.5 70t-79.5 28zM616 0l564 1464h190l-563 -1464h-191zM764 565h-676v172q43 34 135 103.5t170 132.5q80 63 113 116.5t33 108.5q0 49 -28.5 75.5
t-76.5 26.5q-58 0 -86.5 -38t-28.5 -103h-229q2 154 96 244t254 90q158 0 247 -75.5t89 -205.5q0 -102 -52.5 -182t-152.5 -156q-18 -14 -94 -65l-90 -64h377v-180z" />
    <glyph glyph-name="oneeighth" unicode="&#x215b;" horiz-adv-x="1744" 
d="M1325 -16q-161 0 -254.5 74t-93.5 202q0 165 166 229q-62 30 -96.5 81t-34.5 118q0 107 85.5 177.5t225.5 70.5q144 0 229.5 -70.5t85.5 -177.5q0 -140 -131 -201q166 -64 166 -227q0 -128 -93.5 -202t-254.5 -74zM1323 401q-60 0 -95.5 -34t-35.5 -88q0 -52 36 -85.5
t95 -33.5t94 33.5t35 85.5q0 55 -35 88.5t-94 33.5zM1325 762q-50 0 -79 -28t-29 -70q0 -43 29 -71t79 -28t79.5 28.5t29.5 70.5t-29.5 70t-79.5 28zM387 0l563 1464h191l-563 -1464h-191zM283 1165h-222v142h21q89 0 145.5 41t77.5 116h180v-899h-202v600z" />
    <glyph glyph-name="threeeighths" unicode="&#x215c;" horiz-adv-x="1955" 
d="M1542 -16q-161 0 -254.5 74t-93.5 202q0 165 166 229q-62 30 -96.5 81t-34.5 118q0 107 85.5 177.5t225.5 70.5q144 0 229.5 -70.5t85.5 -177.5q0 -140 -131 -201q166 -64 166 -227q0 -128 -93.5 -202t-254.5 -74zM1540 401q-60 0 -95.5 -34t-35.5 -88q0 -52 36 -85.5
t95 -33.5t94 33.5t35 85.5q0 55 -35 88.5t-94 33.5zM1542 762q-50 0 -79 -28t-29 -70q0 -43 29 -71t79 -28t79.5 28.5t29.5 70.5t-29.5 70t-79.5 28zM604 0l563 1464h191l-563 -1464h-191zM68 856h215q9 -127 127 -127q62 0 93.5 30t31.5 85q0 114 -168 114h-27v172
q81 0 121.5 23.5t40.5 77.5q0 38 -26 60t-68 22q-44 0 -71.5 -26t-27.5 -79h-213q5 128 90.5 203.5t227.5 75.5q140 0 224.5 -67.5t84.5 -178.5q0 -71 -32 -114.5t-93 -71.5q73 -30 117.5 -81t44.5 -143q0 -126 -94 -202t-256 -76q-159 0 -248.5 78.5t-93.5 224.5z" />
    <glyph glyph-name="fiveeighths" unicode="&#x215d;" horiz-adv-x="1947" 
d="M66 844h227q17 -115 121 -115q60 0 92.5 34.5t32.5 100.5q0 61 -32 96t-91 35q-44 0 -68.5 -19t-44.5 -56l-211 36l53 508h549v-180h-377q-2 -17 -8.5 -69.5t-9.5 -88.5q67 43 162 43q130 0 212.5 -80.5t82.5 -214.5q0 -151 -93.5 -238t-252.5 -87q-147 0 -241.5 82.5
t-102.5 212.5zM1530 -16q-161 0 -254.5 74t-93.5 202q0 165 166 229q-62 30 -96.5 81t-34.5 118q0 107 85.5 177.5t225.5 70.5q144 0 229.5 -70.5t85.5 -177.5q0 -140 -131 -201q166 -64 166 -227q0 -128 -93.5 -202t-254.5 -74zM1528 401q-60 0 -95.5 -34t-35.5 -88
q0 -52 36 -85.5t95 -33.5t94 33.5t35 85.5q0 55 -35 88.5t-94 33.5zM1530 762q-50 0 -79.5 -28t-29.5 -70t29.5 -70.5t79.5 -28.5t79 28t29 71q0 42 -29 70t-79 28zM592 0l563 1464h191l-564 -1464h-190z" />
    <glyph glyph-name="seveneighths" unicode="&#x215e;" horiz-adv-x="1769" 
d="M1352 -16q-161 0 -254.5 74t-93.5 202q0 165 165 229q-62 30 -96.5 81t-34.5 118q0 106 86 177t226 71q144 0 229.5 -70.5t85.5 -177.5q0 -140 -131 -201q166 -64 166 -227q0 -128 -93.5 -202t-254.5 -74zM1350 401q-60 0 -95.5 -34t-35.5 -88q0 -52 36 -85.5t95 -33.5
t94 33.5t35 85.5q0 55 -35 88.5t-94 33.5zM1352 762q-50 0 -79.5 -28t-29.5 -70t29.5 -70.5t79.5 -28.5t79 28t29 71q0 42 -29 70t-79 28zM414 0l563 1464h190l-563 -1464h-190zM389 565h-227q117 370 327 725q-2 0 -2 2q-25 -3 -47 -3.5t-53.5 0.5t-48.5 1h-272v172h636
v-159q-169 -293 -313 -738z" />
    <glyph glyph-name="arrowleft" unicode="&#x2190;" horiz-adv-x="1679" 
d="M1597 516h-1050q21 -21 130.5 -128.5t174.5 -172.5l217 -215h-395q-35 37 -284.5 301.5t-348.5 366.5q76 76 195.5 201t258 272t179.5 190h395l-217 -215q-266 -266 -305 -301h1050v-299z" />
    <glyph glyph-name="arrowup" unicode="&#x2191;" horiz-adv-x="1474" 
d="M588 0v1040l-301 -301l-215 -213v377q48 46 191 180.5t270.5 255.5t203.5 197q74 -77 201.5 -198t272 -255t192.5 -180v-377l-217 213q-40 40 -111.5 110.5t-118.5 117.5t-71 73v-1040h-297z" />
    <glyph glyph-name="arrowright" unicode="&#x2192;" horiz-adv-x="1679" 
d="M1130 516h-1050v299h1050q-39 35 -305 301l-217 215h396q56 -57 295.5 -311.5t336.5 -351.5q-103 -103 -356.5 -374t-275.5 -294h-396l217 215q65 65 174.5 172.5t130.5 128.5z" />
    <glyph glyph-name="arrowdown" unicode="&#x2193;" horiz-adv-x="1474" 
d="M588 424v1040h297v-1040q24 26 71 73t118.5 117.5t111.5 110.5l217 213v-377q-30 -28 -141.5 -133t-189 -178t-176.5 -167.5t-159 -154.5q-102 99 -368 351.5t-297 281.5v377l215 -213z" />
    <glyph glyph-name="uni2196" unicode="&#x2196;" horiz-adv-x="1536" 
d="M670 901l739 -739l-211 -209l-735 735v-426v-303l-256 258q0 104 4 451.5t4 474.5q127 0 471.5 6t448.5 6l266 -254q-109 -2 -305 -2q-92 0 -243 1t-183 1z" />
    <glyph glyph-name="uni2197" unicode="&#x2197;" horiz-adv-x="1536" 
d="M125 162l739 739q-31 0 -184 -1t-244 -1q-197 0 -303 2l266 254q104 0 448.5 -6t471.5 -6q0 -127 4 -474.5t4 -451.5l-256 -258v303v426l-735 -735z" />
    <glyph glyph-name="uni2198" unicode="&#x2198;" horiz-adv-x="1536" 
d="M866 248l-739 739l211 209l735 -735v426v303l256 -258q0 -104 -4 -453t-4 -473q-127 0 -471.5 -6t-448.5 -6l-266 254q106 2 303 2q91 0 244 -1t184 -1z" />
    <glyph glyph-name="uni2199" unicode="&#x2199;" horiz-adv-x="1536" 
d="M1411 985l-739 -739q32 0 183 1t243 1q196 0 305 -2l-266 -254q-104 0 -448.5 6t-471.5 6q0 124 -4 473t-4 453l256 258v-303v-426l735 735z" />
    <glyph glyph-name="partialdiff" unicode="&#x2202;" horiz-adv-x="1298" 
d="M162 1464h469q596 -320 596 -903q0 -277 -158 -434.5t-430 -157.5q-255 0 -414 154.5t-159 408.5q0 135 44 246t118 181.5t168.5 108.5t197.5 38q82 0 123 -21l6 7q-158 170 -561 372zM641 860q-117 0 -181.5 -86.5t-64.5 -234.5q0 -152 63.5 -236t184.5 -84t183.5 83.5
t62.5 234.5q0 150 -64 236.5t-184 86.5z" />
    <glyph glyph-name="Delta" unicode="&#x2206;" horiz-adv-x="1472" 
d="M547 1464h381l497 -1464h-1378zM737 1157l-278 -899h557z" />
    <glyph glyph-name="product" unicode="&#x220f;" horiz-adv-x="1691" 
d="M1436 1178v-1409h-336v1409h-508v-1409h-336v1409h-178v286h1536v-286h-178z" />
    <glyph glyph-name="summation" unicode="&#x2211;" horiz-adv-x="1277" 
d="M78 31l512 577l-504 576v280h1092v-286h-691l488 -553l-512 -570h737v-286h-1122v262z" />
    <glyph glyph-name="minus" unicode="&#x2212;" 
d="M109 520v275h1019v-275h-1019z" />
    <glyph glyph-name="uni2219" unicode="&#x2219;" horiz-adv-x="567" 
d="M117 483v340h334v-340h-334z" />
    <glyph glyph-name="radical" unicode="&#x221a;" 
d="M14 811v264h404l127 -401q18 -58 47 -165t55 -190h4q20 76 48 188t49 191l204 766h320l-445 -1464h-362q-74 212 -279 811h-172z" />
    <glyph glyph-name="infinity" unicode="&#x221e;" horiz-adv-x="1720" 
d="M469 1059q34 0 67 -6.5t57.5 -12.5t58.5 -25.5t50.5 -28.5t54.5 -39t50.5 -40t56.5 -47q63 55 96 81.5t84.5 59t102 45.5t110.5 13q164 0 263.5 -107t99.5 -276q0 -71 -22.5 -137t-65.5 -120t-112.5 -86t-155.5 -32q-64 0 -120.5 16t-110 51.5t-86 62.5t-87.5 79
q-52 -50 -88.5 -81t-87.5 -64t-106 -48.5t-117 -15.5q-92 0 -163 32t-113 86t-63.5 119.5t-21.5 137.5q0 170 100.5 276.5t268.5 106.5zM1243 565q54 0 84.5 31.5t30.5 85.5q0 50 -31 82.5t-80 32.5q-83 0 -219 -119q41 -32 56 -43.5t47.5 -32.5t58.5 -29t53 -8zM479 565
q33 0 70.5 16.5t60.5 33t68 52.5q3 2 4.5 3.5t4.5 3.5t5 4q-66 57 -118.5 88t-98.5 31q-50 0 -80 -32.5t-30 -82.5q0 -54 30 -85.5t84 -31.5z" />
    <glyph glyph-name="integral" unicode="&#x222b;" 
d="M846 971l-111 -797q-21 -152 -51.5 -250t-82.5 -165.5t-127.5 -96.5t-186.5 -29q-94 0 -170 25l28 250q50 -17 99 -17q35 0 62 14t44.5 36t31 60t21 76.5t15.5 94.5l112 825q34 245 140.5 368.5t314.5 123.5q83 0 135 -12l-33 -275q-45 15 -77 15q-76 0 -111 -57.5
t-53 -188.5z" />
    <glyph glyph-name="approxequal" unicode="&#x2248;" 
d="M979 1110l182 -141q-147 -264 -332 -264q-55 0 -106.5 16.5t-128.5 52.5l-35 17q-5 2 -26.5 12.5t-27.5 13t-22.5 9.5t-25 9t-21.5 4.5t-24 2.5q-41 0 -75 -30t-75 -105l-182 141q147 264 332 264q55 0 105.5 -16.5t129.5 -53.5l35 -16q5 -2 26.5 -12.5t27.5 -13
t22.5 -9.5t25 -9t21.5 -4.5t24 -2.5q41 0 75 30t75 105zM975 598l182 -141q-147 -264 -332 -264q-55 0 -106.5 16.5t-128.5 52.5l-35 17q-5 2 -26.5 12.5t-27.5 13t-22.5 9.5t-25 9t-21.5 4.5t-24 2.5q-41 0 -75 -30t-75 -105l-182 141q147 264 332 264q55 0 105.5 -16.5
t129.5 -53.5l35 -16q5 -2 26.5 -12.5t27.5 -13t22.5 -9.5t25 -9t21.5 -4.5t24 -2.5q41 0 75 30t75 105z" />
    <glyph glyph-name="notequal" unicode="&#x2260;" 
d="M109 752v266h489l74 149h284l-73 -149h245v-266h-374l-62 -127h436v-267h-565l-84 -174h-284l84 174h-170v267h299l61 127h-360z" />
    <glyph glyph-name="lessequal" unicode="&#x2264;" 
d="M147 0v274h891v-274h-891zM1038 1321v-307l-589 -178v-7l589 -180v-311l-891 369v241z" />
    <glyph glyph-name="greaterequal" unicode="&#x2265;" 
d="M1087 274v-274h-890v274h890zM197 1014v307l890 -373v-241l-890 -369v311l589 180v7z" />
    <glyph glyph-name="dotmath" unicode="&#x22c5;" horiz-adv-x="567" 
d="M117 483v340h334v-340h-334z" />
    <glyph glyph-name="lozenge" unicode="&#x25ca;" 
d="M766 0h-295l-451 729l451 735h295l448 -735zM618 291l254 438l-254 445l-256 -445z" />
    <glyph glyph-name="commaaccent" unicode="&#xf6c3;" horiz-adv-x="755" 
d="M172 -334l190 234h300l-156 -234h-334z" />
    <glyph glyph-name="uniF8FF" unicode="&#xf8ff;" horiz-adv-x="1083" 
d="M543 213q-193 0 -328 134.5t-135 326.5q0 191 135 323.5t328 132.5q191 0 326 -133t135 -323q0 -126 -62 -232t-168 -167.5t-231 -61.5z" />
    <glyph glyph-name="acute.caps" horiz-adv-x="874" 
d="M578 1559h-332l213 235h403z" />
    <glyph glyph-name="grave.caps" horiz-adv-x="1048" 
d="M821 1559h-332l-284 235h403z" />
    <glyph glyph-name="circumflex.caps" horiz-adv-x="1030" 
d="M356 1794h328l217 -235h-280l-97 104l-98 -104h-281z" />
    <glyph glyph-name="caron.caps" horiz-adv-x="1028" 
d="M684 1559h-328l-211 235h281l98 -104l97 104h280z" />
    <glyph glyph-name="tilde.caps" horiz-adv-x="962" 
d="M496 1591q-73 37 -97 37q-51 0 -57 -63h-172q0 104 57 177t158 73q27 0 53 -6.5t42 -13t46 -21.5q71 -35 99 -35t39.5 15t17.5 54h166q0 -110 -54 -184t-149 -74q-65 0 -149 41z" />
    <glyph glyph-name="macron.caps" horiz-adv-x="876" 
d="M225 1567v190h559v-190h-559z" />
    <glyph glyph-name="breve.caps" horiz-adv-x="952" 
d="M510 1526q-128 0 -207 70t-96 198h194q8 -38 35.5 -61t73.5 -23q83 0 108 84h193q-17 -128 -95 -198t-206 -70z" />
    <glyph glyph-name="dotaccent.caps" horiz-adv-x="671" 
d="M211 1559v235h250v-235h-250z" />
    <glyph glyph-name="ring.caps" horiz-adv-x="829" 
d="M506 1511q-92 0 -155.5 65.5t-63.5 158.5q0 91 65 155t156 64q92 0 156.5 -64t64.5 -155q0 -93 -65 -158.5t-158 -65.5zM426 1735q0 -36 22.5 -60t57.5 -24t58.5 23.5t23.5 60.5q0 33 -23.5 56.5t-58.5 23.5t-57.5 -23.5t-22.5 -56.5z" />
    <glyph glyph-name="cedilla.caps" horiz-adv-x="755" 
d="M172 -334l190 234h300l-156 -234h-334z" />
    <glyph glyph-name="ogonek.caps" horiz-adv-x="677" 
d="M410 -100l190 -234h-334l-155 234h299z" />
    <glyph glyph-name="hungarumlaut.caps" horiz-adv-x="1253" 
d="M459 1559h-318l215 235h389zM969 1559h-318l215 235h389z" />
    <glyph glyph-name="dieresis.caps" horiz-adv-x="1005" 
d="M213 1544v244h254v-244h-254zM614 1544v244h252v-244h-252z" />
    <glyph glyph-name="horn" horiz-adv-x="540" 
d="M508 1464l-174 -391h-266l112 391h328z" />
    <glyph glyph-name="zero.plf" horiz-adv-x="1306" 
d="M653 236q126 0 175 112.5t49 370.5q0 270 -49 392t-175 122t-174.5 -121.5t-48.5 -392.5q0 -258 48.5 -370.5t174.5 -112.5zM653 1499q133 0 234 -41t163 -109.5t101 -170t53.5 -210t14.5 -241.5q0 -143 -15.5 -254t-54 -208.5t-102 -160.5t-162.5 -99t-232 -36t-232 36
t-162 99t-101.5 160.5t-54 208.5t-15.5 254q0 94 7 175t25 161t46.5 144t72.5 119.5t102 93t137 58.5t175 21z" />
    <glyph glyph-name="one.plf" horiz-adv-x="917" 
d="M403 979h-358v231h33q146 0 238 65.5t128 188.5h287v-1464h-328v979z" />
    <glyph glyph-name="two.plf" horiz-adv-x="1261" 
d="M1169 0h-1085v264q186 143 487 387q132 109 188 198.5t56 180.5q0 87 -50 134.5t-138 47.5q-102 0 -152.5 -62.5t-50.5 -170.5h-328q0 239 143 379.5t392 140.5q245 0 387.5 -121t142.5 -325q0 -288 -338 -545q-66 -51 -168.5 -125.5t-154.5 -118.5q47 2 121 2h548v-266z
" />
    <glyph glyph-name="three.plf" horiz-adv-x="1265" 
d="M61 444h332q8 -103 66 -157t162 -54q110 0 166.5 55t56.5 150q0 107 -74.5 156t-220.5 49h-27v260q133 0 201 43t68 139q0 69 -48.5 110.5t-126.5 41.5q-79 0 -129 -43.5t-51 -130.5h-317q5 198 142 317t368 119q224 0 359.5 -109t135.5 -288q0 -126 -59 -196.5
t-174 -110.5v-4q295 -93 295 -373q0 -204 -152.5 -327.5t-412.5 -123.5q-256 0 -406 126t-154 351z" />
    <glyph glyph-name="four.plf" horiz-adv-x="1323" 
d="M1255 551v-266h-206v-285h-318v285h-684v254l623 925h379v-913h206zM346 549q55 2 180 2h205v346q0 2 6 254h-4q-88 -154 -153 -254l-111 -168q-8 -13 -36 -54t-42 -63q-8 -14 -25 -36.5t-20 -26.5z" />
    <glyph glyph-name="five.plf" horiz-adv-x="1251" 
d="M68 424h350q12 -85 67 -135.5t146 -50.5q103 0 161 65t58 176q0 106 -58 171t-157 65q-127 0 -197 -119l-325 53l90 815h878v-270h-618q-5 -33 -18.5 -136.5t-22.5 -164.5h2q117 88 285 88q210 0 343.5 -132.5t133.5 -354.5q0 -240 -152.5 -380.5t-406.5 -140.5
q-239 0 -390.5 124t-168.5 327z" />
    <glyph glyph-name="six.plf" horiz-adv-x="1288" 
d="M1184 1118l-340 2q-21 63 -60.5 96t-117.5 33q-110 0 -172 -105.5t-62 -279.5q40 40 120 73.5t191 33.5q201 0 333 -128t132 -358q0 -227 -148.5 -369.5t-406.5 -142.5q-275 0 -421 181t-146 518q0 197 35 349.5t106.5 262t186 166.5t268.5 57q112 0 202.5 -31.5
t150.5 -87t97 -123.5t52 -147zM655 711q-96 0 -157.5 -63.5t-61.5 -170.5t61.5 -171t159.5 -64t159 63t61 168q0 109 -62 173.5t-160 64.5z" />
    <glyph glyph-name="seven.plf" horiz-adv-x="1116" 
d="M575 0h-360q201 622 539 1190q-2 0 -2 2q-41 -3 -77 -3.5t-88.5 0.5t-80.5 1h-457v274h1038v-262q-262 -440 -512 -1202z" />
    <glyph glyph-name="eight.plf" horiz-adv-x="1271" 
d="M637 -33q-254 0 -406.5 119t-152.5 320q0 272 299 374v4q-242 85 -242 324q0 168 138.5 279.5t359.5 111.5q225 0 364.5 -111t139.5 -280q0 -239 -242 -324v-4q299 -109 299 -374q0 -200 -152 -319.5t-405 -119.5zM635 645q-102 0 -164.5 -58.5t-62.5 -152.5
q0 -89 62 -147t165 -58q102 0 162.5 56.5t60.5 148.5q0 94 -61.5 152.5t-161.5 58.5zM637 1241q-88 0 -140.5 -49t-52.5 -123q0 -73 53.5 -122.5t139.5 -49.5t138 49t52 123t-52 123t-138 49z" />
    <glyph glyph-name="nine.plf" horiz-adv-x="1288" 
d="M98 348l346 -2q21 -63 60.5 -96t118.5 -33q111 0 171 101t60 280q-40 -40 -119.5 -73t-189.5 -33q-130 0 -233.5 54.5t-166.5 167t-63 267.5q0 108 38 201.5t107.5 162t174.5 107.5t233 39q275 0 421 -182.5t146 -526.5q0 -825 -598 -825q-112 0 -203.5 32t-151.5 88
t-98 124t-53 147zM633 758q96 0 157.5 63t61.5 170t-61.5 171.5t-159.5 64.5q-97 0 -158 -63.5t-61 -168.5q0 -109 61.5 -173t159.5 -64z" />
    <glyph glyph-name="Gtilde" horiz-adv-x="1619" 
d="M823 1491q266 0 446.5 -132.5t250.5 -369.5l-367 -2q-100 223 -336 223q-183 0 -289 -130t-106 -343q0 -220 107 -350.5t296 -130.5q157 0 246.5 77.5t116.5 203.5q-66 -2 -189 -2h-262v272h783v-807h-314v78q0 18 1 45t1 37h-2q-66 -83 -183 -135t-269 -52
q-199 0 -354 95t-241.5 268t-86.5 397q0 341 205 549.5t546 208.5zM809 1591q-32 17 -43 22t-26 10t-27 5q-52 0 -58 -63h-172q0 104 57 177t158 73q39 0 68.5 -10t73.5 -31q71 -35 98 -35q28 0 39.5 15t17.5 54h166q0 -110 -54 -184t-149 -74q-65 0 -149 41z" />
    <glyph glyph-name="gtilde" horiz-adv-x="1316" 
d="M94 -39h336q30 -67 79 -99t126 -32q142 0 200.5 93t53.5 286h-4q-44 -72 -132.5 -118t-207.5 -46q-215 0 -345 145t-130 383q0 235 135.5 384t343.5 149q123 0 208.5 -47t127.5 -119q-4 29 -4 135h309v-907q0 -280 -145.5 -424.5t-421.5 -144.5q-227 0 -361.5 96.5
t-167.5 265.5zM649 862q-111 0 -176 -80t-65 -211q0 -126 64 -204t177 -78q107 0 173.5 78t66.5 215q0 124 -65.5 202t-174.5 78zM678 1247q-32 17 -43 22t-26 10t-27 5q-52 0 -58 -63h-172q0 104 57 176.5t158 72.5q60 0 142 -40q71 -35 98 -35q28 0 39.5 15t17.5 54h166
q0 -110 -54 -184t-149 -74q-65 0 -149 41z" />
    <glyph glyph-name="Mcircumflex" horiz-adv-x="1964" 
d="M152 0v1464h538l180 -614q78 -274 119 -438h2l133 454l170 598h518v-1464h-315v684q0 277 8 485h-4q-33 -129 -115 -405l-225 -764h-350l-223 748q-48 157 -115 421h-4q6 -154 6 -473v-696h-323zM825 1794h328l217 -235h-280l-97 104l-98 -104h-281z" />
    <glyph glyph-name="mcircumflex" horiz-adv-x="1914" 
d="M1122 0h-319v520q0 179 -34.5 255.5t-129.5 76.5q-101 0 -147 -75t-46 -226v-551h-319v911q0 109 -2 164h305v-147q38 76 119 125t205 49q217 0 311 -180h4q44 74 132 127t220 53q79 0 144.5 -24t119 -76.5t83.5 -145t30 -219.5v-637h-319v520q0 179 -34.5 255.5
t-129.5 76.5q-101 0 -147 -75t-46 -226v-551zM823 1464h326l217 -243h-281l-96 104l-98 -104h-281z" />
    <glyph glyph-name="Mmacron" horiz-adv-x="1964" 
d="M152 0v1464h538l180 -614q78 -274 119 -438h2l133 454l170 598h518v-1464h-315v684q0 277 8 485h-4q-33 -129 -115 -405l-225 -764h-350l-223 748q-48 157 -115 421h-4q6 -154 6 -473v-696h-323zM711 1567v190h559v-190h-559z" />
    <glyph glyph-name="mmacron" horiz-adv-x="1914" 
d="M1122 0h-319v520q0 179 -34.5 255.5t-129.5 76.5q-101 0 -147 -75t-46 -226v-551h-319v911q0 109 -2 164h305v-147q38 76 119 125t205 49q217 0 311 -180h4q44 74 132 127t220 53q79 0 144.5 -24t119 -76.5t83.5 -145t30 -219.5v-637h-319v520q0 179 -34.5 255.5
t-129.5 76.5q-101 0 -147 -75t-46 -226v-551zM694 1241v191h559v-191h-559z" />
    <glyph glyph-name="Ncircumflex" horiz-adv-x="1570" 
d="M1419 1464v-1464h-428l-317 614q-178 352 -215 449h-2q4 -79 4 -465v-598h-309v1464h434l372 -733q33 -66 63 -130.5t57.5 -127.5t35.5 -80h2q-6 123 -6 424v647h309zM641 1794h328l217 -235h-281l-96 104l-98 -104h-281z" />
    <glyph glyph-name="ncircumflex" horiz-adv-x="1261" 
d="M446 0h-319v911q0 109 -2 164h305v-147q37 75 122 124.5t210 49.5q109 0 191 -44.5t130 -127.5q39 -66 50.5 -147t11.5 -232v-551h-320v520q0 171 -38 251.5t-138 80.5q-203 0 -203 -301v-551zM506 1464h325l218 -243h-281l-96 104l-99 -104h-280z" />
    <glyph glyph-name="Ndieresis" horiz-adv-x="1570" 
d="M1419 1464v-1464h-428l-317 614q-178 352 -215 449h-2q4 -79 4 -465v-598h-309v1464h434l372 -733q33 -66 63 -130.5t57.5 -127.5t35.5 -80h2q-6 123 -6 424v647h309zM492 1544v244h253v-244h-253zM893 1544v244h252v-244h-252z" />
    <glyph glyph-name="ndieresis" horiz-adv-x="1261" 
d="M446 0h-319v911q0 109 -2 164h305v-147q37 75 122 124.5t210 49.5q109 0 191 -44.5t130 -127.5q39 -66 50.5 -147t11.5 -232v-551h-320v520q0 171 -38 251.5t-138 80.5q-203 0 -203 -301v-551zM354 1221v243h254v-243h-254zM756 1221v243h252v-243h-252z" />
    <glyph glyph-name="Nmacron" horiz-adv-x="1570" 
d="M1419 1464v-1464h-428l-317 614q-178 352 -215 449h-2q4 -79 4 -465v-598h-309v1464h434l372 -733q33 -66 63 -130.5t57.5 -127.5t35.5 -80h2q-6 123 -6 424v647h309zM530 1567v190h560v-190h-560z" />
    <glyph glyph-name="nmacron" horiz-adv-x="1261" 
d="M446 0h-319v911q0 109 -2 164h305v-147q37 75 122 124.5t210 49.5q109 0 191 -44.5t130 -127.5q39 -66 50.5 -147t11.5 -232v-551h-320v520q0 171 -38 251.5t-138 80.5q-203 0 -203 -301v-551zM397 1241v191h559v-191h-559z" />
    <glyph glyph-name="Pmacron" horiz-adv-x="1304" 
d="M152 0v1464h438q106 0 155 -2q241 -7 373.5 -130t132.5 -337q0 -118 -42.5 -213.5t-123.5 -156.5q-81 -62 -190 -82.5t-285 -20.5h-123v-522h-335zM487 1180v-383h170q256 0 256 192q0 99 -63 145t-199 46h-164zM350 1567v190h559v-190h-559z" />
    <glyph glyph-name="pmacron" horiz-adv-x="1312" 
d="M127 1075h313q0 -25 -1 -62t-1 -50q48 57 133 100t203 43q212 0 341.5 -149.5t129.5 -409.5q0 -257 -133 -415.5t-352 -158.5q-211 0 -316 138q2 -63 2 -230v-250h-319v1444zM666 862q-109 0 -174.5 -85.5t-65.5 -227.5q0 -150 63 -239t177 -89q113 0 177 90t64 232
q0 143 -64 231t-177 88zM391 1241v191h559v-191h-559z" />
    <glyph glyph-name="registered.alt" horiz-adv-x="1685" 
d="M739 608v-319h-215v887h353q157 0 239 -56q101 -75 101 -207q0 -105 -55 -171.5t-138 -98.5l219 -354h-242l-186 319h-76zM739 999v-223h115q152 0 152 111q0 63 -40.5 87.5t-125.5 24.5h-101zM1614 737q0 -159 -60.5 -302t-164 -246t-247 -163.5t-302.5 -60.5
q-157 0 -299.5 61t-245 164t-163 246t-60.5 301q0 157 60 299.5t162.5 245.5t246 164t303.5 61q157 0 299.5 -61t245.5 -164t164 -245.5t61 -299.5zM1473 737q0 129 -50 246.5t-134.5 202.5t-201 135.5t-243.5 50.5q-130 0 -246.5 -50.5t-200.5 -135.5t-133 -202.5
t-49 -246.5q0 -173 83 -320t227.5 -233t316.5 -86t317.5 85.5t229.5 232.5t84 321z" />
    <glyph glyph-name="uni00AD.case" horiz-adv-x="854" 
d="M117 594v276h620v-276h-620z" />
    <glyph glyph-name="endash.case" horiz-adv-x="1212" 
d="M119 604v273h975v-273h-975z" />
    <glyph glyph-name="emdash.case" horiz-adv-x="1959" 
d="M119 604v273h1722v-273h-1722z" />
    <glyph glyph-name="hyphen.case" horiz-adv-x="854" 
d="M117 594v276h620v-276h-620z" />
    <glyph glyph-name="guillemotleft.case" horiz-adv-x="1120" 
d="M586 1092l-197 -383l197 -385h-295l-209 385l209 383h295zM1022 1092l-186 -383l186 -385h-291l-209 385l209 383h291z" />
    <glyph glyph-name="guillemotright.case" horiz-adv-x="1120" 
d="M731 709l-196 383h294l209 -383l-209 -385h-294zM285 709l-187 383h291l209 -383l-209 -385h-291z" />
    <glyph glyph-name="guilsinglleft.case" horiz-adv-x="679" 
d="M586 1092l-197 -383l197 -385h-295l-209 385l209 383h295z" />
    <glyph glyph-name="guilsinglright.case" horiz-adv-x="679" 
d="M291 709l-197 383h295l209 -383l-209 -385h-295z" />
    <glyph glyph-name="parenleft.case" horiz-adv-x="702" 
d="M70 715q0 327 149.5 581t396.5 361v-285q-262 -256 -262 -653q0 -403 262 -653v-285q-248 104 -397 356t-149 578z" />
    <glyph glyph-name="parenright.case" horiz-adv-x="702" 
d="M633 715q0 -326 -149.5 -578t-397.5 -356v285q262 250 262 653q0 397 -262 653v285q247 -107 397 -361t150 -581z" />
    <glyph glyph-name="bracketleft.case" horiz-adv-x="759" 
d="M686 72v-201h-504v1696h504v-199h-231v-1296h231z" />
    <glyph glyph-name="bracketright.case" horiz-adv-x="759" 
d="M74 -129v201h231v1296h-231v199h504v-1696h-504z" />
    <glyph glyph-name="braceleft.case" horiz-adv-x="714" 
d="M76 647v141q76 23 104.5 66t28.5 158v305q0 149 59 203.5t228 54.5q7 0 32.5 -1t40.5 -1h49v-189q-51 -3 -76.5 -16.5t-37.5 -47.5t-12 -101v-187q0 -112 -13.5 -169t-43 -86.5t-93.5 -55.5v-4q64 -26 93.5 -55.5t43 -86.5t13.5 -169v-195q0 -67 12.5 -100t37 -45
t76.5 -15v-188q-18 -2 -49 -2h-73q-169 0 -228 54.5t-59 203.5v305q0 80 -15 124t-40.5 63.5t-77.5 35.5z" />
    <glyph glyph-name="braceright.case" horiz-adv-x="714" 
d="M639 788v-141q-52 -16 -77.5 -35.5t-40.5 -63.5t-15 -124v-305q0 -149 -59 -203.5t-228 -54.5h-74q-31 0 -49 2v188q52 3 77 15t37.5 45.5t12.5 99.5v195q0 112 13.5 169t43 86.5t93.5 55.5v4q-64 26 -93.5 55.5t-43 86.5t-13.5 169v187q0 97 -26 128.5t-101 36.5v189h49
q15 0 40.5 1t33.5 1q169 0 228 -54.5t59 -203.5v-305q0 -115 28.5 -158t104.5 -66z" />
    <glyph glyph-name="bar.case" horiz-adv-x="649" 
d="M184 -25v1624h281v-1624h-281z" />
    <glyph glyph-name="minus.case" 
d="M109 602v275h1019v-275h-1019z" />
    <glyph glyph-name="multiply.case" 
d="M911 1221l191 -191l-293 -293l293 -293l-191 -190l-293 293l-292 -293l-191 190l293 293l-293 293l191 191l292 -293z" />
    <glyph glyph-name="plus.case" 
d="M96 633v266h385v389h275v-389h385v-266h-385v-389h-275v389h-385z" />
    <glyph glyph-name="less.case" 
d="M1034 1362v-307l-596 -281v-6l596 -283v-311l-891 471v242z" />
    <glyph glyph-name="equal.case" 
d="M109 825v275h1019v-275h-1019zM109 440v275h1019v-275h-1019z" />
    <glyph glyph-name="greater.case" 
d="M203 1055v307l891 -475v-242l-891 -471v311l596 283v6z" />
    <glyph glyph-name="at.case" horiz-adv-x="1669" 
d="M1098 1102h188l-90 -494q-14 -77 -14 -92q0 -45 47 -45q81 0 143 107t62 253q0 223 -152.5 365.5t-400.5 142.5q-177 0 -319 -81.5t-221 -223t-79 -313.5q0 -269 176.5 -440.5t456.5 -171.5q129 0 234.5 32t207.5 95l99 -109q-240 -178 -547 -178q-239 0 -424 99
t-286 274.5t-101 398.5q0 161 61 304t166.5 247t255 164.5t318.5 60.5q152 0 286 -48.5t229 -133t150 -204t55 -255.5q0 -232 -119.5 -389.5t-297.5 -157.5q-61 0 -103.5 27t-62.5 65q-96 -100 -244 -100q-149 0 -238.5 96.5t-89.5 261.5q0 123 50.5 229t144.5 171t211 65
q157 0 235 -120q0 13 6.5 54t6.5 44zM870 940q-100 0 -161.5 -83t-61.5 -195q0 -84 43 -134.5t121 -50.5q103 0 163 84t60 201q0 85 -42.5 131.5t-121.5 46.5z" />
    <glyph glyph-name="notequal.case" 
d="M111 834v266h489l74 149h284l-73 -149h245v-266h-374l-62 -127h436v-267h-565l-84 -174h-284l84 174h-170v267h299l61 127h-360z" />
    <glyph glyph-name="plusminus.case" 
d="M104 82v274h1020v-274h-1020zM96 756v266h385v287h275v-287h385v-266h-385v-287h-275v287h-385z" />
    <glyph glyph-name="lessequal.case" 
d="M152 82v274h890v-274h-890zM1042 1403v-307l-589 -178v-7l589 -180v-311l-890 368v242z" />
    <glyph glyph-name="greaterequal.case" 
d="M1087 356v-274h-890v274h890zM197 1096v307l890 -373v-242l-890 -368v311l589 180v7z" />
    <glyph glyph-name="logicalnot.case" 
d="M84 764v274h1034v-676h-297v402h-737z" />
    <glyph glyph-name="approxequal.case" 
d="M979 1130l182 -141q-147 -264 -332 -264q-55 0 -105.5 16.5t-129.5 53.5l-35 16q-5 2 -26.5 12.5t-27.5 13t-22.5 9.5t-25 9t-21.5 4.5t-24 2.5q-41 0 -75 -30t-75 -105l-182 141q148 265 332 265q55 0 105.5 -16.5t129.5 -53.5l35 -16q6 -3 31 -15t33 -15.5t26 -10.5
t30.5 -9t26.5 -2q41 0 75 30t75 105zM975 618l182 -141q-147 -264 -332 -264q-55 0 -105.5 16.5t-129.5 53.5l-35 16q-5 2 -26.5 12.5t-27.5 13t-22.5 9.5t-25 9t-21.5 4.5t-24 2.5q-41 0 -75 -30t-75 -105l-182 141q148 265 332 265q55 0 105.5 -16.5t129.5 -53.5l35 -16
q6 -3 31 -15t33 -15.5t26 -10.5t30.5 -9t26.5 -2q41 0 75 30t75 105z" />
    <glyph glyph-name="divide.case" 
d="M109 602v275h1019v-275h-1019zM463 197v299h311v-299h-311zM463 983v299h311v-299h-311z" />
    <glyph glyph-name="infinity.case" horiz-adv-x="1673" 
d="M449 1120q58 0 107.5 -13t104 -47t85 -57.5t98.5 -80.5q62 55 95.5 81.5t85 58.5t102 45t110.5 13q164 0 263 -107t99 -276q0 -71 -22.5 -137t-65.5 -120t-112.5 -86t-155.5 -32q-64 0 -120.5 16t-110 52t-85 62.5t-87.5 78.5q-52 -50 -89 -81t-88 -64t-106 -48.5
t-117 -15.5q-92 0 -163 32t-113 86t-63 119.5t-21 137.5q0 170 100.5 276.5t268.5 106.5zM1223 627q54 0 84 31t30 85q0 50 -30.5 82.5t-79.5 32.5q-83 0 -219 -119q39 -31 55.5 -43.5t48 -32.5t58 -28t53.5 -8zM459 627q22 0 46 7.5t39 14t45.5 28t38.5 27.5t44 35
q-66 57 -118.5 88t-98.5 31q-50 0 -80.5 -32.5t-30.5 -82.5q0 -54 30.5 -85t84.5 -31z" />
    <glyph glyph-name="zero.posf" horiz-adv-x="1310" 
d="M655 231q126 0 175 110.5t49 363.5q0 264 -49 383.5t-175 119.5t-174.5 -119t-48.5 -384q0 -254 48.5 -364t174.5 -110zM655 1470q133 0 234 -40t163 -107.5t101 -167t53.5 -205.5t14.5 -237q0 -140 -15.5 -248.5t-54 -204.5t-102 -158t-162.5 -97.5t-232 -35.5
t-232 35.5t-162 97.5t-102 158t-54 204.5t-15 248.5q0 108 10.5 199t34.5 179t66.5 155t103.5 118.5t149.5 78.5t200.5 27z" />
    <glyph glyph-name="one.posf" horiz-adv-x="919" 
d="M406 961h-359v225h33q145 0 237.5 64.5t128.5 185.5h287v-1436h-327v961z" />
    <glyph glyph-name="two.posf" horiz-adv-x="1263" 
d="M1169 0h-1085v260q66 48 125 93.5t99.5 77.5t118.5 94t144 114q132 105 188 193t56 178q0 85 -49.5 131.5t-138.5 46.5q-102 0 -152.5 -62t-50.5 -165h-328q2 237 142.5 373t392.5 136q245 0 387.5 -118t142.5 -320q0 -282 -338 -534q-73 -57 -173.5 -127.5
t-149.5 -110.5q47 2 121 2h548v-262z" />
    <glyph glyph-name="three.posf" horiz-adv-x="1267" 
d="M63 436h332q8 -100 66 -153.5t162 -53.5q110 0 166.5 54t56.5 147q0 106 -74.5 153.5t-220.5 47.5h-27v254q133 0 201 43t68 137q0 67 -48 107t-127 40t-129 -43t-51 -127h-317q5 194 142 311t368 117q223 0 359 -108.5t136 -282.5q0 -123 -59 -192t-174 -109v-4
q295 -93 295 -364q0 -200 -152.5 -321.5t-412.5 -121.5q-255 0 -404.5 124t-155.5 345z" />
    <glyph glyph-name="four.posf" horiz-adv-x="1325" 
d="M1257 541v-262h-206v-279h-318v279h-684v249l623 908h379v-895h206zM348 539q55 2 180 2h205v338q0 3 6 249h-4q-99 -166 -153 -249l-111 -164q-31 -47 -78 -113q-3 -4 -20 -26.5t-25 -36.5z" />
    <glyph glyph-name="five.posf" horiz-adv-x="1251" 
d="M68 416h350q12 -83 67 -133t146 -50q103 0 161 64.5t58 171.5q0 104 -58 167.5t-157 63.5q-128 0 -197 -116l-325 53l90 799h878v-267h-618q-5 -32 -18.5 -133.5t-22.5 -161.5h2q116 87 285 87q210 0 343.5 -130.5t133.5 -347.5q0 -236 -152.5 -373t-406.5 -137
q-239 0 -390.5 121.5t-168.5 321.5z" />
    <glyph glyph-name="six.posf" horiz-adv-x="1288" 
d="M1184 1096l-340 2q-21 62 -60 94.5t-118 32.5q-110 0 -172 -103t-62 -274q38 38 119.5 71t191.5 33q130 0 234 -53t167.5 -162.5t63.5 -261.5q0 -222 -148.5 -362t-406.5 -140q-275 0 -421 177.5t-146 508.5q0 154 22 280.5t68 227.5t116 170t168.5 105.5t221.5 36.5
q112 0 202.5 -31.5t150.5 -86t97 -121t52 -144.5zM655 696q-95 0 -157 -62t-62 -165q0 -105 61.5 -168t159.5 -63t159 62t61 165q0 107 -61.5 169t-160.5 62z" />
    <glyph glyph-name="seven.posf" horiz-adv-x="1122" 
d="M578 0h-361q200 606 539 1167q-2 0 -2 2q-41 -3 -77 -3.5t-88.5 0.5t-80.5 1h-457v269h1039v-258q-260 -425 -512 -1178z" />
    <glyph glyph-name="eight.posf" horiz-adv-x="1275" 
d="M639 -33q-254 0 -406.5 117t-152.5 313q0 267 299 369v2q-242 85 -242 317q0 165 138.5 275t359.5 110q225 0 364.5 -109.5t139.5 -275.5q0 -232 -242 -317v-2q299 -109 299 -369q0 -196 -152 -313t-405 -117zM637 633q-102 0 -164.5 -57t-62.5 -150q0 -88 62 -144.5
t165 -56.5q101 0 162 56t61 145q0 92 -61.5 149.5t-161.5 57.5zM639 1217q-89 0 -141 -47t-52 -121q0 -73 53.5 -121.5t139.5 -48.5t138 48t52 122q0 73 -52 120.5t-138 47.5z" />
    <glyph glyph-name="nine.posf" horiz-adv-x="1288" 
d="M98 342l346 -2q21 -62 60.5 -94.5t118.5 -32.5q111 0 171 99.5t60 273.5q-122 -105 -309 -105q-200 0 -331.5 127.5t-131.5 352.5q0 220 148.5 360.5t404.5 140.5q275 0 421 -179t146 -517q0 -809 -598 -809q-112 0 -203.5 31.5t-151.5 86.5t-98 122.5t-53 144.5z
M633 743q95 0 157 62.5t62 165.5q0 105 -61.5 168t-159.5 63t-158.5 -62t-60.5 -165q0 -107 61.5 -169.5t159.5 -62.5z" />
    <glyph glyph-name="brokenbar.case" horiz-adv-x="649" 
d="M184 877v620h281v-620h-281zM184 -127v621h281v-621h-281z" />
    <glyph glyph-name="idotaccent" horiz-adv-x="573" 
d="M127 1202v262h319v-262h-319zM446 0h-319v1075h319v-1075z" />
    <glyph glyph-name="zero.tosf" 
d="M618 231q122 0 171 111t49 363q0 264 -48.5 383.5t-171.5 119.5t-171 -119.5t-48 -383.5q0 -254 47.5 -364t171.5 -110zM618 1470q131 0 229.5 -40t159.5 -107.5t98.5 -167t51.5 -205.5t14 -237q0 -140 -15 -248.5t-52.5 -204.5t-99.5 -158t-159 -97.5t-227 -35.5
t-227 35.5t-158.5 97.5t-99 158t-52.5 204.5t-15 248.5q0 131 14 237t51.5 206t98 166.5t159 107t229.5 40.5z" />
    <glyph glyph-name="one.tosf" 
d="M563 961h-352v225h33q141 0 233 65t125 185h283v-1436h-322v961z" />
    <glyph glyph-name="two.tosf" 
d="M1147 0h-1065v260q166 126 479 379q130 105 184 193t54 178q0 85 -49 131.5t-136 46.5q-100 0 -149 -61.5t-49 -165.5h-322q0 236 139.5 372.5t384.5 136.5q241 0 381 -118.5t140 -319.5q0 -153 -86.5 -282t-245.5 -252q-71 -55 -169.5 -126t-148.5 -112q47 2 119 2h539
v-262z" />
    <glyph glyph-name="three.tosf" 
d="M57 436h326q8 -100 64.5 -153.5t158.5 -53.5q108 0 163.5 54t55.5 147q0 105 -73 153t-215 48h-27v254q131 0 196.5 43t65.5 137q0 67 -46 107t-124 40t-126.5 -43t-49.5 -127h-311q5 194 139.5 311t359.5 117q219 0 352.5 -108.5t133.5 -282.5q0 -123 -58.5 -192
t-171.5 -109v-4q291 -98 291 -364q0 -200 -149.5 -321.5t-405.5 -121.5q-251 0 -398 124t-151 345z" />
    <glyph glyph-name="four.tosf" 
d="M1200 541v-262h-203v-279h-311v279h-670v249l611 908h370v-895h203zM352 602l-43 -63q55 2 176 2h201v338q0 3 6 249h-4q-52 -94 -149 -249l-109 -164q-31 -47 -78 -113z" />
    <glyph glyph-name="five.tosf" 
d="M70 416h344q13 -83 66.5 -133t142.5 -50q101 0 158 64.5t57 171.5q0 104 -57 167.5t-154 63.5q-131 0 -193 -116l-319 53l88 799h862v-267h-606q-5 -32 -18.5 -133.5t-22.5 -161.5h2q113 87 278 87q206 0 337.5 -130.5t131.5 -347.5q0 -236 -149.5 -373t-399.5 -137
q-235 0 -383 121.5t-165 321.5z" />
    <glyph glyph-name="six.tosf" 
d="M1147 1098l-334 2q-21 62 -59.5 94.5t-114.5 32.5q-108 0 -168.5 -103t-60.5 -274q39 39 118 71.5t187 32.5q128 0 230 -53t164 -162.5t62 -261.5q0 -222 -145.5 -362t-398.5 -140q-268 0 -412.5 178.5t-144.5 508.5q0 193 34 342.5t104.5 257t182.5 163.5t264 56
q110 0 198.5 -31.5t147 -86t95 -121t51.5 -144.5zM629 698q-94 0 -154.5 -62t-60.5 -165q0 -104 61 -167.5t156 -63.5t155 62t60 165q0 107 -60.5 169t-156.5 62z" />
    <glyph glyph-name="seven.tosf" 
d="M637 0h-354q189 590 528 1167q-2 0 -2 2q-40 -3 -75.5 -3.5t-86.5 0.5t-78 1h-448v269h1018v-258q-268 -454 -502 -1178z" />
    <glyph glyph-name="eight.tosf" 
d="M618 -33q-250 0 -399 116.5t-149 313.5q0 267 295 369v2q-238 84 -238 317q0 165 135 275t352 110q222 0 358 -109.5t136 -275.5q0 -233 -238 -317v-2q148 -55 221.5 -145.5t73.5 -223.5q0 -196 -149 -313t-398 -117zM616 633q-100 0 -161.5 -57.5t-61.5 -149.5
q0 -88 60.5 -144.5t162.5 -56.5q99 0 159.5 56t60.5 145q0 92 -61 149.5t-159 57.5zM618 1217q-86 0 -137 -47t-51 -121q0 -73 51.5 -121.5t136.5 -48.5t136 48t51 122q0 73 -51 120.5t-136 47.5z" />
    <glyph glyph-name="nine.tosf" 
d="M84 350l340 -2q21 -62 59.5 -94.5t114.5 -32.5q109 0 168 99.5t59 273.5q-44 -40 -120.5 -72.5t-182.5 -32.5q-128 0 -229.5 54t-163 164.5t-61.5 261.5q0 221 145.5 361t396.5 140q269 0 413 -179t144 -517q0 -809 -587 -809q-89 0 -165 21t-130.5 57t-96.5 85.5
t-67 104.5t-37 117zM608 752q94 0 154.5 62t60.5 165q0 104 -61 167.5t-156 63.5t-155 -62t-60 -165q0 -107 60.5 -169t156.5 -62z" />
    <glyph glyph-name="a.sub" horiz-adv-x="880" 
d="M811 -252h-221q-4 70 -4 82q-45 -47 -99.5 -72.5t-150.5 -25.5q-134 0 -214.5 63t-80.5 178q0 56 26.5 100.5t68 73t104 49.5t123 31.5t137.5 18.5l69 6q-5 82 -35 122t-94 40q-56 0 -88.5 -30.5t-38.5 -82.5h-235q11 127 103 202t259 75q185 0 274 -83.5t89 -281.5v-285
q0 -96 8 -180zM567 104l-32 -4q-124 -18 -184 -45.5t-60 -72.5q0 -41 32.5 -66t86.5 -25q154 0 157 197v16z" />
    <glyph glyph-name="b.sub" horiz-adv-x="980" 
d="M315 -252h-229v1098h244v-295q0 -17 -1 -41t-1 -35q85 103 243 103q162 0 259.5 -112t97.5 -308q0 -194 -100.5 -312t-266.5 -118q-164 0 -246 116v-96zM489 389q-78 0 -126 -62.5t-48 -166.5q0 -111 46.5 -177.5t127.5 -66.5q84 0 132.5 66.5t48.5 171.5
q0 106 -48 170.5t-133 64.5z" />
    <glyph glyph-name="c.sub" horiz-adv-x="919" 
d="M641 43h240q-30 -144 -135 -228.5t-269 -84.5q-194 0 -310 118t-116 308q0 191 118.5 311.5t309.5 120.5q161 0 266 -82.5t134 -231.5h-246q-35 123 -152 123q-82 0 -130 -64.5t-48 -174.5q0 -115 48.5 -175.5t135.5 -60.5q54 0 96 30.5t58 90.5z" />
    <glyph glyph-name="d.sub" horiz-adv-x="980" 
d="M895 -252h-231v96q-35 -49 -96.5 -82.5t-151.5 -33.5q-165 0 -264 113.5t-99 308.5q0 194 100.5 311t260.5 117q152 0 237 -103v371h244v-1098zM487 389q-81 0 -128.5 -65t-47.5 -170t48 -171.5t128 -66.5q85 0 132 66t47 178q0 104 -49.5 166.5t-129.5 62.5z" />
    <glyph glyph-name="e.sub" horiz-adv-x="935" 
d="M631 -4h250q-38 -122 -144.5 -194t-263.5 -72q-193 0 -307.5 116.5t-114.5 313.5q0 190 118 309t308 119q199 0 307.5 -121.5t108.5 -325.5q0 -5 -1 -14.5t-1 -13.5v-15h-598q10 -86 61 -136t125 -50q111 0 152 84zM299 252h348q-11 78 -55.5 121t-116.5 43
q-68 0 -116 -44.5t-60 -119.5z" />
    <glyph glyph-name="f.sub" horiz-adv-x="552" 
d="M150 553v37q0 133 77.5 202.5t218.5 69.5q58 0 82 -8v-180q-20 4 -41 4q-96 0 -96 -103v-22h137v-176h-137v-629h-241v629h-109v176h109z" />
    <glyph glyph-name="g.sub" horiz-adv-x="985" 
d="M74 -281h256q43 -98 149 -98q104 0 148 67.5t39 205.5q-35 -51 -100 -84t-152 -33q-162 0 -260.5 109t-98.5 288q0 177 103 288t260 111q173 0 246 -112q-3 14 -3.5 30t0.5 35.5t1 24.5h237v-680q0 -210 -110 -319t-318 -109q-170 0 -271 73t-126 203zM492 389
q-81 0 -130 -61t-49 -156q0 -94 48 -151.5t131 -57.5q77 0 126.5 57.5t49.5 159.5q0 93 -48.5 151t-127.5 58z" />
    <glyph glyph-name="h.sub" horiz-adv-x="929" 
d="M330 -252h-244v1100h244v-174q0 -135 -2 -203q75 104 235 104q166 0 242 -131q29 -51 38 -110.5t9 -171.5v-414h-244v391q0 128 -28 186t-103 58q-147 0 -147 -221v-414z" />
    <glyph glyph-name="i.sub" horiz-adv-x="415" 
d="M86 647v201h244v-201h-244zM330 -252h-244v807h244v-807z" />
    <glyph glyph-name="j.sub" horiz-adv-x="413" 
d="M328 553v-803q0 -165 -61 -232t-220 -67q-50 0 -108 10v170q14 -2 26 -2q66 0 93.5 30t27.5 95v799h242zM86 645v201h242v-201h-242z" />
    <glyph glyph-name="k.sub" horiz-adv-x="876" 
d="M330 -252h-244v1100h244v-645q186 264 239 352h297q-265 -316 -303 -371q34 -51 334 -436h-309q-76 115 -133 195q-104 148 -125 192v-387z" />
    <glyph glyph-name="l.sub" horiz-adv-x="415" 
d="M330 -252h-244v1100h244v-1100z" />
    <glyph glyph-name="m.sub" horiz-adv-x="1417" 
d="M834 -252h-244v391q0 133 -25 189.5t-94 56.5q-141 0 -141 -223v-414h-244v682q0 84 -2 125h233v-104q69 124 238 124q157 0 238 -133q30 55 97.5 94t164.5 39q60 0 109 -18.5t89.5 -58t63 -109t22.5 -164.5v-477h-243v391q0 133 -25 189.5t-94 56.5q-74 0 -108.5 -55.5
t-34.5 -167.5v-414z" />
    <glyph glyph-name="n.sub" horiz-adv-x="929" 
d="M330 -252h-244v682q0 84 -2 125h233v-104q30 53 91.5 88.5t152.5 35.5q166 0 244 -131q29 -51 38 -110.5t9 -171.5v-414h-244v391q0 126 -28.5 186t-102.5 60q-147 0 -147 -223v-414z" />
    <glyph glyph-name="o.sub" horiz-adv-x="972" 
d="M483 586q196 0 317.5 -120t121.5 -312q0 -191 -120 -308.5t-317 -117.5q-198 0 -316 117.5t-118 310.5q0 192 118.5 311t313.5 119zM481 395q-85 0 -132.5 -64.5t-47.5 -174.5q0 -112 46.5 -175t135.5 -63t136 62t47 174t-47.5 176.5t-137.5 64.5z" />
    <glyph glyph-name="p.sub" horiz-adv-x="980" 
d="M86 553h240q0 -13 -1 -30t-1 -23v-27q85 102 247 102t259.5 -111t97.5 -308q0 -193 -101 -311.5t-266 -118.5q-153 0 -233 96q2 -47 2 -164v-188h-244v1083zM489 391q-78 0 -126 -64t-48 -169q0 -110 46.5 -176t127.5 -66q85 0 133 66t48 172q0 105 -48.5 171t-132.5 66z
" />
    <glyph glyph-name="q.sub" horiz-adv-x="980" 
d="M653 551h242v-1083h-244v213q0 77 2 143q-84 -100 -233 -100q-166 0 -266.5 114.5t-100.5 306.5q0 197 100 312.5t261 115.5q156 0 239 -100v78zM487 389q-80 0 -128 -66t-48 -171q0 -106 47.5 -172t128.5 -66q85 0 132 65.5t47 176.5q0 105 -49.5 169t-129.5 64z" />
    <glyph glyph-name="r.sub" horiz-adv-x="604" 
d="M86 -252v662q0 94 -2 145h227q0 -29 -1 -59.5t-1 -38.5l2 -21q62 139 221 139q32 0 52 -4v-219q-30 6 -66 6q-37 0 -64.5 -7.5t-48 -20.5t-34 -36.5t-21.5 -49t-12.5 -66.5t-6 -80t-1.5 -96v-254h-244z" />
    <glyph glyph-name="s.sub" horiz-adv-x="866" 
d="M37 23h252q24 -119 153 -119q56 0 91.5 19.5t35.5 53.5q0 32 -30 48.5t-103 37.5l-102 27q-140 37 -203 91.5t-63 156.5q0 117 95.5 184.5t266.5 67.5q160 0 259 -66t112 -196h-238q-29 92 -139 92q-53 0 -82 -18t-29 -48q0 -12 4 -21.5t16 -18t22 -14.5t33 -13.5
t37.5 -11.5t47.5 -13l55 -14q162 -42 226.5 -97t64.5 -159q0 -122 -100 -191t-279 -69q-188 0 -286 71.5t-117 219.5z" />
    <glyph glyph-name="t.sub" horiz-adv-x="591" 
d="M147 379h-120v174h120v215h242v-215h148v-174h-148v-275q0 -116 15.5 -154t78.5 -38q15 0 43 4v-178q-31 -8 -96 -8q-153 0 -218 61t-65 223v365z" />
    <glyph glyph-name="u.sub" horiz-adv-x="921" 
d="M592 555h244v-682q0 -84 2 -125h-234v105q-74 -125 -237 -125q-168 0 -244 131q-28 51 -36.5 110.5t-8.5 171.5v414h244v-391q0 -129 26 -187.5t98 -58.5q77 0 111.5 55t34.5 168v414z" />
    <glyph glyph-name="v.sub" horiz-adv-x="845" 
d="M289 -252l-2 2q-44 119 -279 803h256l164 -559q9 40 23 92t25 91t31.5 107t31.5 105l49 164h252l-189 -537l-94 -268h-268z" />
    <glyph glyph-name="w.sub" horiz-adv-x="1310" 
d="M246 -252l-2 2q-13 52 -37.5 135.5t-75 260t-113.5 407.5h250q37 -150 66.5 -281.5t45 -203t19.5 -88.5q19 117 125 573h264l136 -573l125 573h245l-227 -805h-293l-61 246q-51 212 -60 258q-20 -116 -57 -258l-61 -246h-289z" />
    <glyph glyph-name="x.sub" horiz-adv-x="827" 
d="M-4 -252l272 418l-250 387h271q22 -43 65.5 -123t63.5 -119q106 208 127 242h260l-246 -387q150 -233 279 -418h-273q-136 244 -151 272l-152 -272h-266z" />
    <glyph glyph-name="y.sub" horiz-adv-x="841" 
d="M209 -530l-2 2l41 122q1 4 53 164q-259 674 -301 795h260q31 -99 88.5 -280.5t81.5 -256.5l152 537h249l-376 -1083h-246z" />
    <glyph glyph-name="z.sub" horiz-adv-x="817" 
d="M55 -252v176q220 243 394 453q-38 -4 -181 -4h-198v180h671v-176q-209 -232 -395 -451q68 2 199 2h219v-180h-709z" />
    <glyph glyph-name="zero.sub" horiz-adv-x="989" 
d="M494 -68q94 0 129.5 84t35.5 277q0 200 -36 290.5t-129 90.5t-128.5 -90t-35.5 -291q0 -191 36.5 -276t127.5 -85zM494 879q100 0 176 -31t123 -82.5t76 -128t40 -157.5t11 -181q0 -108 -11.5 -191.5t-40.5 -156.5t-77 -120.5t-122.5 -74t-174.5 -26.5
q-124 0 -208.5 39.5t-131 117.5t-65.5 176.5t-19 235.5q0 100 11 181t40 157.5t75.5 128t122 82.5t175.5 31z" />
    <glyph glyph-name="one.sub" horiz-adv-x="700" 
d="M305 479h-266v178h27q217 0 268 191h221v-1100h-250v731z" />
    <glyph glyph-name="two.sub" horiz-adv-x="956" 
d="M883 -252h-817v201q48 38 111.5 87t121.5 95t133 109q180 146 180 280q0 63 -36.5 98t-102.5 35q-75 0 -111 -47.5t-36 -126.5h-250q0 177 106 285t293 108q188 0 295 -89.5t107 -245.5q0 -117 -66.5 -216t-187.5 -194q-53 -38 -240 -178q33 2 86 2h414v-203z" />
    <glyph glyph-name="three.sub" horiz-adv-x="954" 
d="M49 90h252q6 -75 49.5 -116.5t116.5 -41.5q82 0 124 41.5t42 110.5q0 152 -217 152h-23v196q201 0 201 135q0 51 -35.5 81t-93.5 30q-57 0 -93.5 -33t-37.5 -96h-242q5 152 104.5 241t276.5 89q171 0 273 -82t102 -217q0 -94 -42.5 -147.5t-127.5 -84.5q40 -14 75.5 -35
t68.5 -54t52 -82.5t19 -108.5q0 -155 -113.5 -246.5t-312.5 -91.5q-192 0 -303 94t-115 266z" />
    <glyph glyph-name="four.sub" horiz-adv-x="1001" 
d="M948 164v-203h-155v-213h-242v213h-510v195l465 692h287v-684h155zM444 418l-84 -125q-78 -118 -88 -131q39 2 129 2h150v256q0 6 2 55t2 121l-4 2q-64 -115 -107 -180zM266 162l2 -4h2q0 2 2 4h-6z" />
    <glyph glyph-name="five.sub" horiz-adv-x="950" 
d="M55 68h267q11 -64 51 -102t104 -38q77 0 120.5 48.5t43.5 129.5q0 76 -44 125.5t-116 49.5q-97 0 -145 -88l-246 38l68 615h659v-207h-461q-11 -58 -28 -217q85 61 209 61q159 0 259.5 -99t100.5 -267q0 -180 -115.5 -284.5t-306.5 -104.5q-179 0 -293.5 93.5
t-126.5 246.5z" />
    <glyph glyph-name="six.sub" horiz-adv-x="974" 
d="M893 582l-258 2q-31 96 -131 96q-78 0 -124 -78t-48 -203q81 76 229 76q153 0 251.5 -94.5t98.5 -269.5q0 -172 -110 -277.5t-307 -105.5q-204 0 -315 135t-111 387q0 301 110 464t338 163q164 0 259.5 -84t117.5 -211zM496 279q-69 0 -114.5 -48.5t-45.5 -126.5
q0 -77 46 -125.5t116 -48.5t115.5 47.5t45.5 124.5q0 80 -46 128.5t-117 48.5z" />
    <glyph glyph-name="seven.sub" horiz-adv-x="851" 
d="M440 -252h-272q156 475 399 891q-49 -2 -129 -2h-395v211h782v-201q-193 -316 -385 -899z" />
    <glyph glyph-name="eight.sub" horiz-adv-x="962" 
d="M481 -270q-193 0 -306.5 88t-113.5 241q0 202 222 285q-179 60 -179 240q0 127 104 211t269 84q171 0 276 -83.5t105 -211.5q0 -180 -178 -244q221 -84 221 -281q0 -153 -113.5 -241t-306.5 -88zM479 238q-72 0 -119 -44.5t-47 -113.5q0 -64 46 -108t120 -44t120 42.5
t46 109.5q0 69 -46.5 113.5t-119.5 44.5zM481 682q-65 0 -103 -36t-38 -91t39.5 -91t101.5 -36q65 0 103.5 36t38.5 91t-38.5 91t-103.5 36z" />
    <glyph glyph-name="nine.sub" horiz-adv-x="974" 
d="M76 25l264 -2q15 -47 44 -72t85 -25q80 0 125 75t47 202q-31 -29 -89.5 -52.5t-137.5 -23.5q-152 0 -251.5 97.5t-99.5 271.5q0 167 112 275t304 108q207 0 317.5 -136.5t110.5 -394.5q0 -618 -450 -618q-85 0 -153.5 24t-113.5 66t-73 93.5t-41 111.5zM477 332
q70 0 116 46.5t46 123.5q0 79 -46 127.5t-118 48.5q-69 0 -114.5 -47.5t-45.5 -124.5q0 -80 46 -127t116 -47z" />
    <glyph glyph-name="zero.sup" horiz-adv-x="989" 
d="M494 803q94 0 129.5 83.5t35.5 276.5q0 200 -36 290.5t-129 90.5t-128.5 -90t-35.5 -291q0 -191 36.5 -275.5t127.5 -84.5zM494 1749q100 0 176 -31t123 -82.5t76 -128t40 -157.5t11 -181q0 -108 -11.5 -191.5t-40.5 -156.5t-77 -120.5t-122.5 -74t-174.5 -26.5
q-124 0 -208.5 39.5t-131 117.5t-65.5 176.5t-19 235.5q0 100 11 181t40 157.5t75.5 128t122 82.5t175.5 31z" />
    <glyph glyph-name="one.sup" horiz-adv-x="700" 
d="M305 1350h-266v178h27q217 0 268 190h221v-1100h-250v732z" />
    <glyph glyph-name="two.sup" horiz-adv-x="956" 
d="M883 618h-817v201q48 38 111.5 87t121.5 95t133 109q180 146 180 281q0 63 -36.5 98t-102.5 35q-75 0 -111 -47.5t-36 -126.5h-250q0 177 106 285t293 108q188 0 295 -90t107 -246q0 -117 -66.5 -216t-187.5 -194q-53 -38 -240 -178q33 2 86 2h414v-203z" />
    <glyph glyph-name="three.sup" horiz-adv-x="954" 
d="M49 961h252q6 -75 49.5 -116.5t116.5 -41.5q82 0 124 41t42 110q0 152 -217 152h-23v197q201 0 201 135q0 50 -35.5 80t-93.5 30q-57 0 -93.5 -33t-37.5 -96h-242q5 152 104.5 241t276.5 89q171 0 273 -82t102 -217q0 -94 -42.5 -147t-127.5 -84q40 -14 75.5 -35.5
t68.5 -54.5t52 -82.5t19 -108.5q0 -155 -113.5 -246.5t-312.5 -91.5q-192 0 -303 94.5t-115 266.5z" />
    <glyph glyph-name="four.sup" horiz-adv-x="1001" 
d="M948 1034v-203h-155v-213h-242v213h-510v195l465 692h287v-684h155zM444 1288l-84 -125q-78 -118 -88 -131q39 2 129 2h150v256q0 6 2 55t2 121l-4 2q-64 -115 -107 -180zM266 1032l2 -4h2q0 2 2 4h-6z" />
    <glyph glyph-name="five.sup" horiz-adv-x="946" 
d="M53 938h266q11 -63 51.5 -101t104.5 -38q77 0 120.5 48.5t43.5 129.5q0 76 -44 125t-116 49q-97 0 -145 -88l-246 39l68 614h659v-207h-461q-11 -58 -28 -217q87 62 209 62q159 0 259.5 -99.5t100.5 -267.5q0 -180 -115.5 -284.5t-306.5 -104.5q-179 0 -293.5 93.5
t-126.5 246.5z" />
    <glyph glyph-name="six.sup" horiz-adv-x="972" 
d="M893 1452l-258 2q-31 96 -131 96q-78 0 -124 -77.5t-48 -202.5q81 76 229 76q153 0 251.5 -95t98.5 -270q0 -172 -110 -277.5t-307 -105.5q-204 0 -315 135t-111 387q0 301 110 464t338 163q164 0 259.5 -84t117.5 -211zM496 1149q-69 0 -114.5 -48t-45.5 -126
q0 -77 46 -125.5t116 -48.5t115.5 47.5t45.5 124.5q0 80 -46 128t-117 48z" />
    <glyph glyph-name="seven.sup" horiz-adv-x="849" 
d="M440 618h-272q156 475 399 891q-49 -2 -129 -2h-395v211h782v-200q-192 -315 -385 -900z" />
    <glyph glyph-name="eight.sup" horiz-adv-x="962" 
d="M481 600q-193 0 -306.5 88.5t-113.5 241.5q0 201 222 284q-179 60 -179 240q0 127 104 211t269 84q171 0 276 -83.5t105 -211.5q0 -180 -178 -244q221 -84 221 -280q0 -153 -113.5 -241.5t-306.5 -88.5zM479 1108q-72 0 -119 -44.5t-47 -113.5q0 -64 46 -107.5t120 -43.5
t120 42t46 109q0 69 -46.5 113.5t-119.5 44.5zM481 1552q-65 0 -103 -36t-38 -91t39.5 -91t101.5 -36q65 0 103.5 36t38.5 91t-38.5 91t-103.5 36z" />
    <glyph glyph-name="nine.sup" horiz-adv-x="976" 
d="M78 895l264 -2q15 -46 44 -71t85 -25q80 0 125 74.5t47 201.5q-31 -29 -89.5 -52.5t-137.5 -23.5q-152 0 -251 97.5t-99 271.5q0 167 111.5 275t303.5 108q207 0 317.5 -136t110.5 -394q0 -619 -450 -619q-85 0 -153.5 24t-113.5 66t-73 93.5t-41 111.5zM479 1202
q70 0 116 46.5t46 123.5q0 79 -46 127.5t-118 48.5q-69 0 -114.5 -47.5t-45.5 -124.5q0 -80 46 -127t116 -47z" />
    <glyph glyph-name="a.sup" horiz-adv-x="880" 
d="M811 618h-221q-4 70 -4 82q-45 -47 -99.5 -72.5t-150.5 -25.5q-133 0 -214 63.5t-81 178.5q0 56 26.5 100.5t68 73t104 49t123 31t137.5 18.5l69 6q-5 82 -35 122t-94 40q-56 0 -88.5 -30.5t-38.5 -82.5h-235q11 127 103 202t259 75q185 0 274 -83.5t89 -281.5v-284
q0 -97 8 -181zM567 975l-32 -4q-124 -18 -184 -45.5t-60 -73.5q0 -41 32.5 -65.5t86.5 -24.5q73 0 114.5 45t42.5 151v17z" />
    <glyph glyph-name="b.sup" horiz-adv-x="980" 
d="M315 618h-229v1098h244v-295q0 -17 -1 -41t-1 -34q85 102 243 102q162 0 259.5 -112t97.5 -308q0 -194 -100.5 -312t-266.5 -118q-163 0 -246 117v-97zM489 1260q-78 0 -126 -63t-48 -167q0 -111 46.5 -177.5t127.5 -66.5q84 0 132.5 66.5t48.5 171.5q0 106 -48 171
t-133 65z" />
    <glyph glyph-name="c.sup" horiz-adv-x="919" 
d="M641 913h240q-30 -144 -135 -228.5t-269 -84.5q-194 0 -310 118t-116 308q0 191 118.5 311.5t309.5 120.5q161 0 266 -82t134 -231h-246q-35 123 -152 123q-82 0 -130 -65t-48 -175q0 -115 48 -175t136 -60q54 0 96 30t58 90z" />
    <glyph glyph-name="d.sup" horiz-adv-x="980" 
d="M895 618h-231q0 10 -0.5 31.5t-0.5 38t1 27.5q-35 -49 -96.5 -83t-151.5 -34q-165 0 -264 113.5t-99 308.5q0 194 100.5 311t260.5 117q152 0 237 -102v370h244v-1098zM487 1260q-81 0 -128.5 -65t-47.5 -171q0 -105 48 -171.5t128 -66.5q85 0 132 66t47 178
q0 104 -49.5 167t-129.5 63z" />
    <glyph glyph-name="e.sup" horiz-adv-x="933" 
d="M631 866h250q-38 -122 -144.5 -194t-263.5 -72q-193 0 -307.5 116.5t-114.5 313.5q0 190 118 309t308 119q199 0 307.5 -121t108.5 -325q0 -5 -1 -15t-1 -14v-14h-598q10 -86 61 -136.5t125 -50.5q111 0 152 84zM299 1122h348q-11 78 -55.5 121t-116.5 43
q-68 0 -116 -44.5t-60 -119.5z" />
    <glyph glyph-name="f.sup" horiz-adv-x="550" 
d="M147 1423v37q0 133 78 203t219 70q55 0 82 -9v-180q-20 4 -41 4q-96 0 -96 -102v-23h137v-176h-137v-629h-242v629h-108v176h108z" />
    <glyph glyph-name="g.sup" horiz-adv-x="983" 
d="M72 590h256q43 -98 149 -98q104 0 148 67t39 205q-35 -51 -100 -84t-152 -33q-162 0 -260.5 109t-98.5 288q0 177 103 288.5t260 111.5q172 0 246 -113q-3 15 -3 90h238v-680q0 -210 -110 -319t-318 -109q-170 0 -271 73t-126 204zM489 1260q-81 0 -129.5 -61.5
t-48.5 -156.5q0 -94 47.5 -151t130.5 -57q77 0 127 58t50 159q0 93 -49 151t-128 58z" />
    <glyph glyph-name="h.sup" horiz-adv-x="929" 
d="M330 618h-244v1100h244v-174q0 -135 -2 -203q76 105 235 105q166 0 242 -131q29 -51 38 -111t9 -172v-414h-244v392q0 128 -28 185.5t-103 57.5q-147 0 -147 -221v-414z" />
    <glyph glyph-name="i.sup" horiz-adv-x="415" 
d="M86 1518v200h244v-200h-244zM330 618h-244v807h244v-807z" />
    <glyph glyph-name="j.sup" horiz-adv-x="413" 
d="M328 1423v-802q0 -165 -61 -232t-220 -67q-50 0 -108 10v170q14 -2 26 -2q66 0 93.5 30t27.5 95v798h242zM86 1516v200h242v-200h-242z" />
    <glyph glyph-name="k.sup" horiz-adv-x="876" 
d="M330 618h-244v1100h244v-645q186 264 239 352h297q-269 -321 -303 -370q40 -59 334 -437h-309q-76 115 -133 195q-102 146 -125 193v-388z" />
    <glyph glyph-name="l.sup" horiz-adv-x="415" 
d="M330 618h-244v1100h244v-1100z" />
    <glyph glyph-name="m.sup" horiz-adv-x="1417" 
d="M834 618h-244v392q0 133 -25 189t-94 56q-141 0 -141 -223v-414h-244v682q0 84 -2 125h233v-104q69 125 238 125q157 0 238 -133q30 55 97.5 94t164.5 39q60 0 109 -18.5t89.5 -58t63 -109t22.5 -164.5v-478h-243v392q0 133 -25 189t-94 56q-74 0 -108.5 -55.5
t-34.5 -167.5v-414z" />
    <glyph glyph-name="n.sup" horiz-adv-x="929" 
d="M330 618h-244v682q0 84 -2 125h233v-104q30 53 91.5 89t152.5 36q166 0 244 -131q29 -51 38 -111t9 -172v-414h-244v392q0 126 -28.5 185.5t-102.5 59.5q-147 0 -147 -223v-414z" />
    <glyph glyph-name="o.sup" horiz-adv-x="972" 
d="M483 1456q196 0 317.5 -120t121.5 -312q0 -191 -120 -308.5t-317 -117.5q-198 0 -316 117.5t-118 310.5q0 192 118.5 311t313.5 119zM481 1266q-85 0 -132.5 -65t-47.5 -175q0 -112 46.5 -175t135.5 -63t136 62t47 174t-47.5 177t-137.5 65z" />
    <glyph glyph-name="p.sup" horiz-adv-x="980" 
d="M86 1423h240q0 -13 -1 -30t-1 -23v-27q35 43 97 73t150 30q162 0 259.5 -111.5t97.5 -308.5q0 -193 -101 -311.5t-266 -118.5q-153 0 -233 96q2 -47 2 -164v-188h-244v1083zM489 1262q-78 0 -126 -64t-48 -170q0 -110 46.5 -176t127.5 -66q85 0 133 66t48 172
q0 105 -48.5 171.5t-132.5 66.5z" />
    <glyph glyph-name="q.sup" horiz-adv-x="980" 
d="M653 1421h242v-1083h-244v213q0 77 2 143q-84 -100 -233 -100q-166 0 -266.5 115t-100.5 307q0 197 100 312.5t261 115.5q155 0 239 -101v78zM487 1260q-80 0 -128 -66.5t-48 -171.5q0 -106 47.5 -172t128.5 -66q85 0 132 65.5t47 176.5q0 105 -49.5 169.5t-129.5 64.5z
" />
    <glyph glyph-name="r.sup" horiz-adv-x="604" 
d="M86 618v662q0 94 -2 145h227q0 -29 -1 -59.5t-1 -38.5l2 -20q62 139 221 139q32 0 52 -4v-219q-30 6 -66 6q-51 0 -85.5 -15t-55 -40t-31 -73t-13.5 -98t-3 -131v-254h-244z" />
    <glyph glyph-name="s.sup" horiz-adv-x="864" 
d="M37 893h252q24 -119 153 -119q56 0 91.5 20t35.5 54q0 32 -30 48.5t-103 37.5l-102 27q-141 37 -203.5 91.5t-62.5 155.5q0 117 95.5 184.5t266.5 67.5q160 0 259 -66t112 -196h-238q-29 92 -139 92q-53 0 -82 -17.5t-29 -47.5q0 -12 4 -21.5t16 -18t22 -14.5t33 -13.5
t37.5 -11.5t47.5 -13l55 -15q162 -42 226.5 -97t64.5 -159q0 -122 -100 -191t-279 -69q-188 0 -286 71.5t-117 219.5z" />
    <glyph glyph-name="t.sup" horiz-adv-x="589" 
d="M145 1249h-120v174h120v215h242v-215h148v-174h-148v-274q0 -49 1 -75t6 -53t15 -38.5t27.5 -19t44.5 -7.5q15 0 43 4v-178q-31 -8 -96 -8q-153 0 -218 61t-65 224v364z" />
    <glyph glyph-name="u.sup" horiz-adv-x="921" 
d="M592 1425h244v-682q0 -84 2 -125h-234v105q-74 -125 -237 -125q-168 0 -244 131q-28 51 -36.5 111t-8.5 172v413h244v-391q0 -129 26 -187.5t98 -58.5q76 0 111 55.5t35 168.5v413z" />
    <glyph glyph-name="v.sup" horiz-adv-x="841" 
d="M287 618l-2 3q-49 133 -279 802h256l164 -559q9 40 23 92.5t25 90.5t32 108t31 105l49 163h252l-189 -536l-94 -269h-268z" />
    <glyph glyph-name="w.sup" horiz-adv-x="1308" 
d="M244 618l-2 3q-13 52 -37.5 135t-75 259.5t-113.5 407.5h250q37 -150 66.5 -281.5t45 -203t19.5 -88.5q19 117 125 573h264l136 -573l125 573h245l-227 -805h-293l-61 246q-51 212 -60 258q-20 -116 -57 -258l-62 -246h-288z" />
    <glyph glyph-name="x.sup" horiz-adv-x="825" 
d="M-6 618l272 418l-250 387h271q22 -43 65.5 -122.5t63.5 -118.5q103 202 127 241h260l-246 -387q150 -233 279 -418h-273q-126 225 -151 273l-152 -273h-266z" />
    <glyph glyph-name="y.sup" horiz-adv-x="841" 
d="M209 340l-2 2l41 123q1 4 53 164q-263 683 -301 794h260q30 -98 87.5 -278t82.5 -258l152 536h249l-376 -1083h-246z" />
    <glyph glyph-name="z.sup" horiz-adv-x="817" 
d="M57 618v177q230 254 394 452q-38 -4 -181 -4h-198v180h671v-176q-223 -246 -395 -450q68 2 199 2h219v-181h-709z" />
    <glyph glyph-name="zero.slashplf" horiz-adv-x="1306" 
d="M653 1499q133 0 234 -41t163 -109.5t101 -170t53.5 -210t14.5 -241.5q0 -143 -15.5 -254t-54 -208.5t-102 -160.5t-162.5 -99t-232 -36t-232 36t-162 99t-101.5 160.5t-54 208.5t-15.5 254q0 94 7 175t25 161t46.5 144t72.5 119.5t102 93t137 58.5t175 21zM653 236
q126 0 175 112.5t49 370.5q0 142 -15 250l-258 -729q9 -4 49 -4zM430 719q0 -95 6 -172l244 684q-8 2 -27 2q-126 0 -174.5 -121.5t-48.5 -392.5z" />
    <glyph glyph-name="zero.slash" 
d="M618 1499q133 0 234 -41t163 -109.5t101 -170t53.5 -210t14.5 -241.5q0 -143 -15.5 -254t-54 -208.5t-102 -160.5t-162.5 -99t-232 -36t-232 36t-162 99t-101.5 160.5t-54 208.5t-15.5 254q0 94 7 175t25 161t46.5 144t72.5 119.5t102 93t137 58.5t175 21zM618 236
q126 0 175 112.5t49 370.5q0 142 -15 250l-258 -729q9 -4 49 -4zM395 719q0 -95 6 -172l244 684q-8 2 -27 2q-126 0 -174.5 -121.5t-48.5 -392.5z" />
    </font>
</defs>
</svg>
