<?xml version="1.0" standalone="no"?>
<!DOCTYPE svg PUBLIC "-//W3C//DTD SVG 1.1//EN" "http://www.w3.org/Graphics/SVG/1.1/DTD/svg11.dtd" >
<svg xmlns="http://www.w3.org/2000/svg" xmlns:xlink="http://www.w3.org/1999/xlink" version="1.1">
<metadata>
Created by FontForge 20170731 at Thu Jul 20 12:08:55 2023
 By Aleksey,,,
(c)2013 Optimo.
</metadata>
<defs>
<font id="Plain-Medium" horiz-adv-x="1200" >
  <font-face 
    font-family="Plain Medium"
    font-weight="600"
    font-stretch="normal"
    units-per-em="2048"
    panose-1="2 11 0 4 2 2 2 2 2 4"
    ascent="1645"
    descent="-403"
    x-height="1075"
    cap-height="1464"
    bbox="-106 -553 2583 2206"
    underline-thickness="102"
    underline-position="-307"
    unicode-range="U+000D-FB02"
  />
<missing-glyph horiz-adv-x="1318" 
d="M102 492v100l633 633q28 -14 53 -47zM102 291v100l711 711v-31q0 -41 -27.5 -76.5t-84.5 -80.5t-76 -64q-47 -47 -74 -111zM213 0h-100l534 535h101l-191 -191h-47v-47zM657 344l560 559v-100l-459 -459h-101zM102 692v101l304 303l79 -4q0 60 41.5 106.5t112.5 46.5h16z
M815 0h-100l67 68h4v4l431 430v-101zM786 272l431 430v-100l-431 -430v100zM102 90v100l422 422v-77h23zM102 1194l402 401h100l-90 -90q-110 -29 -190 -109.5t-111 -191.5l-111 -110v100zM1100 987l117 117v-100l-443 -443v14q0 21 5.5 38.5t11.5 29.5t22.5 27.5t27.5 23.5
t37 26.5t40 29.5q3 3 21 16t28.5 21.5t29.5 25t32 33t27.5 38t25.5 48t18 55.5zM102 1395l201 200h100l-301 -301v101zM1016 0h-101l302 301v-100zM940 1430l166 165h100l-213 -213q-4 4 -23 22t-30 26zM102 893v100l115 115l94 -6zM1036 1325l181 180v-100l-144 -143
q-6 12 -37 63zM414 0h-101l197 197v-101zM809 1499l96 96h101l-127 -127q-38 20 -70 31zM1098 1186l119 119v-101l-107 -106q0 26 -12 88zM629 1520l76 75h100l-78 -77q-36 4 -57 4q-4 0 -13.5 -1t-13.5 -1h-14zM614 0h-100l68 68h100zM1217 100v-100h-101zM102 1595h101
l-101 -100v100z" />
    <glyph glyph-name="fi" unicode="fi" horiz-adv-x="1155" 
d="M195 0v889h-142v186h142v74q0 149 95 241.5t253 92.5q49 0 80 -6v-201q-32 4 -48 4q-62 0 -96.5 -30.5t-34.5 -90.5v-84h179v-186h-179v-889h-249zM762 1075h250v-1075h-250v1075zM758 1231v233h256v-233h-256z" />
    <glyph glyph-name="fl" unicode="fl" horiz-adv-x="1157" 
d="M195 0v889h-142v186h142v74q0 149 95 241.5t253 92.5q49 0 80 -6v-201q-32 4 -48 4q-62 0 -96.5 -30.5t-34.5 -90.5v-84h179v-186h-179v-889h-249zM758 0v1464h250v-1464h-250z" />
    <glyph glyph-name=".notdef" horiz-adv-x="1318" 
d="M102 492v100l633 633q28 -14 53 -47zM102 291v100l711 711v-31q0 -41 -27.5 -76.5t-84.5 -80.5t-76 -64q-47 -47 -74 -111zM213 0h-100l534 535h101l-191 -191h-47v-47zM657 344l560 559v-100l-459 -459h-101zM102 692v101l304 303l79 -4q0 60 41.5 106.5t112.5 46.5h16z
M815 0h-100l67 68h4v4l431 430v-101zM786 272l431 430v-100l-431 -430v100zM102 90v100l422 422v-77h23zM102 1194l402 401h100l-90 -90q-110 -29 -190 -109.5t-111 -191.5l-111 -110v100zM1100 987l117 117v-100l-443 -443v14q0 21 5.5 38.5t11.5 29.5t22.5 27.5t27.5 23.5
t37 26.5t40 29.5q3 3 21 16t28.5 21.5t29.5 25t32 33t27.5 38t25.5 48t18 55.5zM102 1395l201 200h100l-301 -301v101zM1016 0h-101l302 301v-100zM940 1430l166 165h100l-213 -213q-4 4 -23 22t-30 26zM102 893v100l115 115l94 -6zM1036 1325l181 180v-100l-144 -143
q-6 12 -37 63zM414 0h-101l197 197v-101zM809 1499l96 96h101l-127 -127q-38 20 -70 31zM1098 1186l119 119v-101l-107 -106q0 26 -12 88zM629 1520l76 75h100l-78 -77q-36 4 -57 4q-4 0 -13.5 -1t-13.5 -1h-14zM614 0h-100l68 68h100zM1217 100v-100h-101zM102 1595h101
l-101 -100v100z" />
    <glyph glyph-name=".null" horiz-adv-x="0" 
 />
    <glyph glyph-name="nonmarkingreturn" horiz-adv-x="682" 
 />
    <glyph glyph-name="NULL" horiz-adv-x="0" 
 />
    <glyph glyph-name="NULL" horiz-adv-x="0" 
 />
    <glyph glyph-name="CR" unicode="&#xd;" horiz-adv-x="0" 
 />
    <glyph glyph-name="space" unicode=" " horiz-adv-x="505" 
 />
    <glyph glyph-name="exclam" unicode="!" horiz-adv-x="626" 
d="M416 381h-205q-2 58 -8 193t-9.5 220.5t-6.5 214t-3 242.5v222h258v-222q0 -114 -3 -244t-6 -210.5t-9 -224t-8 -191.5zM182 0v254h264v-254h-264z" />
    <glyph glyph-name="quotedbl" unicode="&#x22;" horiz-adv-x="847" 
d="M338 924h-191q0 10 -13 249.5t-13 290.5h244q0 -51 -13.5 -290.5t-13.5 -249.5zM698 924h-190q0 10 -13.5 249.5t-13.5 290.5h244q0 -51 -13.5 -290.5t-13.5 -249.5z" />
    <glyph glyph-name="numbersign" unicode="#" 
d="M569 0l97 467h-234l-96 -467h-162l96 467h-211l31 154h211l51 245h-213l31 154h213l92 444h162l-92 -444h233l92 444h162l-92 -444h199l-31 -154h-199l-51 -245h201l-31 -154h-201l-96 -467h-162zM514 866l-51 -245h233l52 245h-234z" />
    <glyph glyph-name="dollar" unicode="$" 
d="M479 -240v234q-174 31 -279.5 143t-117.5 281h242q21 -101 93 -158t191 -57q117 0 181.5 57.5t64.5 157.5q0 24 -4 44.5t-15 37t-21 29t-31 25t-34.5 20t-43 18t-45.5 15.5t-52 16l-90 26q-191 53 -289 153t-98 265q0 147 95.5 256t252.5 143v230h246v-230
q149 -32 242 -134.5t110 -250.5h-233q-24 81 -87.5 127.5t-164.5 46.5q-92 0 -148.5 -49t-56.5 -125t50.5 -117t160.5 -77l70 -23q51 -17 84 -28.5t76 -29t71 -32t60.5 -35.5t53 -42t41.5 -49.5t32.5 -59.5t18.5 -70t7 -84q0 -169 -106.5 -287t-280.5 -151v-236h-246z" />
    <glyph glyph-name="percent" unicode="%" horiz-adv-x="1835" 
d="M416 662q-169 0 -257.5 109t-88.5 304q0 193 88 302.5t256 109.5t256 -110.5t88 -303.5q0 -196 -86.5 -303.5t-255.5 -107.5zM260 1071q0 -244 154 -244q83 0 118 63.5t35 180.5q0 122 -33.5 186t-119.5 64q-85 0 -119.5 -65t-34.5 -185zM551 0l561 1462h174l-559 -1462
h-176zM1423 -31q-169 0 -257.5 109.5t-88.5 304.5q0 193 88 302.5t256 109.5t256 -110.5t88 -303.5q0 -196 -86.5 -304t-255.5 -108zM1268 379q0 -244 153 -244q83 0 118.5 63.5t35.5 180.5q0 122 -34 186t-120 64q-85 0 -119 -64.5t-34 -185.5z" />
    <glyph glyph-name="ampersand" unicode="&#x26;" horiz-adv-x="1404" 
d="M1092 803l247 -19q-92 -234 -204 -413q44 -47 125.5 -136t101.5 -110q-31 -24 -94 -76t-94 -76q-128 133 -177 193q-163 -195 -409 -195q-222 0 -352 121.5t-130 315.5q0 268 318 432q-143 154 -143 307q0 152 104.5 252t278.5 100q160 0 263 -95t103 -239
q0 -229 -266 -372l141 -166q10 -13 33.5 -39t36.5 -43q75 147 117 258zM627 942l26 14q150 81 150 197q0 65 -40.5 103t-107.5 38q-63 0 -103 -39t-40 -102q0 -92 115 -211zM846 338q-31 31 -139 162l-148 174q-203 -101 -203 -262q0 -103 68 -165.5t172 -62.5
q161 0 250 154z" />
    <glyph glyph-name="quotesingle" unicode="'" horiz-adv-x="487" 
d="M338 924h-191q0 10 -13 249.5t-13 290.5h244q0 -51 -13.5 -290.5t-13.5 -249.5z" />
    <glyph glyph-name="parenleft" unicode="(" horiz-adv-x="681" 
d="M80 612q0 311 143.5 574t378.5 368v-235q-138 -138 -207 -309.5t-69 -395.5q0 -221 69 -391.5t207 -308.5v-236q-155 67 -275 213t-183.5 334.5t-63.5 386.5z" />
    <glyph glyph-name="parenright" unicode=")" horiz-adv-x="681" 
d="M602 612q0 -198 -63.5 -386.5t-183.5 -334.5t-275 -213v236q138 138 207 308.5t69 391.5q0 224 -69 395.5t-207 309.5v235q235 -105 378.5 -368t143.5 -574z" />
    <glyph glyph-name="asterisk" unicode="*" horiz-adv-x="935" 
d="M567 1464l-20 -264l244 103l61 -189l-258 -63l172 -199l-160 -117l-139 223l-137 -223l-160 117l170 201l-256 61l61 189l244 -101l-20 262h198z" />
    <glyph glyph-name="plus" unicode="+" 
d="M147 549v219h342v358h220v-358h344v-219h-344v-361h-220v361h-342z" />
    <glyph glyph-name="comma" unicode="," horiz-adv-x="546" 
d="M432 274l-182 -522h-221l147 522h256z" />
    <glyph glyph-name="hyphen" unicode="-" horiz-adv-x="815" 
d="M129 494v215h557v-215h-557z" />
    <glyph glyph-name="period" unicode="." horiz-adv-x="522" 
d="M129 0v274h264v-274h-264z" />
    <glyph glyph-name="slash" unicode="/" horiz-adv-x="927" 
d="M49 -215l594 1679h238l-590 -1679h-242z" />
    <glyph glyph-name="zero" unicode="0" 
d="M600 1493q124 0 217 -43t149 -113t90.5 -172t47 -206t12.5 -230q0 -136 -13.5 -245t-49 -207.5t-92.5 -164.5t-148.5 -104.5t-212.5 -38.5t-212.5 38.5t-148.5 104.5t-92.5 164.5t-49 207.5t-13.5 245q0 126 12.5 230t47 206t90.5 172t149 113t217 43zM600 1266
q-50 0 -89.5 -19t-66 -56.5t-44 -84t-27 -110.5t-13.5 -126.5t-4 -140.5q0 -99 6.5 -177t23 -148t43.5 -116t70 -73t101 -27q72 0 121.5 39t75.5 115.5t36.5 168.5t10.5 218q0 78 -4 140.5t-13.5 126.5t-27 110.5t-44 84t-66 56.5t-89.5 19z" />
    <glyph glyph-name="one" unicode="1" 
d="M575 0v1047h-352v194q191 5 277.5 54t105.5 169h225v-1464h-256z" />
    <glyph glyph-name="two" unicode="2" 
d="M1079 0h-958v213l151 137l283 260q141 131 202.5 228.5t61.5 199.5q0 105 -60 167.5t-165 62.5q-118 0 -178 -75t-62 -198h-243q0 3 -1 7.5t-1 7.5q0 209 128.5 346t356.5 137q223 0 354 -126.5t131 -322.5q0 -89 -32.5 -177t-79.5 -155.5t-120 -142.5t-133.5 -125.5
t-141 -117.5t-123.5 -107h630v-219z" />
    <glyph glyph-name="three" unicode="3" 
d="M82 422h250q13 -109 78 -171.5t182 -62.5q113 0 181.5 72.5t68.5 179.5q0 127 -82.5 189.5t-216.5 62.5h-58v205q289 0 289 205q0 88 -52.5 133t-135.5 45q-81 0 -134 -47.5t-63 -132.5h-235q5 173 124 283t314 110q197 0 315.5 -106t118.5 -277q0 -100 -52.5 -176.5
t-144.5 -126.5q130 -43 200.5 -141t70.5 -234q0 -205 -139.5 -332t-374.5 -127q-224 0 -358 125.5t-146 323.5z" />
    <glyph glyph-name="four" unicode="4" 
d="M1130 514v-215h-192v-299h-231v299h-664v201l438 630q223 329 228 334h229v-950h192zM711 1137h-4q-74 -126 -160 -256l-96 -142q-87 -128 -103 -149q-34 -47 -51 -76h410v360q0 42 2 135t2 128z" />
    <glyph glyph-name="five" unicode="5" 
d="M141 674q19 159 51 443.5t39 346.5h775v-225h-574q-8 -42 -15.5 -119.5t-10.5 -101.5l-17 -117q116 76 254 76q207 0 336 -137t129 -355q0 -224 -143 -370t-371 -146q-214 0 -350.5 119.5t-157.5 312.5h252q18 -98 81.5 -157.5t168.5 -59.5q126 0 196 80.5t70 212.5
q0 122 -72 203.5t-192 81.5q-151 0 -219 -125q-165 29 -230 37z" />
    <glyph glyph-name="six" unicode="6" 
d="M1102 1087h-252q-14 78 -71 133.5t-152 55.5q-76 0 -133.5 -35.5t-92.5 -98.5t-53 -141.5t-20 -173.5h4q117 129 327 129q207 0 335 -133.5t128 -351.5q0 -219 -142 -359.5t-368 -140.5q-266 0 -399 179.5t-133 521.5q0 395 137.5 608t411.5 213q203 0 325 -110.5
t148 -295.5zM608 750q-111 0 -185.5 -77.5t-74.5 -197.5q0 -123 73 -199.5t189 -76.5q110 0 184 77.5t74 194.5q0 118 -75 198.5t-185 80.5z" />
    <glyph glyph-name="seven" unicode="7" 
d="M535 0h-281q113 291 307 719q17 37 58 125.5t64 138t58 121t66 129.5v2q-39 -2 -113 -2h-538v231h917v-213v-4l-49 -102q-284 -591 -489 -1145z" />
    <glyph glyph-name="eight" unicode="8" 
d="M340 793q-193 119 -193 319q0 161 124.5 271t328.5 110q205 0 329 -109.5t124 -273.5q0 -210 -193 -317q123 -56 189.5 -153.5t66.5 -229.5q0 -198 -144 -320.5t-372 -122.5t-371 122t-143 321q0 132 65.5 230.5t188.5 152.5zM600 680q-116 0 -186 -70.5t-70 -181.5
q0 -106 69.5 -177t186.5 -71q115 0 184.5 70.5t69.5 177.5q0 112 -69 182t-185 70zM600 1274q-95 0 -152 -55.5t-57 -137.5q0 -84 56.5 -140t152.5 -56t152.5 56t56.5 140q0 82 -57 137.5t-152 55.5z" />
    <glyph glyph-name="nine" unicode="9" 
d="M92 375h256q13 -79 70 -133t155 -54q276 0 295 459h-4q-46 -55 -130 -95t-204 -40q-201 0 -327.5 134.5t-126.5 346.5q0 217 141.5 358.5t366.5 141.5q263 0 398.5 -182.5t135.5 -519.5q0 -399 -136 -610.5t-411 -211.5q-204 0 -329 110.5t-150 295.5zM588 1270
q-111 0 -184.5 -77t-73.5 -194q0 -120 73.5 -198t186.5 -78q111 0 184.5 75.5t73.5 194.5q0 124 -72 200.5t-188 76.5z" />
    <glyph glyph-name="colon" unicode=":" horiz-adv-x="522" 
d="M129 0v274h264v-274h-264zM129 729v275h264v-275h-264z" />
    <glyph glyph-name="semicolon" unicode=";" horiz-adv-x="591" 
d="M180 729v275h264v-275h-264zM455 274l-189 -540h-221l154 540h256z" />
    <glyph glyph-name="less" unicode="&#x3c;" 
d="M168 547v215q431 223 811 426v-256q-470 -219 -563 -266v-7q155 -78 563 -270v-262q-121 64 -256.5 134.5t-298 154t-256.5 131.5z" />
    <glyph glyph-name="equal" unicode="=" 
d="M147 391v215h906v-215h-906zM147 721v215h906v-215h-906z" />
    <glyph glyph-name="greater" unicode="&#x3e;" 
d="M1032 762v-215q-94 -48 -256.5 -131.5t-298 -154t-256.5 -134.5v262q408 192 563 270v7q-93 47 -563 266v256q380 -203 811 -426z" />
    <glyph glyph-name="question" unicode="?" horiz-adv-x="1075" 
d="M649 0h-262v272h262v-272zM637 399h-240q0 165 32.5 246t129.5 158q40 33 66 57.5t56 60.5t45 76t15 84q0 88 -55.5 140.5t-153.5 52.5q-103 0 -158 -65t-57 -173h-249q0 201 127.5 329t345.5 128q209 0 329.5 -117.5t120.5 -296.5q0 -124 -57 -211.5t-160 -169.5
q-76 -63 -106.5 -119.5t-30.5 -162.5v-17z" />
    <glyph glyph-name="at" unicode="@" horiz-adv-x="1685" 
d="M1122 1102h183l-105 -592q-12 -70 49 -70q86 0 152.5 116.5t66.5 274.5q0 113 -41 211.5t-115 170.5t-184.5 113.5t-242.5 41.5q-189 0 -337.5 -85.5t-229 -233.5t-80.5 -330q0 -191 87 -337.5t238.5 -225t343.5 -78.5q142 0 249 40t206 118l119 -54q-245 -235 -586 -235
q-233 0 -416.5 97t-286 273.5t-102.5 401.5q0 161 59.5 304.5t163.5 247.5t253 165t319 61q151 0 284.5 -48.5t229 -132t150.5 -200.5t55 -250q0 -244 -125.5 -400.5t-313.5 -156.5q-128 0 -155 80q-31 -31 -91.5 -58.5t-146.5 -27.5q-149 0 -236 92t-87 256q0 123 48 228.5
t143.5 173t219.5 67.5q85 0 150 -31t98 -75zM879 963q-79 0 -136 -46.5t-82.5 -115.5t-25.5 -150q0 -91 47.5 -146.5t136.5 -55.5q81 0 139.5 47t84.5 115.5t26 148.5q0 203 -190 203z" />
    <glyph glyph-name="A" unicode="A" horiz-adv-x="1460" 
d="M254 0h-266q51 117 221.5 537t382.5 927h282l594 -1464h-270q-40 98 -166 422h-614zM729 1229h-4q-27 -69 -88.5 -233.5t-95.5 -250.5l-37 -100h442q-9 27 -14 37l-25 63l-71 189q-62 165 -107 295z" />
    <glyph glyph-name="B" unicode="B" horiz-adv-x="1306" 
d="M174 0v1464h348q131 0 227 -10t175 -34.5t128 -66t75 -104t26 -147.5q0 -121 -63 -202.5t-158 -113.5q52 -16 98.5 -43t92 -70t72 -108.5t26.5 -144.5q0 -420 -590 -420h-457zM430 651v-426h154q70 0 121 4t102 17.5t83 36.5t51.5 62.5t19.5 94.5q0 211 -304 211h-227z
M430 1237v-363h215q129 6 188.5 47.5t59.5 141.5q0 44 -14 75.5t-37 50.5t-61 30t-77.5 14.5t-95.5 3.5h-178z" />
    <glyph glyph-name="C" unicode="C" horiz-adv-x="1538" 
d="M1198 424h275q-31 -92 -89.5 -172.5t-140.5 -144t-193.5 -100t-238.5 -36.5q-213 0 -379 99.5t-256 272t-90 388.5q0 161 52 301t145.5 242t231 160.5t300.5 58.5q256 0 430.5 -128t233.5 -341h-285q-52 117 -150 181.5t-231 64.5q-142 0 -247.5 -72t-158.5 -193
t-53 -274t55.5 -274t162.5 -191.5t249 -70.5q245 0 377 229z" />
    <glyph glyph-name="D" unicode="D" horiz-adv-x="1488" 
d="M174 0v1464h320q98 0 162.5 -3t151 -13t158.5 -34.5t132 -63.5q141 -91 222 -256t81 -365q0 -180 -67.5 -329t-188.5 -248q-63 -51 -132 -82.5t-153.5 -46t-160.5 -19t-191 -4.5h-334zM434 1233v-1008h144q276 0 415.5 116t139.5 388q0 247 -139 376.5t-390 129.5
q-115 0 -170 -2z" />
    <glyph glyph-name="E" unicode="E" horiz-adv-x="1183" 
d="M174 0v1464h899v-231h-641v-373h592v-229h-592v-404h655v-227h-913z" />
    <glyph glyph-name="F" unicode="F" horiz-adv-x="1130" 
d="M174 0v1464h868v-231h-608v-375h561v-229h-561v-629h-260z" />
    <glyph glyph-name="G" unicode="G" horiz-adv-x="1622" 
d="M764 774h741v-774h-235v70v77q-72 -79 -190 -127.5t-279 -48.5q-152 0 -284.5 55.5t-227 154t-149 241t-54.5 309.5q0 218 92 391t263.5 272t392.5 99q250 0 428.5 -130.5t242.5 -334.5h-295q-52 117 -148 179.5t-231 62.5q-222 0 -349.5 -149.5t-127.5 -385.5
q0 -241 131.5 -393t354.5 -152q196 0 306.5 106t123.5 271h-506v207z" />
    <glyph glyph-name="H" unicode="H" horiz-adv-x="1492" 
d="M1059 639h-625v-639h-260v1464h260v-596h625v596h260v-1464h-260v639z" />
    <glyph glyph-name="I" unicode="I" horiz-adv-x="608" 
d="M174 0v1464h260v-1464h-260z" />
    <glyph glyph-name="J" unicode="J" horiz-adv-x="1034" 
d="M49 360h236q11 -82 47 -123.5t108 -41.5q45 0 77 17t50 43t28.5 69t13.5 84.5t3 99.5v956h260v-1030q0 -102 -22 -183.5t-69.5 -145.5t-129 -99t-192.5 -35q-404 0 -410 389z" />
    <glyph glyph-name="K" unicode="K" horiz-adv-x="1298" 
d="M174 0v1464h260v-655l180 221q47 56 172.5 203t194.5 231h315l-591 -671q107 -138 310.5 -403.5t299.5 -389.5h-318q-66 85 -220 289t-189 250l-154 202v-741h-260z" />
    <glyph glyph-name="L" unicode="L" horiz-adv-x="1077" 
d="M174 0v1464h260v-1237h588v-227h-848z" />
    <glyph glyph-name="M" unicode="M" horiz-adv-x="1931" 
d="M174 0v1464h410l262 -778q16 -50 57.5 -185.5t61.5 -197.5h2q25 69 73.5 216.5t59.5 180.5l260 764h397v-1464h-258v745q0 83 2 265.5t2 236.5h-2q-5 -19 -155 -485l-256 -762h-256l-308 915q-26 79 -57 192t-43 150h-2q4 -242 4 -491v-766h-254z" />
    <glyph glyph-name="N" unicode="N" horiz-adv-x="1562" 
d="M174 0v1464h320l487 -839q27 -47 85 -145t75 -128l2 2q0 35 -1 172t-1 215v723h248v-1464h-310l-471 803q-51 89 -112 192t-68 115h-2q0 -35 1 -219t1 -256v-635h-254z" />
    <glyph glyph-name="O" unicode="O" horiz-adv-x="1646" 
d="M821 1493q215 0 384 -97.5t262.5 -271t93.5 -393.5q0 -219 -91.5 -392t-260 -270.5t-386.5 -97.5q-216 0 -384.5 97.5t-260.5 270.5t-92 392q0 218 92.5 391.5t260.5 272t382 98.5zM819 1270q-214 0 -339.5 -149.5t-125.5 -387.5q0 -235 126.5 -386.5t340.5 -151.5
q213 0 341 151t128 387q0 239 -126.5 388t-344.5 149z" />
    <glyph glyph-name="P" unicode="P" horiz-adv-x="1267" 
d="M174 0v1464h434q150 0 228.5 -12.5t162.5 -56.5q96 -51 148.5 -147.5t52.5 -221.5q0 -118 -44.5 -213t-133.5 -154q-79 -52 -174.5 -68t-241.5 -16h-172v-575h-260zM434 1237v-436h219q131 0 210 54t79 169q0 213 -301 213h-207z" />
    <glyph glyph-name="Q" unicode="Q" horiz-adv-x="1646" 
d="M1579 -102h-307q-69 68 -139 133q-142 -60 -310 -60q-162 0 -299.5 56.5t-233.5 156.5t-150 241t-54 306q0 218 92.5 391.5t260.5 272t382 98.5q215 0 384 -97.5t262.5 -271t93.5 -393.5q0 -177 -62 -324.5t-174 -252.5zM705 449l315 6l125 -131q145 145 145 407
q0 239 -127 389t-344 150q-216 0 -340.5 -149.5t-124.5 -387.5q0 -234 128.5 -388.5t340.5 -154.5q57 0 127 17z" />
    <glyph glyph-name="R" unicode="R" horiz-adv-x="1302" 
d="M174 0v1464h485q127 0 219.5 -17t165.5 -67q175 -116 175 -346q0 -95 -28.5 -171t-79.5 -127t-111 -83.5t-132 -50.5l367 -602h-297l-338 569h-166v-569h-260zM434 1241v-450h213q311 0 311 227q0 119 -80 171t-231 52h-213z" />
    <glyph glyph-name="S" unicode="S" horiz-adv-x="1247" 
d="M70 416h252q24 -106 104 -167t207 -61q126 0 195 60.5t69 161.5q0 40 -13 70.5t-33 50.5t-58 37.5t-72 28.5t-92 26l-97 26q-204 57 -309.5 158.5t-105.5 269.5q0 183 143.5 301.5t364.5 118.5q222 0 354.5 -112t150.5 -300h-247q-50 187 -265 187q-108 0 -168.5 -50
t-60.5 -130q0 -45 16.5 -77.5t56 -57t77 -39.5t108.5 -37l103 -31q86 -27 144 -51t113.5 -59t87.5 -76.5t51 -101t19 -136.5q0 -203 -150.5 -330t-389.5 -127q-236 0 -389.5 122.5t-165.5 324.5z" />
    <glyph glyph-name="T" unicode="T" horiz-adv-x="1136" 
d="M438 0v1233h-366v231h993v-231h-367v-1233h-260z" />
    <glyph glyph-name="U" unicode="U" horiz-adv-x="1400" 
d="M700 -33q-140 0 -259 53.5t-185 145.5q-57 75 -77.5 168t-20.5 231v899h260v-884q0 -91 7 -146.5t30 -99.5q33 -63 97.5 -101t147.5 -38t148 38t98 101q23 44 30 99.5t7 146.5v884h260v-899q0 -138 -20.5 -231t-77.5 -168q-64 -92 -185 -145.5t-260 -53.5z" />
    <glyph glyph-name="V" unicode="V" horiz-adv-x="1402" 
d="M707 274h4q24 78 127 373l284 817h273l-541 -1464h-303q-211 545 -537 1464h287l285 -829q73 -209 121 -361z" />
    <glyph glyph-name="W" unicode="W" horiz-adv-x="1947" 
d="M1901 1464l-318 -1464h-342l-186 862q-30 136 -70 381h-4q-21 -126 -76 -381l-186 -862h-359l-309 1464h275l155 -846q47 -240 64 -370h6q18 115 74 368l190 848h344l184 -837q35 -151 70 -379h4q7 68 15.5 117.5t25.5 131t27 132.5l162 835h254z" />
    <glyph glyph-name="X" unicode="X" horiz-adv-x="1329" 
d="M287 0h-285l512 741q-90 129 -262 382.5t-232 340.5h302q46 -75 174.5 -264.5t171.5 -255.5q304 455 346 520h293q-18 -26 -214.5 -305t-283.5 -409q59 -85 164 -236.5t192.5 -278t163.5 -235.5h-303q-272 388 -367 547q-67 -98 -192.5 -284t-179.5 -263z" />
    <glyph glyph-name="Y" unicode="Y" horiz-adv-x="1253" 
d="M496 0v565q-183 329 -488 899h289q169 -369 338 -676q89 173 192 379t150 297h274l-495 -899v-565h-260z" />
    <glyph glyph-name="Z" unicode="Z" horiz-adv-x="1163" 
d="M76 0v197q13 22 77 117t97 149l391 606l107 166h-646v229h959v-202q-19 -24 -43 -64l-105 -160l-413 -639q-24 -37 -63.5 -94.5t-51.5 -77.5h707v-227h-1016z" />
    <glyph glyph-name="bracketleft" unicode="[" horiz-adv-x="727" 
d="M655 -63v-168h-471v1695h471v-168h-231v-1359h231z" />
    <glyph glyph-name="backslash" unicode="\" horiz-adv-x="927" 
d="M285 1464l594 -1679h-242l-590 1679h238z" />
    <glyph glyph-name="bracketright" unicode="]" horiz-adv-x="724" 
d="M72 -231v168h231v1359h-231v168h469v-1695h-469z" />
    <glyph glyph-name="asciicircum" unicode="^" 
d="M494 1401h213q23 -44 177.5 -347t241.5 -464h-256q-259 550 -266 563h-6q-107 -214 -270 -563h-254q65 121 135 256.5t153.5 298.5t131.5 256z" />
    <glyph glyph-name="underscore" unicode="_" horiz-adv-x="1224" 
d="M125 -328v191h975v-191h-975z" />
    <glyph glyph-name="grave" unicode="`" horiz-adv-x="878" 
d="M416 1221l-285 243h322l233 -243h-270z" />
    <glyph glyph-name="a" unicode="a" horiz-adv-x="1153" 
d="M354 739h-237q8 160 132 265.5t329 105.5q82 0 147 -14t122 -47.5t94.5 -87.5t59 -136t21.5 -190v-301q0 -209 25 -334h-230q-12 62 -12 143q-48 -71 -140 -117t-216 -46q-171 0 -277 85t-106 234q0 274 466 342q121 18 248 29q-4 133 -53 189t-156 56q-193 0 -217 -176z
M782 451q0 22 2 45l-55 -7q-212 -21 -304.5 -61.5t-92.5 -122.5q0 -72 49 -109.5t137 -37.5q132 0 198 76.5t66 216.5z" />
    <glyph glyph-name="b" unicode="b" horiz-adv-x="1325" 
d="M143 0v1464h250v-313q0 -137 -2 -213q53 74 143 123t209 49q229 0 366.5 -160t137.5 -409q0 -252 -138 -409t-359 -157q-131 0 -225 49t-146 128q0 -14 1 -40t1 -38v-74h-238zM692 903q-135 0 -222 -101t-87 -257q0 -162 82.5 -264.5t226.5 -102.5q138 0 218.5 100.5
t80.5 258.5t-81 262t-218 104z" />
    <glyph glyph-name="c" unicode="c" horiz-adv-x="1196" 
d="M885 344h245q-48 -170 -177.5 -273.5t-327.5 -103.5q-167 0 -292.5 74.5t-191 203.5t-65.5 294q0 162 68 292.5t194.5 205.5t290.5 75q203 0 334.5 -108t169.5 -285h-261q-34 90 -93 137t-154 47q-133 0 -213 -100.5t-80 -259.5q0 -168 81 -268.5t222 -100.5q90 0 154 45
t96 125z" />
    <glyph glyph-name="d" unicode="d" horiz-adv-x="1323" 
d="M1180 0h-236v152q-52 -79 -146 -128t-225 -49q-221 0 -358 157t-137 409q0 248 137.5 408.5t364.5 160.5q119 0 211 -49.5t141 -122.5q-2 76 -2 213v313h250v-1464zM633 903q-137 0 -218 -104t-81 -262q0 -157 80 -258t217 -101q143 0 227 102.5t84 264.5q0 156 -87 257
t-222 101z" />
    <glyph glyph-name="e" unicode="e" horiz-adv-x="1216" 
d="M1149 475l-823 2q12 -134 96 -218.5t213 -84.5q170 0 246 133h252q-51 -153 -183 -246.5t-321 -93.5q-250 0 -401.5 160t-151.5 414q0 248 152.5 409.5t396.5 161.5q125 0 226 -44.5t166 -122.5t99.5 -181t34.5 -221q0 -17 -0.5 -32.5t-1 -24.5t-0.5 -11zM334 655h567
q-12 115 -86 189t-192 74q-119 0 -195.5 -68t-93.5 -195z" />
    <glyph glyph-name="f" unicode="f" horiz-adv-x="655" 
d="M195 0v889h-142v186h142v74q0 149 95 241.5t253 92.5q49 0 80 -6v-201q-32 4 -48 4q-62 0 -96.5 -30.5t-34.5 -90.5v-84h179v-186h-179v-889h-249z" />
    <glyph glyph-name="g" unicode="g" horiz-adv-x="1327" 
d="M1186 1075v-897q0 -266 -146 -418.5t-411 -152.5q-200 0 -334 95.5t-178 258.5h264q32 -71 96.5 -109t151.5 -38q173 0 249 102.5t76 306.5h-4q-46 -75 -140 -125.5t-226 -50.5q-230 0 -367 146.5t-137 379.5q0 237 140.5 386t357.5 149q132 0 225 -50t147 -126
q-2 25 -2 72v71h238zM641 901q-140 0 -222.5 -89t-82.5 -237q0 -146 81 -235.5t224 -89.5q135 0 221 87.5t86 244.5q0 143 -83.5 231t-223.5 88z" />
    <glyph glyph-name="h" unicode="h" horiz-adv-x="1236" 
d="M393 1464v-297q0 -49 -4 -213q118 156 326 156q184 0 286.5 -117.5t102.5 -318.5v-674h-248v553q0 171 -49 259.5t-170 88.5q-123 0 -183.5 -82.5t-60.5 -224.5v-594h-250v1464h250z" />
    <glyph glyph-name="i" unicode="i" horiz-adv-x="536" 
d="M143 1075h250v-1075h-250v1075zM139 1231v233h256v-233h-256z" />
    <glyph glyph-name="j" unicode="j" horiz-adv-x="536" 
d="M143 1075h250v-1120q0 -107 -14 -172t-53 -109t-103.5 -60.5t-169.5 -16.5q-72 0 -108 8v184q36 -4 51 -4q76 0 111.5 31t35.5 110v1149zM139 1231v233h258v-233h-258z" />
    <glyph glyph-name="k" unicode="k" horiz-adv-x="1130" 
d="M1135 0h-326l-256 324l-160 202v-526h-250v1464h250v-856l150 180q41 49 124.5 150.5t112.5 136.5h301q-52 -57 -153.5 -169t-139.5 -154l-151 -168q21 -28 108 -129.5t205 -238t185 -216.5z" />
    <glyph glyph-name="l" unicode="l" horiz-adv-x="548" 
d="M150 0v1464h249v-1464h-249z" />
    <glyph glyph-name="m" unicode="m" horiz-adv-x="1906" 
d="M381 1075v-67q0 -43 -2 -68q44 77 126 123.5t197 46.5q224 0 322 -182q131 182 362 182q186 0 287 -114.5t101 -327.5v-668h-250v573q0 168 -49 248t-158 80q-114 0 -174 -76t-60 -202v-623h-249v580q0 166 -49 243.5t-160 77.5q-118 0 -175 -82t-57 -219v-600h-250v909
q0 109 -2 166h240z" />
    <glyph glyph-name="n" unicode="n" horiz-adv-x="1239" 
d="M381 1077v-67q0 -45 -2 -68q0 -2 2 -2q114 170 336 170q186 0 287.5 -116t101.5 -326v-668h-250v555q0 170 -49 258t-170 88q-122 0 -183 -83.5t-61 -217.5v-600h-250v913q0 109 -2 164h240z" />
    <glyph glyph-name="o" unicode="o" horiz-adv-x="1277" 
d="M637 1112q253 0 408 -160t155 -415q0 -253 -154.5 -411.5t-412.5 -158.5q-169 0 -296.5 74t-194 203t-66.5 293q0 255 154.5 415t406.5 160zM633 903q-139 0 -220 -101t-81 -263q0 -167 80.5 -265t220.5 -98q142 0 222.5 98t80.5 265q0 162 -82 263t-221 101z" />
    <glyph glyph-name="p" unicode="p" horiz-adv-x="1323" 
d="M379 1075v-69v-74q49 77 143 127.5t226 50.5q221 0 359 -158.5t138 -410.5q0 -163 -60.5 -291t-176 -201.5t-267.5 -73.5q-119 0 -210 48.5t-140 121.5h-2q4 -51 4 -211v-303h-250v1444h236zM690 905q-145 0 -227 -102t-82 -266q0 -155 87 -256t222 -101q138 0 218.5 103
t80.5 262q0 158 -80.5 259t-218.5 101z" />
    <glyph glyph-name="q" unicode="q" horiz-adv-x="1323" 
d="M944 1075h236v-1444h-250v303q0 135 2 211q-48 -72 -141.5 -121t-210.5 -49q-227 0 -364.5 159t-137.5 407q0 252 138 410.5t359 158.5q132 0 226 -50.5t143 -127.5v143zM633 905q-138 0 -218.5 -101t-80.5 -259q0 -159 80.5 -262t218.5 -103q135 0 222 101t87 256
q0 164 -82 266t-227 102z" />
    <glyph glyph-name="r" unicode="r" horiz-adv-x="733" 
d="M141 1077h236v-73q0 -49 -2 -72q29 81 98 125.5t162 44.5q31 0 59 -4v-238q-24 8 -71 8q-58 0 -99.5 -17t-66.5 -45.5t-39.5 -76t-19.5 -98.5t-5 -123v-508h-250v883q0 128 -2 194z" />
    <glyph glyph-name="s" unicode="s" horiz-adv-x="1026" 
d="M59 340h236q24 -81 83.5 -126.5t149.5 -45.5q82 0 136.5 36.5t54.5 96.5q0 34 -27.5 59t-55 35t-95.5 29q-9 3 -13 4l-118 33q-73 21 -123.5 43t-97 58t-70 90t-23.5 126q0 147 116.5 239.5t297.5 92.5q176 0 294 -90t130 -246h-221q-46 137 -209 137q-81 0 -123.5 -33
t-42.5 -85q0 -50 36.5 -73t129.5 -50l119 -31q176 -48 252.5 -116.5t76.5 -200.5q0 -159 -119.5 -257t-308.5 -98q-403 0 -465 373z" />
    <glyph glyph-name="t" unicode="t" horiz-adv-x="698" 
d="M444 1366v-291h201v-186h-201v-588q0 -72 32 -102.5t97 -30.5q24 0 52 4v-184q-31 -8 -97 -8q-163 0 -248 63t-85 215v631h-162v186h162v291h249z" />
    <glyph glyph-name="u" unicode="u" horiz-adv-x="1234" 
d="M856 0v76v78q-102 -183 -334 -183q-188 0 -288.5 115t-100.5 354v635h250v-573q0 -75 10.5 -131.5t35 -101t68.5 -68t107 -23.5q238 0 238 334v563h250v-913q0 -111 2 -162h-238z" />
    <glyph glyph-name="v" unicode="v" horiz-adv-x="1097" 
d="M666 0h-234q-69 175 -206.5 537.5t-205.5 537.5h275l139 -426q19 -62 56.5 -168t62.5 -184h4q24 79 62.5 189.5t62.5 187.5l131 401h266z" />
    <glyph glyph-name="w" unicode="w" horiz-adv-x="1638" 
d="M631 0h-254q-68 195 -182.5 566.5t-159.5 508.5h256l121 -420q21 -68 49 -185t47 -187h4q22 81 52 213.5t48 203.5l93 375h237l107 -420q12 -47 39.5 -164.5t52.5 -211.5h4q21 73 51 194t55 207l113 395h244l-344 -1075h-260q-42 132 -94.5 339t-86.5 372h-6
q-3 -14 -32.5 -134t-41 -164t-35 -136.5t-42 -157t-35.5 -119.5z" />
    <glyph glyph-name="x" unicode="x" horiz-adv-x="1085" 
d="M295 0h-285q83 108 389 551l-350 524h287q19 -28 92 -147t117 -189q168 266 211 336h278l-350 -520q124 -180 391 -555h-293q-38 62 -239 379q-168 -261 -248 -379z" />
    <glyph glyph-name="y" unicode="y" horiz-adv-x="1103" 
d="M512 -369h-254l168 398q-73 191 -225 580.5t-181 465.5h275q62 -177 143.5 -421.5t118.5 -346.5q38 105 138.5 402.5t123.5 365.5h268q-431 -1094 -575 -1444z" />
    <glyph glyph-name="z" unicode="z" horiz-adv-x="1019" 
d="M78 0v188l424 535q112 141 125 156q-74 -2 -254 -2h-279v198h826v-192l-404 -506q-12 -15 -45 -58.5t-55 -71t-43 -50.5q39 0 136 1t144 1h293v-199h-868z" />
    <glyph glyph-name="braceleft" unicode="{" horiz-adv-x="655" 
d="M68 573v84q76 23 104.5 66t28.5 158v333q0 149 58.5 204t227.5 55q8 0 25.5 -1.5t24.5 -1.5h24v-161q-74 -5 -100.5 -37t-26.5 -129v-213q0 -118 -9 -171t-36.5 -84.5t-91.5 -56.5v-4q64 -25 91.5 -56.5t36.5 -84.5t9 -170v-215q0 -97 26.5 -129t100.5 -37v-162
q-8 -2 -24 -2h-50q-169 0 -227.5 54.5t-58.5 203.5v334q0 80 -15 124t-40.5 63.5t-77.5 35.5z" />
    <glyph glyph-name="bar" unicode="|" horiz-adv-x="600" 
d="M184 -127v1624h232v-1624h-232z" />
    <glyph glyph-name="braceright" unicode="}" horiz-adv-x="655" 
d="M588 657v-84q-52 -16 -77.5 -35.5t-40.5 -63.5t-15 -124v-334q0 -149 -59 -203.5t-228 -54.5h-49q-17 0 -25 2v162q74 5 100.5 37t26.5 129v215q0 117 9 170t36.5 84.5t91.5 56.5v4q-64 25 -91.5 56.5t-36.5 84.5t-9 171v213q0 97 -26.5 129t-100.5 37v161h25q7 0 23 1.5
t26 1.5q169 0 228 -55t59 -204v-333q0 -115 28.5 -158t104.5 -66z" />
    <glyph glyph-name="asciitilde" unicode="~" 
d="M991 782l139 -100q-62 -111 -132.5 -171t-166.5 -60q-22 0 -46.5 4t-42 8.5t-45 14.5t-40 15.5t-43.5 19t-39 17.5l-53 23q-88 43 -147 43q-56 0 -99 -39.5t-69 -99.5l-139 102q58 108 136 175t171 67q38 0 83 -12t68.5 -22t87.5 -38l27 -12q7 -3 28 -13t29 -13.5
t25.5 -11t27.5 -10.5t24.5 -7t27 -5.5t24.5 -1.5q55 0 93 33t71 94z" />
    <glyph glyph-name="uni00A0" unicode="&#xa0;" horiz-adv-x="505" 
 />
    <glyph glyph-name="exclamdown" unicode="&#xa1;" horiz-adv-x="587" 
d="M193 690h206q2 -56 8 -193.5t9.5 -223t6.5 -215t3 -244.5v-224h-260v224q0 115 3 244.5t6.5 215t9.5 223t8 193.5zM164 819v256h266v-256h-266z" />
    <glyph glyph-name="cent" unicode="&#xa2;" 
d="M524 -168v145q-201 32 -317.5 187.5t-116.5 376.5q0 215 118 369t316 190v174h219v-174q153 -28 248.5 -128t132.5 -253h-254q-51 118 -127 158v-680q98 39 140 145h239q-40 -142 -136 -239.5t-243 -125.5v-145h-219zM344 545q0 -127 47 -216.5t133 -127.5v678
q-86 -37 -133 -124.5t-47 -209.5z" />
    <glyph glyph-name="sterling" unicode="&#xa3;" 
d="M1083 211v-211h-944v195q126 17 186 81.5t60 165.5q0 100 -51 211h-248v203h160q-31 108 -31 201q0 187 124.5 309.5t340.5 122.5q200 0 317 -105.5t117 -293.5h-237q-15 85 -65 136.5t-138 51.5q-100 0 -151.5 -63.5t-51.5 -163.5q0 -105 37 -189h336v-209h-264
q53 -123 53 -229q0 -129 -84 -213l2 -2q54 0 141.5 1t100.5 1h290z" />
    <glyph glyph-name="currency" unicode="&#xa4;" 
d="M102 735q0 141 78 269l-106 110l149 152q17 -16 35.5 -34t40 -40.5t33.5 -34.5q133 78 266 78q145 0 270 -78l109 109q92 -99 149 -152l-108 -108q82 -128 82 -269q0 -150 -80 -266l106 -106q-57 -53 -149 -152l-105 106q-132 -79 -268 -79q-146 0 -274 82l-107 -109
l-149 149l104 109q-76 136 -76 264zM309 737q0 -120 84.5 -206.5t206.5 -86.5q123 0 208 86.5t85 206.5q0 119 -85 205t-208 86q-122 0 -206.5 -86.5t-84.5 -204.5z" />
    <glyph glyph-name="yen" unicode="&#xa5;" 
d="M82 401v166h385l-117 217h-268v166h184q-191 388 -258 514h285q27 -57 137.5 -299.5t177.5 -371.5q76 150 316 671h270l-266 -514h186v-166h-272l-117 -217h389v-166h-385v-401h-264v401h-383z" />
    <glyph glyph-name="brokenbar" unicode="&#xa6;" horiz-adv-x="509" 
d="M139 877v620h232v-620h-232zM139 -127v621h232v-621h-232z" />
    <glyph glyph-name="section" unicode="&#xa7;" 
d="M612 1491q174 0 288.5 -87t121.5 -247h-221q-11 69 -65.5 101t-133.5 32q-70 0 -115 -27.5t-45 -76.5q0 -13 2 -24t8.5 -21t11.5 -17t17 -15.5t18 -13t23 -12.5t23 -10.5t26 -11t25 -10.5l164 -76q47 -22 79.5 -39.5t70 -41.5t62.5 -49t46.5 -56t32 -69.5t10.5 -82.5
q0 -99 -37 -159t-115 -111q59 -49 89 -101t30 -137q0 -155 -118 -249.5t-316 -94.5t-310.5 98.5t-136.5 274.5h236q14 -75 72 -122.5t149 -47.5q92 0 140.5 33.5t48.5 95.5q0 24 -10 44.5t-24 34.5t-42.5 30t-51.5 26t-65.5 28.5t-71.5 32.5l-100 45q-64 27 -111.5 56.5
t-90 71.5t-65 98.5t-22.5 126.5q0 168 170 252q-102 85 -102 215q0 138 117 225.5t288 87.5zM518 571l203 -94q108 34 108 129q0 19 -5.5 35t-13 28.5t-25 26.5t-31 23t-42.5 23t-48 22.5t-58 26t-63 28.5l-66 29q-47 -12 -78.5 -40.5t-31.5 -74.5q0 -56 35 -89t116 -73z
" />
    <glyph glyph-name="dieresis" unicode="&#xa8;" horiz-adv-x="1005" 
d="M256 1235v225h229v-225h-229zM639 1235v225h227v-225h-227z" />
    <glyph glyph-name="copyright" unicode="&#xa9;" horiz-adv-x="1722" 
d="M860 1038q-120 0 -189 -86t-69 -219q0 -131 72 -216t192 -85q140 0 215 131h185q-45 -123 -150 -205t-256 -82q-194 0 -316 130.5t-122 326.5q0 199 121.5 329t318.5 130q155 0 260.5 -80t145.5 -213h-189q-31 66 -87.5 102.5t-131.5 36.5zM1632 737q0 -159 -60.5 -302
t-164 -246t-247 -163.5t-302.5 -60.5q-157 0 -299.5 61t-245 164t-163 246t-60.5 301q0 157 60 299.5t162.5 245.5t246 164t303.5 61q157 0 299.5 -61t245.5 -164t164 -245.5t61 -299.5zM1503 737q0 132 -51 252t-137 206.5t-204.5 137.5t-248.5 51q-176 0 -323.5 -86.5
t-232.5 -235.5t-85 -325q0 -132 50.5 -252.5t136 -207.5t204 -139t248.5 -52q174 0 322 87t234.5 237t86.5 327z" />
    <glyph glyph-name="ordfeminine" unicode="&#xaa;" horiz-adv-x="944" 
d="M313 922h-192q13 117 105.5 196.5t246.5 79.5q171 0 254.5 -83.5t83.5 -276.5v-64q0 -20 -1 -57t-1 -51v-45q0 -144 10 -254h-176l-6 90q-98 -105 -256 -105q-128 0 -208.5 63.5t-80.5 176.5q0 236 494 276q3 0 11.5 1t12.5 1q11 0 15 2q-6 175 -156 175
q-71 0 -109.5 -33.5t-46.5 -91.5zM596 733q-162 -19 -230.5 -46t-68.5 -89q0 -52 37 -77t100 -25q186 0 189 241q-16 -4 -27 -4z" />
    <glyph glyph-name="guillemotleft" unicode="&#xab;" horiz-adv-x="1062" 
d="M553 969l-197 -383l197 -385h-254l-209 385l209 383h254zM958 969l-186 -383l186 -385h-249l-209 385l209 383h249z" />
    <glyph glyph-name="logicalnot" unicode="&#xac;" 
d="M68 737v219h1032v-675h-223v456h-809z" />
    <glyph glyph-name="uni00AD" unicode="&#xad;" horiz-adv-x="815" 
d="M129 494v215h557v-215h-557z" />
    <glyph glyph-name="registered" unicode="&#xae;" horiz-adv-x="1128" 
d="M377 741v553h196q97 0 146 -30q67 -49 67 -136q0 -123 -114 -165q28 -44 135 -222h-143l-121 205h-43v-205h-123zM500 1186v-131h65q99 0 99 67q0 64 -99 64h-65zM1042 1022q0 -131 -64 -241t-174 -174t-241 -64q-97 0 -185 37.5t-152 101.5t-102 153t-38 187
q0 199 139 339t340 140q97 0 185 -38t152 -102t102 -153t38 -186zM948 1022q0 160 -113.5 274.5t-269.5 114.5q-161 0 -272 -113.5t-111 -275.5t111 -275.5t270 -113.5t272 114t113 275z" />
    <glyph glyph-name="macron" unicode="&#xaf;" horiz-adv-x="876" 
d="M164 1266v174h559v-174h-559z" />
    <glyph glyph-name="degree" unicode="&#xb0;" horiz-adv-x="849" 
d="M426 819q-143 0 -242.5 97t-99.5 239t99.5 240t242.5 98q144 0 242 -97.5t98 -240.5t-97.5 -239.5t-242.5 -96.5zM264 1155q0 -67 47 -113.5t115 -46.5t114 45.5t46 114.5t-47 115.5t-113 46.5q-68 0 -115 -46.5t-47 -115.5z" />
    <glyph glyph-name="plusminus" unicode="&#xb1;" 
d="M147 635v219h342v274h220v-274h344v-219h-344v-279h-220v279h-342zM1053 0h-906v219h906v-219z" />
    <glyph glyph-name="twosuperior" unicode="&#xb2;" horiz-adv-x="849" 
d="M129 563v150q110 89 170.5 144.5t142.5 141.5q33 35 51.5 59t36 64.5t17.5 81.5q0 57 -33.5 92t-93.5 35q-65 0 -100 -44.5t-37 -119.5h-162q-2 2 -2 11v24q0 126 87 205.5t216 79.5q138 0 220.5 -80t82.5 -201q0 -89 -59 -182q-54 -85 -168 -190q-8 -8 -138 -117h363
v-154h-594z" />
    <glyph glyph-name="threesuperior" unicode="&#xb3;" horiz-adv-x="808" 
d="M328 989v141q83 0 128.5 24.5t45.5 86.5q0 49 -29 74.5t-76 25.5q-48 0 -74.5 -27.5t-31.5 -76.5h-162q2 110 75.5 180t196.5 70t197 -63t74 -169q0 -118 -109 -186q154 -68 154 -229q0 -129 -87 -208t-233 -79q-141 0 -221.5 79t-91.5 208h170q6 -63 45.5 -101.5
t101.5 -38.5q64 0 103 41t39 103q0 74 -47.5 109.5t-124.5 35.5h-43z" />
    <glyph glyph-name="acute" unicode="&#xb4;" horiz-adv-x="874" 
d="M758 1464l-285 -243h-270l233 243h322z" />
    <glyph glyph-name="mu" unicode="&#xb5;" horiz-adv-x="1245" 
d="M395 -369h-252v1444h252v-565q0 -75 10.5 -131.5t35 -101t68.5 -68t107 -23.5q58 0 101 19.5t68 51t40 77t20 90t5 98.5v553h252v-911q0 -109 2 -164h-240v156q-47 -85 -126 -130.5t-177 -45.5q-95 0 -166 32v-381z" />
    <glyph glyph-name="paragraph" unicode="&#xb6;" horiz-adv-x="1323" 
d="M711 1270v-1501h-191v878q-125 0 -229 49.5t-168 145t-64 217.5q0 207 166 323q70 50 148.5 66t201.5 16h607v-194h-88v-1501h-191v1501h-192z" />
    <glyph glyph-name="periodcentered" unicode="&#xb7;" horiz-adv-x="522" 
d="M129 518v275h264v-275h-264z" />
    <glyph glyph-name="cedilla" unicode="&#xb8;" horiz-adv-x="755" 
d="M195 -334l190 234h252l-156 -234h-286z" />
    <glyph glyph-name="onesuperior" unicode="&#xb9;" horiz-adv-x="589" 
d="M279 1204h-218v123q118 5 169 34.5t61 102.5h158v-899h-170v639z" />
    <glyph glyph-name="ordmasculine" unicode="&#xba;" horiz-adv-x="1013" 
d="M502 496q104 0 164.5 71.5t60.5 194.5q0 118 -61 193t-164 75q-101 0 -161 -74.5t-60 -193.5q0 -124 58.5 -195t162.5 -71zM502 334q-192 0 -305 118t-113 308q0 192 115.5 311t306.5 119q190 0 307 -119.5t117 -310.5q0 -190 -116 -308t-312 -118z" />
    <glyph glyph-name="guillemotright" unicode="&#xbb;" horiz-adv-x="1062" 
d="M707 586l-197 383h254l209 -383l-209 -385h-254zM291 586l-187 383h250l209 -383l-209 -385h-250z" />
    <glyph glyph-name="onequarter" unicode="&#xbc;" horiz-adv-x="1630" 
d="M539 0h-166l563 1464h166q-217 -557 -563 -1464zM1282 170h-426v135l268 389l90 131l52 76h178v-586h115v-145h-115v-170h-162v170zM1282 315v222q0 75 4 157l-100 -153q-31 -47 -81 -120.5t-71 -105.5h248zM283 1204h-217v123q118 5 168.5 34.5t60.5 102.5h158v-899
h-170v639z" />
    <glyph glyph-name="onehalf" unicode="&#xbd;" horiz-adv-x="1660" 
d="M973 0v150q110 89 170.5 144.5t142.5 141.5q33 35 51.5 59t36 64.5t17.5 81.5q0 57 -33.5 92t-93.5 35q-66 0 -101 -44.5t-37 -119.5h-161q-2 2 -2 10v25q0 126 87 205.5t216 79.5q138 0 220.5 -80t82.5 -201q0 -88 -60 -182q-55 -87 -168 -191q-6 -6 -137 -116h363v-154
h-594zM539 0h-166l563 1464h166q-217 -557 -563 -1464zM283 1204h-217v123q118 5 168.5 34.5t60.5 102.5h158v-899h-170v639z" />
    <glyph glyph-name="threequarters" unicode="&#xbe;" horiz-adv-x="1830" 
d="M743 0h-165l563 1464h166q-277 -713 -564 -1464zM1487 170h-426v135l268 389l90 131l51 76h179v-586h114v-145h-114v-170h-162v170zM1487 315v222q0 75 4 157l-100 -153q-31 -47 -81 -120.5t-71 -105.5h248zM315 989v141q83 0 128.5 24.5t45.5 86.5q0 49 -29 74.5
t-75 25.5q-48 0 -74.5 -27.5t-31.5 -76.5h-162q2 110 75.5 180t196.5 70t196.5 -63t73.5 -169q0 -119 -108 -186q154 -68 154 -229q0 -129 -87 -208t-233 -79q-141 0 -221.5 79t-91.5 208h170q6 -63 45.5 -101.5t101.5 -38.5q64 0 102.5 41t38.5 103q0 74 -47.5 109.5
t-124.5 35.5h-43z" />
    <glyph glyph-name="questiondown" unicode="&#xbf;" horiz-adv-x="1052" 
d="M410 1075h262v-272h-262v272zM422 676h240q0 -165 -32.5 -246t-129.5 -158q-40 -33 -66 -57t-56.5 -60.5t-45.5 -76.5t-15 -84q0 -88 55.5 -140.5t153.5 -52.5q103 0 158 65t57 173h250q0 -201 -127.5 -329t-345.5 -128q-209 0 -329.5 117.5t-120.5 296.5q0 124 57 211.5
t160 169.5q76 63 106.5 119.5t30.5 162.5v17z" />
    <glyph glyph-name="Agrave" unicode="&#xc0;" horiz-adv-x="1460" 
d="M254 0h-266q51 117 221.5 537t382.5 927h282l594 -1464h-270q-40 98 -166 422h-614zM729 1229h-4q-27 -69 -88.5 -233.5t-95.5 -250.5l-37 -100h442q-9 27 -14 37l-25 63l-71 189q-62 165 -107 295zM633 1559l-268 235h321l217 -235h-270z" />
    <glyph glyph-name="Aacute" unicode="&#xc1;" horiz-adv-x="1460" 
d="M254 0h-266q51 117 221.5 537t382.5 927h282l594 -1464h-270q-40 98 -166 422h-614zM729 1229h-4q-27 -69 -88.5 -233.5t-95.5 -250.5l-37 -100h442q-9 27 -14 37l-25 63l-71 189q-62 165 -107 295zM1055 1794l-269 -235h-270l217 235h322z" />
    <glyph glyph-name="Acircumflex" unicode="&#xc2;" horiz-adv-x="1460" 
d="M254 0h-266q51 117 221.5 537t382.5 927h282l594 -1464h-270q-40 98 -166 422h-614zM729 1229h-4q-27 -69 -88.5 -233.5t-95.5 -250.5l-37 -100h442q-9 27 -14 37l-25 63l-71 189q-62 165 -107 295zM598 1792h276q38 -42 111 -116.5t111 -116.5h-244l-113 118l-114 -118
h-244q139 146 217 233z" />
    <glyph glyph-name="Atilde" unicode="&#xc3;" horiz-adv-x="1460" 
d="M254 0h-266q51 117 221.5 537t382.5 927h282l594 -1464h-270q-40 98 -166 422h-614zM729 1229h-4q-27 -69 -88.5 -233.5t-95.5 -250.5l-37 -100h442q-9 27 -14 37l-25 63l-71 189q-62 165 -107 295zM702 1595q-64 37 -94 37q-29 0 -41 -15t-18 -54h-154q0 100 55.5 173.5
t137.5 73.5q27 0 55 -7.5t43.5 -14.5t48.5 -23q73 -36 96 -36q28 0 40 15t18 54h147q0 -103 -49.5 -175.5t-132.5 -72.5q-60 0 -152 45z" />
    <glyph glyph-name="Adieresis" unicode="&#xc4;" horiz-adv-x="1460" 
d="M254 0h-266q51 117 221.5 537t382.5 927h282l594 -1464h-270q-40 98 -166 422h-614zM729 1229h-4q-27 -69 -88.5 -233.5t-95.5 -250.5l-37 -100h442q-9 27 -14 37l-25 63l-71 189q-62 165 -107 295zM426 1563v225h229v-225h-229zM809 1563v225h227v-225h-227z" />
    <glyph glyph-name="Aring" unicode="&#xc5;" horiz-adv-x="1460" 
d="M254 0h-266q51 117 221.5 537t382.5 927h282l594 -1464h-270q-40 98 -166 422h-614zM729 1229h-4q-27 -69 -88.5 -233.5t-95.5 -250.5l-37 -100h442q-9 27 -14 37l-25 63l-71 189q-62 165 -107 295zM729 1511q-85 0 -142 58.5t-57 144.5q0 82 59 140.5t142 58.5
q84 0 142.5 -58.5t58.5 -140.5q0 -86 -58.5 -144.5t-144.5 -58.5zM641 1714q0 -38 25.5 -65t62.5 -27q39 0 64.5 25.5t25.5 66.5q0 36 -26 62t-64 26q-36 0 -62 -26t-26 -62z" />
    <glyph glyph-name="AE" unicode="&#xc6;" horiz-adv-x="1865" 
d="M1757 1464v-229h-618l12 -375h557v-229h-551l12 -404h603v-227h-852l-9 340h-485l-184 -340h-271l822 1464h964zM903 561l-6 250q-1 25 -1 161t-3 212h-14q-12 -21 -67 -127.5t-87 -165.5l-180 -330h358z" />
    <glyph glyph-name="Ccedilla" unicode="&#xc7;" horiz-adv-x="1538" 
d="M1198 424h275q-31 -92 -89.5 -172.5t-140.5 -144t-193.5 -100t-238.5 -36.5q-213 0 -379 99.5t-256 272t-90 388.5q0 161 52 301t145.5 242t231 160.5t300.5 58.5q256 0 430.5 -128t233.5 -341h-285q-52 117 -150 181.5t-231 64.5q-142 0 -247.5 -72t-158.5 -193
t-53 -274t55.5 -274t162.5 -191.5t249 -70.5q245 0 377 229zM512 -334l190 234h252l-155 -234h-287z" />
    <glyph glyph-name="Egrave" unicode="&#xc8;" horiz-adv-x="1183" 
d="M174 0v1464h899v-231h-641v-373h592v-229h-592v-404h655v-227h-913zM567 1559l-268 235h322l217 -235h-271z" />
    <glyph glyph-name="Eacute" unicode="&#xc9;" horiz-adv-x="1183" 
d="M174 0v1464h899v-231h-641v-373h592v-229h-592v-404h655v-227h-913zM969 1794l-269 -235h-270l217 235h322z" />
    <glyph glyph-name="Ecircumflex" unicode="&#xca;" horiz-adv-x="1183" 
d="M174 0v1464h899v-231h-641v-373h592v-229h-592v-404h655v-227h-913zM496 1792h276q38 -42 110.5 -116.5t110.5 -116.5h-243l-113 118l-115 -118h-243q139 146 217 233z" />
    <glyph glyph-name="Edieresis" unicode="&#xcb;" horiz-adv-x="1183" 
d="M174 0v1464h899v-231h-641v-373h592v-229h-592v-404h655v-227h-913zM328 1563v225h229v-225h-229zM711 1563v225h227v-225h-227z" />
    <glyph glyph-name="Igrave" unicode="&#xcc;" horiz-adv-x="608" 
d="M174 0v1464h260v-1464h-260zM256 1559l-268 235h321l217 -235h-270z" />
    <glyph glyph-name="Iacute" unicode="&#xcd;" horiz-adv-x="608" 
d="M174 0v1464h260v-1464h-260zM664 1794l-269 -235h-270l217 235h322z" />
    <glyph glyph-name="Icircumflex" unicode="&#xce;" horiz-adv-x="608" 
d="M174 0v1464h260v-1464h-260zM172 1792h277q38 -42 110.5 -116.5t110.5 -116.5h-244l-113 118l-114 -118h-244q139 146 217 233z" />
    <glyph glyph-name="Idieresis" unicode="&#xcf;" horiz-adv-x="608" 
d="M174 0v1464h260v-1464h-260zM2 1563v225h229v-225h-229zM385 1563v225h227v-225h-227z" />
    <glyph glyph-name="Eth" unicode="&#xd0;" horiz-adv-x="1499" 
d="M49 643v201h135v620h318q98 0 160 -2.5t149 -12.5t159.5 -34t133.5 -63q141 -88 224 -255t83 -366q0 -177 -67.5 -328t-186.5 -249q-63 -51 -132.5 -83t-155 -47t-162.5 -19.5t-195 -4.5h-328v643h-135zM1139 731q0 247 -138 374.5t-385 127.5h-170v-389h279v-201h-279
v-414h140q136 0 235.5 26t172.5 84t109 155.5t36 236.5z" />
    <glyph glyph-name="Ntilde" unicode="&#xd1;" horiz-adv-x="1562" 
d="M174 0v1464h320l487 -839q27 -47 85 -145t75 -128l2 2q0 35 -1 172t-1 215v723h248v-1464h-310l-471 803q-51 89 -112 192t-68 115h-2q0 -35 1 -219t1 -256v-635h-254zM791 1595q-64 37 -95 37q-29 0 -41 -15t-18 -54h-154q0 100 55.5 173.5t137.5 73.5q27 0 55 -7.5
t43.5 -14.5t48.5 -23q73 -36 97 -36q28 0 39.5 15t17.5 54h147q0 -103 -49.5 -175.5t-132.5 -72.5q-59 0 -151 45z" />
    <glyph glyph-name="Ograve" unicode="&#xd2;" horiz-adv-x="1646" 
d="M821 1493q215 0 384 -97.5t262.5 -271t93.5 -393.5q0 -219 -91.5 -392t-260 -270.5t-386.5 -97.5q-216 0 -384.5 97.5t-260.5 270.5t-92 392q0 218 92.5 391.5t260.5 272t382 98.5zM819 1270q-214 0 -339.5 -149.5t-125.5 -387.5q0 -235 126.5 -386.5t340.5 -151.5
q213 0 341 151t128 387q0 239 -126.5 388t-344.5 149zM762 1559l-268 235h321l217 -235h-270z" />
    <glyph glyph-name="Oacute" unicode="&#xd3;" horiz-adv-x="1646" 
d="M821 1493q215 0 384 -97.5t262.5 -271t93.5 -393.5q0 -219 -91.5 -392t-260 -270.5t-386.5 -97.5q-216 0 -384.5 97.5t-260.5 270.5t-92 392q0 218 92.5 391.5t260.5 272t382 98.5zM819 1270q-214 0 -339.5 -149.5t-125.5 -387.5q0 -235 126.5 -386.5t340.5 -151.5
q213 0 341 151t128 387q0 239 -126.5 388t-344.5 149zM1182 1794l-269 -235h-270l217 235h322z" />
    <glyph glyph-name="Ocircumflex" unicode="&#xd4;" horiz-adv-x="1646" 
d="M821 1493q215 0 384 -97.5t262.5 -271t93.5 -393.5q0 -219 -91.5 -392t-260 -270.5t-386.5 -97.5q-216 0 -384.5 97.5t-260.5 270.5t-92 392q0 218 92.5 391.5t260.5 272t382 98.5zM819 1270q-214 0 -339.5 -149.5t-125.5 -387.5q0 -235 126.5 -386.5t340.5 -151.5
q213 0 341 151t128 387q0 239 -126.5 388t-344.5 149zM682 1792h276q38 -42 111 -116.5t111 -116.5h-244l-113 118l-114 -118h-244q139 146 217 233z" />
    <glyph glyph-name="Otilde" unicode="&#xd5;" horiz-adv-x="1646" 
d="M821 1493q215 0 384 -97.5t262.5 -271t93.5 -393.5q0 -219 -91.5 -392t-260 -270.5t-386.5 -97.5q-216 0 -384.5 97.5t-260.5 270.5t-92 392q0 218 92.5 391.5t260.5 272t382 98.5zM819 1270q-214 0 -339.5 -149.5t-125.5 -387.5q0 -235 126.5 -386.5t340.5 -151.5
q213 0 341 151t128 387q0 239 -126.5 388t-344.5 149zM809 1595q-64 37 -94 37q-29 0 -41.5 -15t-18.5 -54h-153q0 100 55 173.5t137 73.5q27 0 55 -7.5t44.5 -14.5t48.5 -23q73 -36 96 -36q28 0 39.5 15t17.5 54h148q0 -103 -49.5 -175.5t-132.5 -72.5q-60 0 -152 45z" />
    <glyph glyph-name="Odieresis" unicode="&#xd6;" horiz-adv-x="1646" 
d="M821 1493q215 0 384 -97.5t262.5 -271t93.5 -393.5q0 -219 -91.5 -392t-260 -270.5t-386.5 -97.5q-216 0 -384.5 97.5t-260.5 270.5t-92 392q0 218 92.5 391.5t260.5 272t382 98.5zM819 1270q-214 0 -339.5 -149.5t-125.5 -387.5q0 -235 126.5 -386.5t340.5 -151.5
q213 0 341 151t128 387q0 239 -126.5 388t-344.5 149zM520 1563v225h230v-225h-230zM903 1563v225h227v-225h-227z" />
    <glyph glyph-name="multiply" unicode="&#xd7;" 
d="M289 199l-150 149l310 309l-310 310l150 149l309 -309l311 311l150 -149l-311 -312l311 -311l-150 -149l-311 311z" />
    <glyph glyph-name="Oslash" unicode="&#xd8;" horiz-adv-x="1646" 
d="M823 -29q-153 0 -272 45l-105 -184l-202 111l106 186q-126 104 -195 258t-69 342q0 219 92.5 392t260.5 270.5t382 97.5q143 0 273 -47l106 188l203 -110l-109 -191q127 -105 197 -259t70 -341q0 -218 -91.5 -390.5t-260 -270t-386.5 -97.5zM356 731q0 -232 121 -377
l500 885q-73 25 -158 25q-141 0 -247 -70t-161 -190t-55 -273zM1288 731q0 225 -119 375l-501 -883q70 -24 153 -24q214 0 340.5 149t126.5 383z" />
    <glyph glyph-name="Ugrave" unicode="&#xd9;" horiz-adv-x="1400" 
d="M700 -33q-140 0 -259 53.5t-185 145.5q-57 75 -77.5 168t-20.5 231v899h260v-884q0 -91 7 -146.5t30 -99.5q33 -63 97.5 -101t147.5 -38t148 38t98 101q23 44 30 99.5t7 146.5v884h260v-899q0 -138 -20.5 -231t-77.5 -168q-64 -92 -185 -145.5t-260 -53.5zM627 1559
l-269 235h322l217 -235h-270z" />
    <glyph glyph-name="Uacute" unicode="&#xda;" horiz-adv-x="1400" 
d="M700 -33q-140 0 -259 53.5t-185 145.5q-57 75 -77.5 168t-20.5 231v899h260v-884q0 -91 7 -146.5t30 -99.5q33 -63 97.5 -101t147.5 -38t148 38t98 101q23 44 30 99.5t7 146.5v884h260v-899q0 -138 -20.5 -231t-77.5 -168q-64 -92 -185 -145.5t-260 -53.5zM1026 1794
l-268 -235h-271l218 235h321z" />
    <glyph glyph-name="Ucircumflex" unicode="&#xdb;" horiz-adv-x="1400" 
d="M700 -33q-140 0 -259 53.5t-185 145.5q-57 75 -77.5 168t-20.5 231v899h260v-884q0 -91 7 -146.5t30 -99.5q33 -63 97.5 -101t147.5 -38t148 38t98 101q23 44 30 99.5t7 146.5v884h260v-899q0 -138 -20.5 -231t-77.5 -168q-64 -92 -185 -145.5t-260 -53.5zM559 1792h277
q38 -42 110.5 -116.5t110.5 -116.5h-244l-113 118l-114 -118h-244q139 146 217 233z" />
    <glyph glyph-name="Udieresis" unicode="&#xdc;" horiz-adv-x="1400" 
d="M700 -33q-140 0 -259 53.5t-185 145.5q-57 75 -77.5 168t-20.5 231v899h260v-884q0 -91 7 -146.5t30 -99.5q33 -63 97.5 -101t147.5 -38t148 38t98 101q23 44 30 99.5t7 146.5v884h260v-899q0 -138 -20.5 -231t-77.5 -168q-64 -92 -185 -145.5t-260 -53.5zM393 1563v225
h230v-225h-230zM776 1563v225h228v-225h-228z" />
    <glyph glyph-name="Yacute" unicode="&#xdd;" horiz-adv-x="1253" 
d="M496 0v565q-183 329 -488 899h289q169 -369 338 -676q89 173 192 379t150 297h274l-495 -899v-565h-260zM995 1794l-268 -235h-270l217 235h321z" />
    <glyph glyph-name="Thorn" unicode="&#xde;" horiz-adv-x="1239" 
d="M174 1464h262v-247h168q147 0 227 -13t162 -55q97 -51 150 -147.5t53 -221.5q0 -115 -45 -210t-131 -154q-77 -52 -172 -68t-234 -16h-178v-332h-262v1464zM934 778q0 116 -88 168q-71 41 -205 41h-205v-428h213q122 0 193 43q92 59 92 176z" />
    <glyph glyph-name="germandbls" unicode="&#xdf;" horiz-adv-x="1193" 
d="M143 0v989q0 138 28.5 230t94.5 157q111 105 332 105q200 0 318 -88.5t118 -245.5q0 -102 -47 -175t-119 -108q103 -42 174.5 -143t71.5 -252q0 -119 -38.5 -211.5t-105.5 -149t-153 -85.5t-186 -29q-70 0 -131 10v189q43 -11 88 -11q55 0 102.5 15.5t87 47.5t62 88
t22.5 130q0 247 -262 278q-26 4 -100 4v177h16q268 0 268 192q0 84 -49.5 128t-142.5 44q-199 0 -199 -244v-1042h-250z" />
    <glyph glyph-name="agrave" unicode="&#xe0;" horiz-adv-x="1153" 
d="M354 739h-237q8 160 132 265.5t329 105.5q82 0 147 -14t122 -47.5t94.5 -87.5t59 -136t21.5 -190v-301q0 -209 25 -334h-230q-12 62 -12 143q-48 -71 -140 -117t-216 -46q-171 0 -277 85t-106 234q0 274 466 342q121 18 248 29q-4 133 -53 189t-156 56q-193 0 -217 -176z
M782 451q0 22 2 45l-55 -7q-212 -21 -304.5 -61.5t-92.5 -122.5q0 -72 49 -109.5t137 -37.5q132 0 198 76.5t66 216.5zM510 1221l-285 243h322l233 -243h-270z" />
    <glyph glyph-name="aacute" unicode="&#xe1;" horiz-adv-x="1153" 
d="M354 739h-237q8 160 132 265.5t329 105.5q82 0 147 -14t122 -47.5t94.5 -87.5t59 -136t21.5 -190v-301q0 -209 25 -334h-230q-12 62 -12 143q-48 -71 -140 -117t-216 -46q-171 0 -277 85t-106 234q0 274 466 342q121 18 248 29q-4 133 -53 189t-156 56q-193 0 -217 -176z
M782 451q0 22 2 45l-55 -7q-212 -21 -304.5 -61.5t-92.5 -122.5q0 -72 49 -109.5t137 -37.5q132 0 198 76.5t66 216.5zM936 1464l-285 -243h-270l233 243h322z" />
    <glyph glyph-name="acircumflex" unicode="&#xe2;" horiz-adv-x="1153" 
d="M354 739h-237q8 160 132 265.5t329 105.5q82 0 147 -14t122 -47.5t94.5 -87.5t59 -136t21.5 -190v-301q0 -209 25 -334h-230q-12 62 -12 143q-48 -71 -140 -117t-216 -46q-171 0 -277 85t-106 234q0 274 466 342q121 18 248 29q-4 133 -53 189t-156 56q-193 0 -217 -176z
M782 451q0 22 2 45l-55 -7q-212 -21 -304.5 -61.5t-92.5 -122.5q0 -72 49 -109.5t137 -37.5q132 0 198 76.5t66 216.5zM436 1464h277q39 -45 113.5 -125.5t107.5 -117.5h-244l-112 127l-115 -127h-244q45 47 123 136t94 107z" />
    <glyph glyph-name="atilde" unicode="&#xe3;" horiz-adv-x="1153" 
d="M354 739h-237q8 160 132 265.5t329 105.5q82 0 147 -14t122 -47.5t94.5 -87.5t59 -136t21.5 -190v-301q0 -209 25 -334h-230q-12 62 -12 143q-48 -71 -140 -117t-216 -46q-171 0 -277 85t-106 234q0 274 466 342q121 18 248 29q-4 133 -53 189t-156 56q-193 0 -217 -176z
M782 451q0 22 2 45l-55 -7q-212 -21 -304.5 -61.5t-92.5 -122.5q0 -72 49 -109.5t137 -37.5q132 0 198 76.5t66 216.5zM537 1257q-64 37 -95 37q-28 0 -40.5 -17t-18.5 -58h-154q0 101 56 177.5t137 76.5q27 0 56 -8t42.5 -14.5t48.5 -23.5q73 -36 97 -36q27 0 38.5 17.5
t18.5 57.5h147q0 -104 -49.5 -179t-132.5 -75q-59 0 -151 45z" />
    <glyph glyph-name="adieresis" unicode="&#xe4;" horiz-adv-x="1153" 
d="M354 739h-237q8 160 132 265.5t329 105.5q82 0 147 -14t122 -47.5t94.5 -87.5t59 -136t21.5 -190v-301q0 -209 25 -334h-230q-12 62 -12 143q-48 -71 -140 -117t-216 -46q-171 0 -277 85t-106 234q0 274 466 342q121 18 248 29q-4 133 -53 189t-156 56q-193 0 -217 -176z
M782 451q0 22 2 45l-55 -7q-212 -21 -304.5 -61.5t-92.5 -122.5q0 -72 49 -109.5t137 -37.5q132 0 198 76.5t66 216.5zM272 1235v225h230v-225h-230zM655 1235v225h228v-225h-228z" />
    <glyph glyph-name="aring" unicode="&#xe5;" horiz-adv-x="1153" 
d="M354 739h-237q8 160 132 265.5t329 105.5q82 0 147 -14t122 -47.5t94.5 -87.5t59 -136t21.5 -190v-301q0 -209 25 -334h-230q-12 62 -12 143q-48 -71 -140 -117t-216 -46q-171 0 -277 85t-106 234q0 274 466 342q121 18 248 29q-4 133 -53 189t-156 56q-193 0 -217 -176z
M782 451q0 22 2 45l-55 -7q-212 -21 -304.5 -61.5t-92.5 -122.5q0 -72 49 -109.5t137 -37.5q132 0 198 76.5t66 216.5zM592 1184q-85 0 -142 58t-57 144q0 82 59 140.5t142 58.5q84 0 142.5 -58.5t58.5 -140.5q0 -86 -58.5 -144t-144.5 -58zM504 1386q0 -38 25.5 -65
t62.5 -27q39 0 64.5 25.5t25.5 66.5q0 36 -26 62.5t-64 26.5q-36 0 -62 -26.5t-26 -62.5z" />
    <glyph glyph-name="ae" unicode="&#xe6;" horiz-adv-x="1896" 
d="M1829 475l-823 2q12 -134 96 -218.5t213 -84.5q170 0 246 133h251q-51 -153 -182.5 -246.5t-320.5 -93.5q-139 0 -251.5 52t-185.5 147q-55 -79 -162.5 -132.5t-254.5 -53.5q-170 0 -277.5 85t-107.5 234q0 194 229 283q97 36 240 59t245 29q0 129 -52 187t-159 58
q-100 0 -153 -47t-64 -127h-245q9 77 42 142.5t90 117t143.5 80.5t193.5 29q250 0 354 -141q156 143 371 143q125 0 226 -44.5t166 -122.5t99.5 -181t34.5 -221q0 -17 -0.5 -32.5t-1 -24.5t-0.5 -11zM1014 655h567q-12 115 -86 189t-192 74q-119 0 -195.5 -68t-93.5 -195z
M786 498l-49 -6q-75 -9 -124.5 -16.5t-99 -18.5t-79 -24t-54 -31t-34.5 -41t-10 -54q0 -70 51.5 -106.5t136.5 -36.5q145 0 203.5 83t58.5 251z" />
    <glyph glyph-name="ccedilla" unicode="&#xe7;" horiz-adv-x="1196" 
d="M885 344h245q-48 -170 -177.5 -273.5t-327.5 -103.5q-167 0 -292.5 74.5t-191 203.5t-65.5 294q0 162 68 292.5t194.5 205.5t290.5 75q203 0 334.5 -108t169.5 -285h-261q-34 90 -93 137t-154 47q-133 0 -213 -100.5t-80 -259.5q0 -168 81 -268.5t222 -100.5q90 0 154 45
t96 125zM332 -334l190 234h252l-156 -234h-286z" />
    <glyph glyph-name="egrave" unicode="&#xe8;" horiz-adv-x="1216" 
d="M1149 475l-823 2q12 -134 96 -218.5t213 -84.5q170 0 246 133h252q-51 -153 -183 -246.5t-321 -93.5q-250 0 -401.5 160t-151.5 414q0 248 152.5 409.5t396.5 161.5q125 0 226 -44.5t166 -122.5t99.5 -181t34.5 -221q0 -17 -0.5 -32.5t-1 -24.5t-0.5 -11zM334 655h567
q-12 115 -86 189t-192 74q-119 0 -195.5 -68t-93.5 -195zM549 1221l-285 243h322l233 -243h-270z" />
    <glyph glyph-name="eacute" unicode="&#xe9;" horiz-adv-x="1216" 
d="M1149 475l-823 2q12 -134 96 -218.5t213 -84.5q170 0 246 133h252q-51 -153 -183 -246.5t-321 -93.5q-250 0 -401.5 160t-151.5 414q0 248 152.5 409.5t396.5 161.5q125 0 226 -44.5t166 -122.5t99.5 -181t34.5 -221q0 -17 -0.5 -32.5t-1 -24.5t-0.5 -11zM334 655h567
q-12 115 -86 189t-192 74q-119 0 -195.5 -68t-93.5 -195zM975 1464l-285 -243h-270l233 243h322z" />
    <glyph glyph-name="ecircumflex" unicode="&#xea;" horiz-adv-x="1216" 
d="M1149 475l-823 2q12 -134 96 -218.5t213 -84.5q170 0 246 133h252q-51 -153 -183 -246.5t-321 -93.5q-250 0 -401.5 160t-151.5 414q0 248 152.5 409.5t396.5 161.5q125 0 226 -44.5t166 -122.5t99.5 -181t34.5 -221q0 -17 -0.5 -32.5t-1 -24.5t-0.5 -11zM334 655h567
q-12 115 -86 189t-192 74q-119 0 -195.5 -68t-93.5 -195zM485 1464h277q39 -45 113.5 -125.5t107.5 -117.5h-244l-112 127l-115 -127h-244q45 47 123 136t94 107z" />
    <glyph glyph-name="edieresis" unicode="&#xeb;" horiz-adv-x="1216" 
d="M1149 475l-823 2q12 -134 96 -218.5t213 -84.5q170 0 246 133h252q-51 -153 -183 -246.5t-321 -93.5q-250 0 -401.5 160t-151.5 414q0 248 152.5 409.5t396.5 161.5q125 0 226 -44.5t166 -122.5t99.5 -181t34.5 -221q0 -17 -0.5 -32.5t-1 -24.5t-0.5 -11zM334 655h567
q-12 115 -86 189t-192 74q-119 0 -195.5 -68t-93.5 -195zM313 1235v225h230v-225h-230zM696 1235v225h228v-225h-228z" />
    <glyph glyph-name="igrave" unicode="&#xec;" horiz-adv-x="538" 
d="M143 0v1075h252v-1075h-252zM201 1221l-285 243h322l233 -243h-270z" />
    <glyph glyph-name="iacute" unicode="&#xed;" horiz-adv-x="538" 
d="M143 0v1075h252v-1075h-252zM653 1464l-284 -243h-271l234 243h321z" />
    <glyph glyph-name="icircumflex" unicode="&#xee;" horiz-adv-x="538" 
d="M143 0v1075h252v-1075h-252zM147 1464h277q39 -45 113.5 -125.5t107.5 -117.5h-244l-112 127l-115 -127h-244q45 47 123 136t94 107z" />
    <glyph glyph-name="idieresis" unicode="&#xef;" horiz-adv-x="538" 
d="M143 0v1075h252v-1075h-252zM-20 1235v225h229v-225h-229zM362 1235v225h228v-225h-228z" />
    <glyph glyph-name="eth" unicode="&#xf0;" horiz-adv-x="1288" 
d="M246 1464h336l84 -43l194 82l94 -90l-168 -74q207 -168 312.5 -356t105.5 -430q0 -263 -151 -423.5t-416 -160.5q-253 0 -406 154t-153 409q0 129 41.5 237.5t113 180t165.5 111t200 39.5q63 0 122 -13.5t85 -31.5l6 6q-62 98 -211 194l-201 -92l-114 88l198 86
q-119 71 -237 127zM637 180q140 0 220.5 97t80.5 262q0 160 -81 260t-220 100t-220 -100t-81 -260q0 -165 80.5 -262t220.5 -97z" />
    <glyph glyph-name="ntilde" unicode="&#xf1;" horiz-adv-x="1239" 
d="M381 1077v-67q0 -45 -2 -68q0 -2 2 -2q114 170 336 170q186 0 287.5 -116t101.5 -326v-668h-250v555q0 170 -49 258t-170 88q-122 0 -183 -83.5t-61 -217.5v-600h-250v913q0 109 -2 164h240zM643 1255q-64 37 -94 37q-28 0 -41 -17.5t-19 -57.5h-153q0 101 55.5 177
t136.5 76q27 0 55 -7.5t44.5 -14.5t48.5 -23q73 -36 96 -36q27 0 38.5 17.5t18.5 57.5h148q0 -104 -49.5 -179t-132.5 -75q-60 0 -152 45z" />
    <glyph glyph-name="ograve" unicode="&#xf2;" horiz-adv-x="1277" 
d="M637 1112q253 0 408 -160t155 -415q0 -253 -154.5 -411.5t-412.5 -158.5q-169 0 -296.5 74t-194 203t-66.5 293q0 255 154.5 415t406.5 160zM633 903q-139 0 -220 -101t-81 -263q0 -167 80.5 -265t220.5 -98q142 0 222.5 98t80.5 265q0 162 -82 263t-221 101zM575 1221
l-284 243h321l234 -243h-271z" />
    <glyph glyph-name="oacute" unicode="&#xf3;" horiz-adv-x="1277" 
d="M637 1112q253 0 408 -160t155 -415q0 -253 -154.5 -411.5t-412.5 -158.5q-169 0 -296.5 74t-194 203t-66.5 293q0 255 154.5 415t406.5 160zM633 903q-139 0 -220 -101t-81 -263q0 -167 80.5 -265t220.5 -98q142 0 222.5 98t80.5 265q0 162 -82 263t-221 101zM1016 1464
l-285 -243h-270l233 243h322z" />
    <glyph glyph-name="ocircumflex" unicode="&#xf4;" horiz-adv-x="1277" 
d="M637 1112q253 0 408 -160t155 -415q0 -253 -154.5 -411.5t-412.5 -158.5q-169 0 -296.5 74t-194 203t-66.5 293q0 255 154.5 415t406.5 160zM633 903q-139 0 -220 -101t-81 -263q0 -167 80.5 -265t220.5 -98q142 0 222.5 98t80.5 265q0 162 -82 263t-221 101zM504 1464
h276q39 -45 113.5 -125.5t107.5 -117.5h-243l-113 127l-115 -127h-243q45 47 123 136t94 107z" />
    <glyph glyph-name="otilde" unicode="&#xf5;" horiz-adv-x="1277" 
d="M637 1112q253 0 408 -160t155 -415q0 -253 -154.5 -411.5t-412.5 -158.5q-169 0 -296.5 74t-194 203t-66.5 293q0 255 154.5 415t406.5 160zM633 903q-139 0 -220 -101t-81 -263q0 -167 80.5 -265t220.5 -98q142 0 222.5 98t80.5 265q0 162 -82 263t-221 101zM621 1255
q-64 37 -95 37q-28 0 -40.5 -17t-18.5 -58h-154q0 101 56 177t137 76q27 0 55 -7.5t43.5 -14.5t48.5 -23q73 -36 97 -36q27 0 38.5 17.5t18.5 57.5h147q0 -104 -49.5 -179t-132.5 -75q-59 0 -151 45z" />
    <glyph glyph-name="odieresis" unicode="&#xf6;" horiz-adv-x="1277" 
d="M637 1112q253 0 408 -160t155 -415q0 -253 -154.5 -411.5t-412.5 -158.5q-169 0 -296.5 74t-194 203t-66.5 293q0 255 154.5 415t406.5 160zM633 903q-139 0 -220 -101t-81 -263q0 -167 80.5 -265t220.5 -98q142 0 222.5 98t80.5 265q0 162 -82 263t-221 101zM326 1235
v225h229v-225h-229zM709 1235v225h227v-225h-227z" />
    <glyph glyph-name="divide" unicode="&#xf7;" 
d="M147 549v219h906v-219h-906zM477 881v245h240v-245h-240zM477 188v246h240v-246h-240z" />
    <glyph glyph-name="oslash" unicode="&#xf8;" horiz-adv-x="1277" 
d="M635 -33q-93 0 -189 27l-79 -139l-179 96l78 137q-190 161 -190 449q0 254 155 413.5t408 159.5q94 0 192 -29l78 136l181 -95l-80 -139q192 -162 192 -446q0 -250 -155 -410t-412 -160zM334 539q0 -143 57 -232l330 580q-41 12 -86 12q-139 0 -220 -100t-81 -260z
M635 180q140 0 220.5 97t80.5 262q0 130 -53 219l-326 -570q31 -8 78 -8z" />
    <glyph glyph-name="ugrave" unicode="&#xf9;" horiz-adv-x="1234" 
d="M856 0v76v78q-102 -183 -334 -183q-188 0 -288.5 115t-100.5 354v635h250v-573q0 -75 10.5 -131.5t35 -101t68.5 -68t107 -23.5q238 0 238 334v563h250v-913q0 -111 2 -162h-238zM557 1221l-285 243h322l233 -243h-270z" />
    <glyph glyph-name="uacute" unicode="&#xfa;" horiz-adv-x="1234" 
d="M856 0v76v78q-102 -183 -334 -183q-188 0 -288.5 115t-100.5 354v635h250v-573q0 -75 10.5 -131.5t35 -101t68.5 -68t107 -23.5q238 0 238 334v563h250v-913q0 -111 2 -162h-238zM989 1464l-284 -243h-271l234 243h321z" />
    <glyph glyph-name="ucircumflex" unicode="&#xfb;" horiz-adv-x="1234" 
d="M856 0v76v78q-102 -183 -334 -183q-188 0 -288.5 115t-100.5 354v635h250v-573q0 -75 10.5 -131.5t35 -101t68.5 -68t107 -23.5q238 0 238 334v563h250v-913q0 -111 2 -162h-238zM483 1464h277q39 -45 113.5 -125.5t107.5 -117.5h-244l-112 127l-115 -127h-244
q45 47 123 136t94 107z" />
    <glyph glyph-name="udieresis" unicode="&#xfc;" horiz-adv-x="1234" 
d="M856 0v76v78q-102 -183 -334 -183q-188 0 -288.5 115t-100.5 354v635h250v-573q0 -75 10.5 -131.5t35 -101t68.5 -68t107 -23.5q238 0 238 334v563h250v-913q0 -111 2 -162h-238zM326 1235v225h229v-225h-229zM709 1235v225h227v-225h-227z" />
    <glyph glyph-name="yacute" unicode="&#xfd;" horiz-adv-x="1103" 
d="M512 -369h-254l168 398q-73 191 -225 580.5t-181 465.5h275q62 -177 143.5 -421.5t118.5 -346.5q38 105 138.5 402.5t123.5 365.5h268q-431 -1094 -575 -1444zM930 1464l-285 -243h-270l233 243h322z" />
    <glyph glyph-name="thorn" unicode="&#xfe;" horiz-adv-x="1327" 
d="M143 1464h252v-270q0 -170 -2 -242q52 68 143 111t216 43q221 0 359 -156.5t138 -408.5q0 -246 -137.5 -406t-366.5 -160q-121 0 -212 48.5t-140 121.5q2 -74 2 -208v-306h-252v1833zM692 184q138 0 218.5 102t80.5 259q0 156 -80.5 255t-218.5 99q-144 0 -226.5 -101
t-82.5 -261q0 -154 87 -253.5t222 -99.5z" />
    <glyph glyph-name="ydieresis" unicode="&#xff;" horiz-adv-x="1103" 
d="M512 -369h-254l168 398q-73 191 -225 580.5t-181 465.5h275q62 -177 143.5 -421.5t118.5 -346.5q38 105 138.5 402.5t123.5 365.5h268q-431 -1094 -575 -1444zM260 1235v225h229v-225h-229zM643 1235v225h227v-225h-227z" />
    <glyph glyph-name="Amacron" unicode="&#x100;" horiz-adv-x="1460" 
d="M254 0h-266q51 117 221.5 537t382.5 927h282l594 -1464h-270q-40 98 -166 422h-614zM729 1229h-4q-27 -69 -88.5 -233.5t-95.5 -250.5l-37 -100h442q-9 27 -14 37l-25 63l-71 189q-62 165 -107 295zM451 1583v174h559v-174h-559z" />
    <glyph glyph-name="amacron" unicode="&#x101;" horiz-adv-x="1153" 
d="M354 739h-237q8 160 132 265.5t329 105.5q82 0 147 -14t122 -47.5t94.5 -87.5t59 -136t21.5 -190v-301q0 -209 25 -334h-230q-12 62 -12 143q-48 -71 -140 -117t-216 -46q-171 0 -277 85t-106 234q0 274 466 342q121 18 248 29q-4 133 -53 189t-156 56q-193 0 -217 -176z
M782 451q0 22 2 45l-55 -7q-212 -21 -304.5 -61.5t-92.5 -122.5q0 -72 49 -109.5t137 -37.5q132 0 198 76.5t66 216.5zM301 1266v174h559v-174h-559z" />
    <glyph glyph-name="Abreve" unicode="&#x102;" horiz-adv-x="1460" 
d="M254 0h-266q51 117 221.5 537t382.5 927h282l594 -1464h-270q-40 98 -166 422h-614zM729 1229h-4q-27 -69 -88.5 -233.5t-95.5 -250.5l-37 -100h442q-9 27 -14 37l-25 63l-71 189q-62 165 -107 295zM735 1538q-127 0 -206 68.5t-97 187.5h168q13 -45 47 -72.5t88 -27.5
q93 0 135 100h166q-18 -119 -96 -187.5t-205 -68.5z" />
    <glyph glyph-name="abreve" unicode="&#x103;" horiz-adv-x="1153" 
d="M354 739h-237q8 160 132 265.5t329 105.5q82 0 147 -14t122 -47.5t94.5 -87.5t59 -136t21.5 -190v-301q0 -209 25 -334h-230q-12 62 -12 143q-48 -71 -140 -117t-216 -46q-171 0 -277 85t-106 234q0 274 466 342q121 18 248 29q-4 133 -53 189t-156 56q-193 0 -217 -176z
M782 451q0 22 2 45l-55 -7q-212 -21 -304.5 -61.5t-92.5 -122.5q0 -72 49 -109.5t137 -37.5q132 0 198 76.5t66 216.5zM573 1196q-128 0 -207 70t-96 198h168q28 -100 135 -100q55 0 85.5 26t50.5 74h165q-17 -128 -95 -198t-206 -70z" />
    <glyph glyph-name="Aogonek" unicode="&#x104;" horiz-adv-x="1460" 
d="M254 0h-266q51 117 221.5 537t382.5 927h282l594 -1464h-270q-40 98 -166 422h-614zM729 1229h-4q-27 -69 -88.5 -233.5t-95.5 -250.5l-37 -100h442q-9 27 -14 37l-25 63l-71 189q-62 165 -107 295zM1368 -100l191 -234h-287l-156 234h252z" />
    <glyph glyph-name="aogonek" unicode="&#x105;" horiz-adv-x="1153" 
d="M354 739h-237q8 160 132 265.5t329 105.5q82 0 147 -14t122 -47.5t94.5 -87.5t59 -136t21.5 -190v-301q0 -209 25 -334h-230q-12 62 -12 143q-48 -71 -140 -117t-216 -46q-171 0 -277 85t-106 234q0 274 466 342q121 18 248 29q-4 133 -53 189t-156 56q-193 0 -217 -176z
M782 451q0 22 2 45l-55 -7q-212 -21 -304.5 -61.5t-92.5 -122.5q0 -72 49 -109.5t137 -37.5q132 0 198 76.5t66 216.5zM1001 -100l191 -234h-287l-155 234h251z" />
    <glyph glyph-name="Cacute" unicode="&#x106;" horiz-adv-x="1538" 
d="M1198 424h275q-31 -92 -89.5 -172.5t-140.5 -144t-193.5 -100t-238.5 -36.5q-213 0 -379 99.5t-256 272t-90 388.5q0 161 52 301t145.5 242t231 160.5t300.5 58.5q256 0 430.5 -128t233.5 -341h-285q-52 117 -150 181.5t-231 64.5q-142 0 -247.5 -72t-158.5 -193
t-53 -274t55.5 -274t162.5 -191.5t249 -70.5q245 0 377 229zM1176 1794l-269 -235h-270l217 235h322z" />
    <glyph glyph-name="cacute" unicode="&#x107;" horiz-adv-x="1196" 
d="M885 344h245q-48 -170 -177.5 -273.5t-327.5 -103.5q-167 0 -292.5 74.5t-191 203.5t-65.5 294q0 162 68 292.5t194.5 205.5t290.5 75q203 0 334.5 -108t169.5 -285h-261q-34 90 -93 137t-154 47q-133 0 -213 -100.5t-80 -259.5q0 -168 81 -268.5t222 -100.5q90 0 154 45
t96 125zM977 1464l-285 -243h-270l233 243h322z" />
    <glyph glyph-name="Ccircumflex" unicode="&#x108;" horiz-adv-x="1538" 
d="M1198 424h275q-31 -92 -89.5 -172.5t-140.5 -144t-193.5 -100t-238.5 -36.5q-213 0 -379 99.5t-256 272t-90 388.5q0 161 52 301t145.5 242t231 160.5t300.5 58.5q256 0 430.5 -128t233.5 -341h-285q-52 117 -150 181.5t-231 64.5q-142 0 -247.5 -72t-158.5 -193
t-53 -274t55.5 -274t162.5 -191.5t249 -70.5q245 0 377 229zM678 1792h276q38 -42 111 -116.5t111 -116.5h-244l-113 118l-114 -118h-244q139 146 217 233z" />
    <glyph glyph-name="ccircumflex" unicode="&#x109;" horiz-adv-x="1196" 
d="M885 344h245q-48 -170 -177.5 -273.5t-327.5 -103.5q-167 0 -292.5 74.5t-191 203.5t-65.5 294q0 162 68 292.5t194.5 205.5t290.5 75q203 0 334.5 -108t169.5 -285h-261q-34 90 -93 137t-154 47q-133 0 -213 -100.5t-80 -259.5q0 -168 81 -268.5t222 -100.5q90 0 154 45
t96 125zM492 1464h276q39 -45 113.5 -125.5t107.5 -117.5h-244l-112 127l-115 -127h-244q45 48 127 140.5t91 102.5z" />
    <glyph glyph-name="Cdotaccent" unicode="&#x10a;" horiz-adv-x="1538" 
d="M1198 424h275q-31 -92 -89.5 -172.5t-140.5 -144t-193.5 -100t-238.5 -36.5q-213 0 -379 99.5t-256 272t-90 388.5q0 161 52 301t145.5 242t231 160.5t300.5 58.5q256 0 430.5 -128t233.5 -341h-285q-52 117 -150 181.5t-231 64.5q-142 0 -247.5 -72t-158.5 -193
t-53 -274t55.5 -274t162.5 -191.5t249 -70.5q245 0 377 229zM705 1563v225h229v-225h-229z" />
    <glyph glyph-name="cdotaccent" unicode="&#x10b;" horiz-adv-x="1196" 
d="M885 344h245q-48 -170 -177.5 -273.5t-327.5 -103.5q-167 0 -292.5 74.5t-191 203.5t-65.5 294q0 162 68 292.5t194.5 205.5t290.5 75q203 0 334.5 -108t169.5 -285h-261q-34 90 -93 137t-154 47q-133 0 -213 -100.5t-80 -259.5q0 -168 81 -268.5t222 -100.5q90 0 154 45
t96 125zM518 1235v225h230v-225h-230z" />
    <glyph glyph-name="Ccaron" unicode="&#x10c;" horiz-adv-x="1538" 
d="M1198 424h275q-31 -92 -89.5 -172.5t-140.5 -144t-193.5 -100t-238.5 -36.5q-213 0 -379 99.5t-256 272t-90 388.5q0 161 52 301t145.5 242t231 160.5t300.5 58.5q256 0 430.5 -128t233.5 -341h-285q-52 117 -150 181.5t-231 64.5q-142 0 -247.5 -72t-158.5 -193
t-53 -274t55.5 -274t162.5 -191.5t249 -70.5q245 0 377 229zM958 1559h-276q-78 87 -217 233h244l114 -119l113 119h244q-38 -42 -111 -116.5t-111 -116.5z" />
    <glyph glyph-name="ccaron" unicode="&#x10d;" horiz-adv-x="1196" 
d="M885 344h245q-48 -170 -177.5 -273.5t-327.5 -103.5q-167 0 -292.5 74.5t-191 203.5t-65.5 294q0 162 68 292.5t194.5 205.5t290.5 75q203 0 334.5 -108t169.5 -285h-261q-34 90 -93 137t-154 47q-133 0 -213 -100.5t-80 -259.5q0 -168 81 -268.5t222 -100.5q90 0 154 45
t96 125zM774 1221h-276q-16 18 -94 107t-123 136h243l115 -127l113 127h243q-33 -37 -107.5 -117.5t-113.5 -125.5z" />
    <glyph glyph-name="Dcaron" unicode="&#x10e;" horiz-adv-x="1488" 
d="M174 0v1464h320q98 0 162.5 -3t151 -13t158.5 -34.5t132 -63.5q141 -91 222 -256t81 -365q0 -180 -67.5 -329t-188.5 -248q-63 -51 -132 -82.5t-153.5 -46t-160.5 -19t-191 -4.5h-334zM434 1233v-1008h144q276 0 415.5 116t139.5 388q0 247 -139 376.5t-390 129.5
q-115 0 -170 -2zM831 1559h-276q-78 87 -217 233h244l114 -119l113 119h244q-38 -42 -111 -116.5t-111 -116.5z" />
    <glyph glyph-name="dcaron" unicode="&#x10f;" horiz-adv-x="1523" 
d="M1180 0h-236v152q-52 -79 -146 -128t-225 -49q-221 0 -358 157t-137 409q0 248 137.5 408.5t364.5 160.5q119 0 211 -49.5t141 -122.5q-2 76 -2 213v313h250v-1464zM633 903q-137 0 -218 -104t-81 -262q0 -157 80 -258t217 -101q143 0 227 102.5t84 264.5q0 156 -87 257
t-222 101zM1681 1464l-182 -522h-215l148 522h249z" />
    <glyph glyph-name="Dcroat" unicode="&#x110;" horiz-adv-x="1499" 
d="M49 643v201h135v620h318q98 0 160 -2.5t149 -12.5t159.5 -34t133.5 -63q141 -88 224 -255t83 -366q0 -177 -67.5 -328t-186.5 -249q-63 -51 -132.5 -83t-155 -47t-162.5 -19.5t-195 -4.5h-328v643h-135zM1139 731q0 247 -138 374.5t-385 127.5h-170v-389h279v-201h-279
v-414h140q136 0 235.5 26t172.5 84t109 155.5t36 236.5z" />
    <glyph glyph-name="dcroat" unicode="&#x111;" horiz-adv-x="1327" 
d="M1184 1464v-110h114v-201h-114v-1153h-238v150q-49 -75 -143.5 -125t-227.5 -50q-221 0 -359 157t-138 409q0 246 137.5 405.5t366.5 159.5q121 0 212 -48.5t140 -121.5q-2 74 -2 209v8h-144v201h144v110h252zM635 897q-138 0 -218.5 -101.5t-80.5 -258.5
q0 -156 80.5 -255.5t218.5 -99.5q144 0 226.5 101.5t82.5 261.5q0 154 -87 253t-222 99z" />
    <glyph glyph-name="Emacron" unicode="&#x112;" horiz-adv-x="1183" 
d="M174 0v1464h899v-231h-641v-373h592v-229h-592v-404h655v-227h-913zM356 1583v174h559v-174h-559z" />
    <glyph glyph-name="emacron" unicode="&#x113;" horiz-adv-x="1216" 
d="M1149 475l-823 2q12 -134 96 -218.5t213 -84.5q170 0 246 133h252q-51 -153 -183 -246.5t-321 -93.5q-250 0 -401.5 160t-151.5 414q0 248 152.5 409.5t396.5 161.5q125 0 226 -44.5t166 -122.5t99.5 -181t34.5 -221q0 -17 -0.5 -32.5t-1 -24.5t-0.5 -11zM334 655h567
q-12 115 -86 189t-192 74q-119 0 -195.5 -68t-93.5 -195zM346 1266v174h559v-174h-559z" />
    <glyph glyph-name="Ebreve" unicode="&#x114;" horiz-adv-x="1183" 
d="M174 0v1464h899v-231h-641v-373h592v-229h-592v-404h655v-227h-913zM643 1538q-127 0 -206 68.5t-97 187.5h168q13 -45 47 -72.5t88 -27.5q93 0 135 100h166q-18 -119 -96 -187.5t-205 -68.5z" />
    <glyph glyph-name="ebreve" unicode="&#x115;" horiz-adv-x="1216" 
d="M1149 475l-823 2q12 -134 96 -218.5t213 -84.5q170 0 246 133h252q-51 -153 -183 -246.5t-321 -93.5q-250 0 -401.5 160t-151.5 414q0 248 152.5 409.5t396.5 161.5q125 0 226 -44.5t166 -122.5t99.5 -181t34.5 -221q0 -17 -0.5 -32.5t-1 -24.5t-0.5 -11zM334 655h567
q-12 115 -86 189t-192 74q-119 0 -195.5 -68t-93.5 -195zM629 1196q-128 0 -207 70t-96 198h168q28 -100 135 -100q55 0 85 26t50 74h166q-17 -128 -95 -198t-206 -70z" />
    <glyph glyph-name="Edotaccent" unicode="&#x116;" horiz-adv-x="1183" 
d="M174 0v1464h899v-231h-641v-373h592v-229h-592v-404h655v-227h-913zM520 1563v225h230v-225h-230z" />
    <glyph glyph-name="edotaccent" unicode="&#x117;" horiz-adv-x="1216" 
d="M1149 475l-823 2q12 -134 96 -218.5t213 -84.5q170 0 246 133h252q-51 -153 -183 -246.5t-321 -93.5q-250 0 -401.5 160t-151.5 414q0 248 152.5 409.5t396.5 161.5q125 0 226 -44.5t166 -122.5t99.5 -181t34.5 -221q0 -17 -0.5 -32.5t-1 -24.5t-0.5 -11zM334 655h567
q-12 115 -86 189t-192 74q-119 0 -195.5 -68t-93.5 -195zM502 1235v225h229v-225h-229z" />
    <glyph glyph-name="Eogonek" unicode="&#x118;" horiz-adv-x="1183" 
d="M174 0v1464h899v-231h-641v-373h592v-229h-592v-404h655v-227h-913zM745 -100l191 -234h-287l-155 234h251z" />
    <glyph glyph-name="eogonek" unicode="&#x119;" horiz-adv-x="1216" 
d="M1149 475l-823 2q12 -134 96 -218.5t213 -84.5q170 0 246 133h252q-51 -153 -183 -246.5t-321 -93.5q-250 0 -401.5 160t-151.5 414q0 248 152.5 409.5t396.5 161.5q125 0 226 -44.5t166 -122.5t99.5 -181t34.5 -221q0 -17 -0.5 -32.5t-1 -24.5t-0.5 -11zM334 655h567
q-12 115 -86 189t-192 74q-119 0 -195.5 -68t-93.5 -195zM668 -100l190 -234h-287l-155 234h252z" />
    <glyph glyph-name="Ecaron" unicode="&#x11a;" horiz-adv-x="1183" 
d="M174 0v1464h899v-231h-641v-373h592v-229h-592v-404h655v-227h-913zM782 1559h-276q-78 87 -217 233h243l115 -119l113 119h244q-38 -42 -111 -116.5t-111 -116.5z" />
    <glyph glyph-name="ecaron" unicode="&#x11b;" horiz-adv-x="1216" 
d="M1149 475l-823 2q12 -134 96 -218.5t213 -84.5q170 0 246 133h252q-51 -153 -183 -246.5t-321 -93.5q-250 0 -401.5 160t-151.5 414q0 248 152.5 409.5t396.5 161.5q125 0 226 -44.5t166 -122.5t99.5 -181t34.5 -221q0 -17 -0.5 -32.5t-1 -24.5t-0.5 -11zM334 655h567
q-12 115 -86 189t-192 74q-119 0 -195.5 -68t-93.5 -195zM764 1221h-277q-16 18 -94 107t-123 136h244l115 -127l112 127h244q-33 -37 -107.5 -117.5t-113.5 -125.5z" />
    <glyph glyph-name="Gcircumflex" unicode="&#x11c;" horiz-adv-x="1622" 
d="M764 774h741v-774h-235v70v77q-72 -79 -190 -127.5t-279 -48.5q-152 0 -284.5 55.5t-227 154t-149 241t-54.5 309.5q0 218 92 391t263.5 272t392.5 99q250 0 428.5 -130.5t242.5 -334.5h-295q-52 117 -148 179.5t-231 62.5q-222 0 -349.5 -149.5t-127.5 -385.5
q0 -241 131.5 -393t354.5 -152q196 0 306.5 106t123.5 271h-506v207zM696 1792h277q38 -42 110.5 -116.5t110.5 -116.5h-244l-112 118l-115 -118h-244q139 146 217 233z" />
    <glyph glyph-name="gcircumflex" unicode="&#x11d;" horiz-adv-x="1327" 
d="M1186 1075v-897q0 -266 -146 -418.5t-411 -152.5q-200 0 -334 95.5t-178 258.5h264q32 -71 96.5 -109t151.5 -38q173 0 249 102.5t76 306.5h-4q-46 -75 -140 -125.5t-226 -50.5q-230 0 -367 146.5t-137 379.5q0 237 140.5 386t357.5 149q132 0 225 -50t147 -126
q-2 25 -2 72v71h238zM641 901q-140 0 -222.5 -89t-82.5 -237q0 -146 81 -235.5t224 -89.5q135 0 221 87.5t86 244.5q0 143 -83.5 231t-223.5 88zM535 1464h276q39 -45 113.5 -125.5t107.5 -117.5h-244l-112 127l-115 -127h-244q45 48 127 140.5t91 102.5z" />
    <glyph glyph-name="Gbreve" unicode="&#x11e;" horiz-adv-x="1622" 
d="M764 774h741v-774h-235v70v77q-72 -79 -190 -127.5t-279 -48.5q-152 0 -284.5 55.5t-227 154t-149 241t-54.5 309.5q0 218 92 391t263.5 272t392.5 99q250 0 428.5 -130.5t242.5 -334.5h-295q-52 117 -148 179.5t-231 62.5q-222 0 -349.5 -149.5t-127.5 -385.5
q0 -241 131.5 -393t354.5 -152q196 0 306.5 106t123.5 271h-506v207zM836 1538q-127 0 -206.5 68.5t-97.5 187.5h168q13 -45 47.5 -72.5t88.5 -27.5q93 0 135 100h166q-18 -119 -96 -187.5t-205 -68.5z" />
    <glyph glyph-name="gbreve" unicode="&#x11f;" horiz-adv-x="1327" 
d="M1186 1075v-897q0 -266 -146 -418.5t-411 -152.5q-200 0 -334 95.5t-178 258.5h264q32 -71 96.5 -109t151.5 -38q173 0 249 102.5t76 306.5h-4q-46 -75 -140 -125.5t-226 -50.5q-230 0 -367 146.5t-137 379.5q0 237 140.5 386t357.5 149q132 0 225 -50t147 -126
q-2 25 -2 72v71h238zM641 901q-140 0 -222.5 -89t-82.5 -237q0 -146 81 -235.5t224 -89.5q135 0 221 87.5t86 244.5q0 143 -83.5 231t-223.5 88zM670 1196q-128 0 -207 70t-96 198h168q28 -100 135 -100q55 0 85 26t50 74h166q-17 -128 -95 -198t-206 -70z" />
    <glyph glyph-name="Gdotaccent" unicode="&#x120;" horiz-adv-x="1622" 
d="M764 774h741v-774h-235v70v77q-72 -79 -190 -127.5t-279 -48.5q-152 0 -284.5 55.5t-227 154t-149 241t-54.5 309.5q0 218 92 391t263.5 272t392.5 99q250 0 428.5 -130.5t242.5 -334.5h-295q-52 117 -148 179.5t-231 62.5q-222 0 -349.5 -149.5t-127.5 -385.5
q0 -241 131.5 -393t354.5 -152q196 0 306.5 106t123.5 271h-506v207zM723 1563v225h229v-225h-229z" />
    <glyph glyph-name="gdotaccent" unicode="&#x121;" horiz-adv-x="1327" 
d="M1186 1075v-897q0 -266 -146 -418.5t-411 -152.5q-200 0 -334 95.5t-178 258.5h264q32 -71 96.5 -109t151.5 -38q173 0 249 102.5t76 306.5h-4q-46 -75 -140 -125.5t-226 -50.5q-230 0 -367 146.5t-137 379.5q0 237 140.5 386t357.5 149q132 0 225 -50t147 -126
q-2 25 -2 72v71h238zM641 901q-140 0 -222.5 -89t-82.5 -237q0 -146 81 -235.5t224 -89.5q135 0 221 87.5t86 244.5q0 143 -83.5 231t-223.5 88zM549 1235v225h229v-225h-229z" />
    <glyph glyph-name="Gcommaaccent" unicode="&#x122;" horiz-adv-x="1622" 
d="M764 774h741v-774h-235v70v77q-72 -79 -190 -127.5t-279 -48.5q-152 0 -284.5 55.5t-227 154t-149 241t-54.5 309.5q0 218 92 391t263.5 272t392.5 99q250 0 428.5 -130.5t242.5 -334.5h-295q-52 117 -148 179.5t-231 62.5q-222 0 -349.5 -149.5t-127.5 -385.5
q0 -241 131.5 -393t354.5 -152q196 0 306.5 106t123.5 271h-506v207zM993 -100l-170 -244h-237l121 244h286z" />
    <glyph glyph-name="gcommaaccent" unicode="&#x123;" horiz-adv-x="1327" 
d="M1186 1075v-897q0 -266 -146 -418.5t-411 -152.5q-200 0 -334 95.5t-178 258.5h264q32 -71 96.5 -109t151.5 -38q173 0 249 102.5t76 306.5h-4q-46 -75 -140 -125.5t-226 -50.5q-230 0 -367 146.5t-137 379.5q0 237 140.5 386t357.5 149q132 0 225 -50t147 -126
q-2 25 -2 72v71h238zM641 901q-140 0 -222.5 -89t-82.5 -237q0 -146 81 -235.5t224 -89.5q135 0 221 87.5t86 244.5q0 143 -83.5 231t-223.5 88zM881 1464l-170 -243h-238l121 243h287z" />
    <glyph glyph-name="Hcircumflex" unicode="&#x124;" horiz-adv-x="1492" 
d="M1059 639h-625v-639h-260v1464h260v-596h625v596h260v-1464h-260v639zM602 1792h277q38 -42 110.5 -116.5t110.5 -116.5h-244l-113 118l-114 -118h-244q139 146 217 233z" />
    <glyph glyph-name="hcircumflex" unicode="&#x125;" horiz-adv-x="1236" 
d="M393 1464v-297q0 -49 -4 -213q118 156 326 156q184 0 286.5 -117.5t102.5 -318.5v-674h-248v553q0 171 -49 259.5t-170 88.5q-123 0 -183.5 -82.5t-60.5 -224.5v-594h-250v1464h250zM131 1792h277q38 -42 110.5 -116.5t110.5 -116.5h-244l-113 118l-114 -118h-244
q139 146 217 233z" />
    <glyph glyph-name="Hbar" unicode="&#x126;" horiz-adv-x="1486" 
d="M174 0v1464h262v-186h615v186h262v-1464h-262v637h-615v-637h-262zM436 868h615v209h-615v-209z" />
    <glyph glyph-name="hbar" unicode="&#x127;" horiz-adv-x="1239" 
d="M539 1354v-201h-144q0 -28 -2.5 -106.5t-3.5 -100.5q116 158 328 158q185 0 287 -116.5t102 -321.5v-666h-252v541q0 83 -10 144t-34.5 108.5t-67.5 71.5t-105 24q-119 0 -180.5 -83.5t-61.5 -217.5v-588h-252v1153h-114v201h114v110h252v-110h144z" />
    <glyph glyph-name="Itilde" unicode="&#x128;" horiz-adv-x="608" 
d="M174 0v1464h260v-1464h-260zM299 1595q-64 37 -94 37q-29 0 -41.5 -15t-18.5 -54h-153q0 100 55 173.5t137 73.5q27 0 55 -7.5t44.5 -14.5t48.5 -23q73 -36 96 -36q28 0 39.5 15t17.5 54h148q0 -103 -49.5 -175.5t-132.5 -72.5q-60 0 -152 45z" />
    <glyph glyph-name="itilde" unicode="&#x129;" horiz-adv-x="538" 
d="M143 0v1075h252v-1075h-252zM258 1255q-64 37 -94 37q-28 0 -41 -17.5t-19 -57.5h-153q0 101 55.5 177t136.5 76q27 0 55 -7.5t44.5 -14.5t48.5 -23q73 -36 96 -36q27 0 38.5 17.5t18.5 57.5h148q0 -104 -49.5 -179t-132.5 -75q-60 0 -152 45z" />
    <glyph glyph-name="Imacron" unicode="&#x12a;" horiz-adv-x="608" 
d="M174 0v1464h260v-1464h-260zM29 1583v174h559v-174h-559z" />
    <glyph glyph-name="imacron" unicode="&#x12b;" horiz-adv-x="538" 
d="M143 0v1075h252v-1075h-252zM-6 1266v174h559v-174h-559z" />
    <glyph glyph-name="Ibreve" unicode="&#x12c;" horiz-adv-x="608" 
d="M174 0v1464h260v-1464h-260zM311 1538q-127 0 -206 68.5t-97 187.5h168q13 -45 47 -72.5t88 -27.5q93 0 135 100h166q-18 -119 -96 -187.5t-205 -68.5z" />
    <glyph glyph-name="ibreve" unicode="&#x12d;" horiz-adv-x="538" 
d="M143 0v1075h252v-1075h-252zM274 1196q-128 0 -207 70t-96 198h168q28 -100 135 -100q55 0 85.5 26t50.5 74h165q-17 -128 -95 -198t-206 -70z" />
    <glyph glyph-name="Iogonek" unicode="&#x12e;" horiz-adv-x="608" 
d="M174 0v1464h260v-1464h-260zM397 -100l191 -234h-287l-156 234h252z" />
    <glyph glyph-name="iogonek" unicode="&#x12f;" horiz-adv-x="536" 
d="M143 1075h250v-1075h-250v1075zM139 1231v233h256v-233h-256zM342 -100l190 -234h-286l-156 234h252z" />
    <glyph glyph-name="Idotaccent" unicode="&#x130;" horiz-adv-x="608" 
d="M174 0v1464h260v-1464h-260zM195 1563v225h229v-225h-229z" />
    <glyph glyph-name="dotlessi" unicode="&#x131;" horiz-adv-x="538" 
d="M143 0v1075h252v-1075h-252z" />
    <glyph glyph-name="IJ" unicode="&#x132;" horiz-adv-x="1642" 
d="M174 0v1464h260v-1464h-260zM657 360h236q11 -82 47.5 -123.5t108.5 -41.5q45 0 77 17t50 43t28.5 69t13.5 84.5t3 99.5v956h260v-1030q0 -102 -22.5 -183.5t-70 -145.5t-129 -99t-192.5 -35q-404 0 -410 389z" />
    <glyph glyph-name="ij" unicode="&#x133;" horiz-adv-x="1073" 
d="M143 1075h250v-1075h-250v1075zM139 1231v233h256v-233h-256zM680 1075h250v-1120q0 -107 -14 -172t-53 -109t-103.5 -60.5t-169.5 -16.5q-73 0 -109 8v184q36 -4 51 -4q76 0 112 31t36 110v1149zM676 1231v233h258v-233h-258z" />
    <glyph glyph-name="Jcircumflex" unicode="&#x134;" horiz-adv-x="1034" 
d="M49 360h236q11 -82 47 -123.5t108 -41.5q45 0 77 17t50 43t28.5 69t13.5 84.5t3 99.5v956h260v-1030q0 -102 -22 -183.5t-69.5 -145.5t-129 -99t-192.5 -35q-404 0 -410 389zM616 1792h277q38 -42 110.5 -116.5t110.5 -116.5h-244l-112 118l-115 -118h-244
q139 146 217 233z" />
    <glyph glyph-name="jcircumflex" unicode="&#x135;" horiz-adv-x="538" 
d="M395 1075v-1122q0 -107 -13 -171t-51.5 -108t-103.5 -60.5t-174 -16.5q-75 0 -108 8v184q100 -11 149 17.5t49 115.5v1153h252zM135 1464h277q39 -45 113.5 -125.5t107.5 -117.5h-244l-113 127l-114 -127h-244q45 47 123 136t94 107z" />
    <glyph glyph-name="Kcommaaccent" unicode="&#x136;" horiz-adv-x="1298" 
d="M174 0v1464h260v-655l180 221q47 56 172.5 203t194.5 231h315l-591 -671q107 -138 310.5 -403.5t299.5 -389.5h-318q-66 85 -220 289t-189 250l-154 202v-741h-260zM827 -100l-170 -244h-237l121 244h286z" />
    <glyph glyph-name="kcommaaccent" unicode="&#x137;" horiz-adv-x="1130" 
d="M1135 0h-326l-256 324l-160 202v-526h-250v1464h250v-856l150 180q41 49 124.5 150.5t112.5 136.5h301q-52 -57 -153.5 -169t-139.5 -154l-151 -168q21 -28 108 -129.5t205 -238t185 -216.5zM762 -100l-170 -244h-238l121 244h287z" />
    <glyph glyph-name="kgreenlandic" unicode="&#x138;" horiz-adv-x="1134" 
d="M1139 0h-328l-256 324l-160 202v-526h-252v1075h252v-467l150 180q41 49 124.5 150.5t112.5 136.5h303q-52 -56 -152.5 -168t-139.5 -155q-82 -89 -150 -168q21 -29 107 -130t205 -238.5t184 -215.5z" />
    <glyph glyph-name="Lacute" unicode="&#x139;" horiz-adv-x="1077" 
d="M174 0v1464h260v-1237h588v-227h-848zM877 1794l-269 -235h-270l217 235h322z" />
    <glyph glyph-name="lacute" unicode="&#x13a;" horiz-adv-x="548" 
d="M150 0v1464h249v-1464h-249zM637 1794l-268 -235h-271l217 235h322z" />
    <glyph glyph-name="Lcommaaccent" unicode="&#x13b;" horiz-adv-x="1077" 
d="M174 0v1464h260v-1237h588v-227h-848zM735 -100l-170 -244h-237l121 244h286z" />
    <glyph glyph-name="lcommaaccent" unicode="&#x13c;" horiz-adv-x="548" 
d="M150 0v1464h249v-1464h-249zM465 -100l-170 -244h-238l121 244h287z" />
    <glyph glyph-name="Lcaron" unicode="&#x13d;" horiz-adv-x="1077" 
d="M174 0v1464h260v-1237h588v-227h-848zM952 1464l-182 -522h-215l147 522h250z" />
    <glyph glyph-name="lcaron" unicode="&#x13e;" horiz-adv-x="743" 
d="M150 0v1464h249v-1464h-249zM901 1464l-182 -522h-215l147 522h250z" />
    <glyph glyph-name="Ldot" unicode="&#x13f;" horiz-adv-x="1077" 
d="M174 0v1464h260v-1237h588v-227h-848zM588 518v275h264v-275h-264z" />
    <glyph glyph-name="ldot" unicode="&#x140;" horiz-adv-x="808" 
d="M150 0v1464h249v-1464h-249zM545 518v275h264v-275h-264z" />
    <glyph glyph-name="Lslash" unicode="&#x141;" horiz-adv-x="1097" 
d="M10 449v213l183 118v684h262v-514l262 170v-213l-262 -170v-506h575v-231h-837v567z" />
    <glyph glyph-name="lslash" unicode="&#x142;" horiz-adv-x="610" 
d="M174 0v606l-158 -102v213l158 102v645h252v-481l174 113v-213l-174 -113v-770h-252z" />
    <glyph glyph-name="Nacute" unicode="&#x143;" horiz-adv-x="1562" 
d="M174 0v1464h320l487 -839q27 -47 85 -145t75 -128l2 2q0 35 -1 172t-1 215v723h248v-1464h-310l-471 803q-51 89 -112 192t-68 115h-2q0 -35 1 -219t1 -256v-635h-254zM1122 1794l-268 -235h-270l217 235h321z" />
    <glyph glyph-name="nacute" unicode="&#x144;" horiz-adv-x="1239" 
d="M381 1077v-67q0 -45 -2 -68q0 -2 2 -2q114 170 336 170q186 0 287.5 -116t101.5 -326v-668h-250v555q0 170 -49 258t-170 88q-122 0 -183 -83.5t-61 -217.5v-600h-250v913q0 109 -2 164h240zM987 1464l-285 -243h-270l234 243h321z" />
    <glyph glyph-name="Ncommaaccent" unicode="&#x145;" horiz-adv-x="1562" 
d="M174 0v1464h320l487 -839q27 -47 85 -145t75 -128l2 2q0 35 -1 172t-1 215v723h248v-1464h-310l-471 803q-51 89 -112 192t-68 115h-2q0 -35 1 -219t1 -256v-635h-254zM944 -100l-170 -244h-237l120 244h287z" />
    <glyph glyph-name="ncommaaccent" unicode="&#x146;" horiz-adv-x="1239" 
d="M381 1077v-67q0 -45 -2 -68q0 -2 2 -2q114 170 336 170q186 0 287.5 -116t101.5 -326v-668h-250v555q0 170 -49 258t-170 88q-122 0 -183 -83.5t-61 -217.5v-600h-250v913q0 109 -2 164h240zM782 -100l-170 -244h-237l121 244h286z" />
    <glyph glyph-name="Ncaron" unicode="&#x147;" horiz-adv-x="1562" 
d="M174 0v1464h320l487 -839q27 -47 85 -145t75 -128l2 2q0 35 -1 172t-1 215v723h248v-1464h-310l-471 803q-51 89 -112 192t-68 115h-2q0 -35 1 -219t1 -256v-635h-254zM920 1559h-277q-78 87 -217 233h244l114 -119l113 119h244q-38 -42 -110.5 -116.5t-110.5 -116.5z
" />
    <glyph glyph-name="ncaron" unicode="&#x148;" horiz-adv-x="1239" 
d="M381 1077v-67q0 -45 -2 -68q0 -2 2 -2q114 170 336 170q186 0 287.5 -116t101.5 -326v-668h-250v555q0 170 -49 258t-170 88q-122 0 -183 -83.5t-61 -217.5v-600h-250v913q0 109 -2 164h240zM758 1221h-277q-16 18 -94 107t-123 136h244l115 -127l112 127h244
q-33 -37 -107.5 -117.5t-113.5 -125.5z" />
    <glyph glyph-name="napostrophe" unicode="&#x149;" horiz-adv-x="1415" 
d="M557 1077v-67q0 -45 -2 -68q0 -2 2 -2q114 170 336 170q186 0 287.5 -116t101.5 -326v-668h-250v555q0 170 -49 258t-170 88q-122 0 -183 -83.5t-61 -217.5v-600h-250v913q0 109 -2 164h240zM387 1464l-182 -522h-215l147 522h250z" />
    <glyph glyph-name="Eng" unicode="&#x14a;" horiz-adv-x="1560" 
d="M174 0v1464h320l487 -839q28 -50 84.5 -145t69.5 -118l2 3q0 35 -1 166.5t-1 209.5v723h251v-1396q0 -79 -13 -145.5t-44 -126t-78.5 -100.5t-120 -65t-165.5 -24q-191 0 -293.5 99t-106.5 294h246q5 -80 43.5 -128t112.5 -48q77 0 118 47.5t43 128.5h-53l-469 803
q-51 89 -110 188t-66 111h-2q0 -35 1 -215t1 -252v-635h-256z" />
    <glyph glyph-name="eng" unicode="&#x14b;" horiz-adv-x="1239" 
d="M854 -78v619q0 83 -10 144t-34.5 108.5t-67.5 71.5t-105 24q-119 0 -180.5 -83.5t-61.5 -217.5v-588h-252v911q0 109 -2 164h242v-139q115 168 334 168q185 0 287 -116.5t102 -321.5v-713q0 -107 -13 -171t-51.5 -108t-103.5 -60.5t-174 -16.5q-76 0 -109 8v184
q100 -11 149.5 18t49.5 115z" />
    <glyph glyph-name="Omacron" unicode="&#x14c;" horiz-adv-x="1646" 
d="M821 1493q215 0 384 -97.5t262.5 -271t93.5 -393.5q0 -219 -91.5 -392t-260 -270.5t-386.5 -97.5q-216 0 -384.5 97.5t-260.5 270.5t-92 392q0 218 92.5 391.5t260.5 272t382 98.5zM819 1270q-214 0 -339.5 -149.5t-125.5 -387.5q0 -235 126.5 -386.5t340.5 -151.5
q213 0 341 151t128 387q0 239 -126.5 388t-344.5 149zM541 1583v174h559v-174h-559z" />
    <glyph glyph-name="omacron" unicode="&#x14d;" horiz-adv-x="1277" 
d="M637 1112q253 0 408 -160t155 -415q0 -253 -154.5 -411.5t-412.5 -158.5q-169 0 -296.5 74t-194 203t-66.5 293q0 255 154.5 415t406.5 160zM633 903q-139 0 -220 -101t-81 -263q0 -167 80.5 -265t220.5 -98q142 0 222.5 98t80.5 265q0 162 -82 263t-221 101zM360 1266
v174h560v-174h-560z" />
    <glyph glyph-name="Obreve" unicode="&#x14e;" horiz-adv-x="1646" 
d="M821 1493q215 0 384 -97.5t262.5 -271t93.5 -393.5q0 -219 -91.5 -392t-260 -270.5t-386.5 -97.5q-216 0 -384.5 97.5t-260.5 270.5t-92 392q0 218 92.5 391.5t260.5 272t382 98.5zM819 1270q-214 0 -339.5 -149.5t-125.5 -387.5q0 -235 126.5 -386.5t340.5 -151.5
q213 0 341 151t128 387q0 239 -126.5 388t-344.5 149zM821 1538q-127 0 -206 68.5t-97 187.5h168q13 -45 47 -72.5t88 -27.5q93 0 135 100h166q-18 -119 -96 -187.5t-205 -68.5z" />
    <glyph glyph-name="obreve" unicode="&#x14f;" horiz-adv-x="1277" 
d="M637 1112q253 0 408 -160t155 -415q0 -253 -154.5 -411.5t-412.5 -158.5q-169 0 -296.5 74t-194 203t-66.5 293q0 255 154.5 415t406.5 160zM633 903q-139 0 -220 -101t-81 -263q0 -167 80.5 -265t220.5 -98q142 0 222.5 98t80.5 265q0 162 -82 263t-221 101zM643 1196
q-128 0 -207 70t-96 198h168q28 -100 135 -100q55 0 85 26t50 74h166q-17 -128 -95 -198t-206 -70z" />
    <glyph glyph-name="Ohungarumlaut" unicode="&#x150;" horiz-adv-x="1646" 
d="M821 1493q215 0 384 -97.5t262.5 -271t93.5 -393.5q0 -219 -91.5 -392t-260 -270.5t-386.5 -97.5q-216 0 -384.5 97.5t-260.5 270.5t-92 392q0 218 92.5 391.5t260.5 272t382 98.5zM819 1270q-214 0 -339.5 -149.5t-125.5 -387.5q0 -235 126.5 -386.5t340.5 -151.5
q213 0 341 151t128 387q0 239 -126.5 388t-344.5 149zM983 1794l-268 -235h-256l217 235h307zM1395 1794l-269 -235h-256l217 235h308z" />
    <glyph glyph-name="ohungarumlaut" unicode="&#x151;" horiz-adv-x="1277" 
d="M637 1112q253 0 408 -160t155 -415q0 -253 -154.5 -411.5t-412.5 -158.5q-169 0 -296.5 74t-194 203t-66.5 293q0 255 154.5 415t406.5 160zM633 903q-139 0 -220 -101t-81 -263q0 -167 80.5 -265t220.5 -98q142 0 222.5 98t80.5 265q0 162 -82 263t-221 101zM786 1464
l-288 -243h-252l233 243h307zM1200 1464l-289 -243h-252l234 243h307z" />
    <glyph glyph-name="OE" unicode="&#x152;" horiz-adv-x="2269" 
d="M1266 0v133q-184 -162 -463 -162q-203 0 -367 97.5t-257 271t-93 389.5q0 163 55 305t150 241.5t227 156.5t281 57q281 0 467 -164v139h893v-229h-631v-375h581v-229h-581v-404h645v-227h-907zM356 731q0 -152 55 -273t162 -192t248 -71q212 0 337.5 151t125.5 385
q0 156 -54 277t-160.5 190.5t-250.5 69.5q-212 0 -337.5 -151.5t-125.5 -385.5z" />
    <glyph glyph-name="oe" unicode="&#x153;" horiz-adv-x="2050" 
d="M1982 475l-823 2q12 -134 96 -218.5t213 -84.5q170 0 246 133h252q-51 -153 -183 -246.5t-321 -93.5q-257 0 -413 180q-153 -180 -420 -180q-169 0 -296 74.5t-192 203t-65 292.5q0 255 153.5 415t403.5 160q256 0 416 -184q74 87 178.5 135.5t230.5 48.5
q125 0 226 -44.5t166 -122.5t100 -181t35 -221q0 -17 -0.5 -32.5t-1.5 -24.5t-1 -11zM629 903q-137 0 -217 -101t-80 -263q0 -167 78.5 -265t218.5 -98q141 0 220 97.5t79 265.5q0 163 -80 263.5t-219 100.5zM1167 655h568q-12 115 -86.5 189t-192.5 74q-119 0 -195.5 -68
t-93.5 -195z" />
    <glyph glyph-name="Racute" unicode="&#x154;" horiz-adv-x="1302" 
d="M174 0v1464h485q127 0 219.5 -17t165.5 -67q175 -116 175 -346q0 -95 -28.5 -171t-79.5 -127t-111 -83.5t-132 -50.5l367 -602h-297l-338 569h-166v-569h-260zM434 1241v-450h213q311 0 311 227q0 119 -80 171t-231 52h-213zM975 1794l-268 -235h-271l217 235h322z" />
    <glyph glyph-name="racute" unicode="&#x155;" horiz-adv-x="733" 
d="M141 1077h236v-73q0 -49 -2 -72q29 81 98 125.5t162 44.5q31 0 59 -4v-238q-24 8 -71 8q-58 0 -99.5 -17t-66.5 -45.5t-39.5 -76t-19.5 -98.5t-5 -123v-508h-250v883q0 128 -2 194zM743 1464l-284 -243h-271l234 243h321z" />
    <glyph glyph-name="Rcommaaccent" unicode="&#x156;" horiz-adv-x="1302" 
d="M174 0v1464h485q127 0 219.5 -17t165.5 -67q175 -116 175 -346q0 -95 -28.5 -171t-79.5 -127t-111 -83.5t-132 -50.5l367 -602h-297l-338 569h-166v-569h-260zM434 1241v-450h213q311 0 311 227q0 119 -80 171t-231 52h-213zM815 -100l-170 -244h-237l120 244h287z" />
    <glyph glyph-name="rcommaaccent" unicode="&#x157;" horiz-adv-x="733" 
d="M141 1077h236v-73q0 -49 -2 -72q29 81 98 125.5t162 44.5q31 0 59 -4v-238q-24 8 -71 8q-58 0 -99.5 -17t-66.5 -45.5t-39.5 -76t-19.5 -98.5t-5 -123v-508h-250v883q0 128 -2 194zM449 -100l-170 -244h-238l121 244h287z" />
    <glyph glyph-name="Rcaron" unicode="&#x158;" horiz-adv-x="1302" 
d="M174 0v1464h485q127 0 219.5 -17t165.5 -67q175 -116 175 -346q0 -95 -28.5 -171t-79.5 -127t-111 -83.5t-132 -50.5l367 -602h-297l-338 569h-166v-569h-260zM434 1241v-450h213q311 0 311 227q0 119 -80 171t-231 52h-213zM788 1559h-276q-78 87 -217 233h244l114 -119
l113 119h244q-38 -42 -111 -116.5t-111 -116.5z" />
    <glyph glyph-name="rcaron" unicode="&#x159;" horiz-adv-x="733" 
d="M141 1077h236v-73q0 -49 -2 -72q29 81 98 125.5t162 44.5q31 0 59 -4v-238q-24 8 -71 8q-58 0 -99.5 -17t-66.5 -45.5t-39.5 -76t-19.5 -98.5t-5 -123v-508h-250v883q0 128 -2 194zM565 1221h-276q-16 18 -94 107t-123 136h243l115 -127l113 127h243
q-33 -37 -107.5 -117.5t-113.5 -125.5z" />
    <glyph glyph-name="Sacute" unicode="&#x15a;" horiz-adv-x="1247" 
d="M70 416h252q24 -106 104 -167t207 -61q126 0 195 60.5t69 161.5q0 40 -13 70.5t-33 50.5t-58 37.5t-72 28.5t-92 26l-97 26q-204 57 -309.5 158.5t-105.5 269.5q0 183 143.5 301.5t364.5 118.5q222 0 354.5 -112t150.5 -300h-247q-50 187 -265 187q-108 0 -168.5 -50
t-60.5 -130q0 -45 16.5 -77.5t56 -57t77 -39.5t108.5 -37l103 -31q86 -27 144 -51t113.5 -59t87.5 -76.5t51 -101t19 -136.5q0 -203 -150.5 -330t-389.5 -127q-236 0 -389.5 122.5t-165.5 324.5zM961 1794l-269 -235h-270l217 235h322z" />
    <glyph glyph-name="sacute" unicode="&#x15b;" horiz-adv-x="1026" 
d="M59 340h236q24 -81 83.5 -126.5t149.5 -45.5q82 0 136.5 36.5t54.5 96.5q0 34 -27.5 59t-55 35t-95.5 29q-9 3 -13 4l-118 33q-73 21 -123.5 43t-97 58t-70 90t-23.5 126q0 147 116.5 239.5t297.5 92.5q176 0 294 -90t130 -246h-221q-46 137 -209 137q-81 0 -123.5 -33
t-42.5 -85q0 -50 36.5 -73t129.5 -50l119 -31q176 -48 252.5 -116.5t76.5 -200.5q0 -159 -119.5 -257t-308.5 -98q-403 0 -465 373zM854 1464l-285 -243h-270l233 243h322z" />
    <glyph glyph-name="Scircumflex" unicode="&#x15c;" horiz-adv-x="1247" 
d="M70 416h252q24 -106 104 -167t207 -61q126 0 195 60.5t69 161.5q0 40 -13 70.5t-33 50.5t-58 37.5t-72 28.5t-92 26l-97 26q-204 57 -309.5 158.5t-105.5 269.5q0 183 143.5 301.5t364.5 118.5q222 0 354.5 -112t150.5 -300h-247q-50 187 -265 187q-108 0 -168.5 -50
t-60.5 -130q0 -45 16.5 -77.5t56 -57t77 -39.5t108.5 -37l103 -31q86 -27 144 -51t113.5 -59t87.5 -76.5t51 -101t19 -136.5q0 -203 -150.5 -330t-389.5 -127q-236 0 -389.5 122.5t-165.5 324.5zM496 1792h276q38 -42 110.5 -116.5t110.5 -116.5h-243l-113 118l-115 -118
h-243q139 146 217 233z" />
    <glyph glyph-name="scircumflex" unicode="&#x15d;" horiz-adv-x="1026" 
d="M59 340h236q24 -81 83.5 -126.5t149.5 -45.5q82 0 136.5 36.5t54.5 96.5q0 34 -27.5 59t-55 35t-95.5 29q-9 3 -13 4l-118 33q-73 21 -123.5 43t-97 58t-70 90t-23.5 126q0 147 116.5 239.5t297.5 92.5q176 0 294 -90t130 -246h-221q-46 137 -209 137q-81 0 -123.5 -33
t-42.5 -85q0 -50 36.5 -73t129.5 -50l119 -31q176 -48 252.5 -116.5t76.5 -200.5q0 -159 -119.5 -257t-308.5 -98q-403 0 -465 373zM385 1464h277q39 -45 113.5 -125.5t107.5 -117.5h-244l-113 127l-114 -127h-244q45 47 123 136t94 107z" />
    <glyph glyph-name="Scedilla" unicode="&#x15e;" horiz-adv-x="1247" 
d="M70 416h252q24 -106 104 -167t207 -61q126 0 195 60.5t69 161.5q0 40 -13 70.5t-33 50.5t-58 37.5t-72 28.5t-92 26l-97 26q-204 57 -309.5 158.5t-105.5 269.5q0 183 143.5 301.5t364.5 118.5q222 0 354.5 -112t150.5 -300h-247q-50 187 -265 187q-108 0 -168.5 -50
t-60.5 -130q0 -45 16.5 -77.5t56 -57t77 -39.5t108.5 -37l103 -31q86 -27 144 -51t113.5 -59t87.5 -76.5t51 -101t19 -136.5q0 -203 -150.5 -330t-389.5 -127q-236 0 -389.5 122.5t-165.5 324.5zM342 -334l190 234h252l-155 -234h-287z" />
    <glyph glyph-name="scedilla" unicode="&#x15f;" horiz-adv-x="1026" 
d="M59 340h236q24 -81 83.5 -126.5t149.5 -45.5q82 0 136.5 36.5t54.5 96.5q0 34 -27.5 59t-55 35t-95.5 29q-9 3 -13 4l-118 33q-73 21 -123.5 43t-97 58t-70 90t-23.5 126q0 147 116.5 239.5t297.5 92.5q176 0 294 -90t130 -246h-221q-46 137 -209 137q-81 0 -123.5 -33
t-42.5 -85q0 -50 36.5 -73t129.5 -50l119 -31q176 -48 252.5 -116.5t76.5 -200.5q0 -159 -119.5 -257t-308.5 -98q-403 0 -465 373zM217 -334l191 234h251l-155 -234h-287z" />
    <glyph glyph-name="Scaron" unicode="&#x160;" horiz-adv-x="1247" 
d="M70 416h252q24 -106 104 -167t207 -61q126 0 195 60.5t69 161.5q0 40 -13 70.5t-33 50.5t-58 37.5t-72 28.5t-92 26l-97 26q-204 57 -309.5 158.5t-105.5 269.5q0 183 143.5 301.5t364.5 118.5q222 0 354.5 -112t150.5 -300h-247q-50 187 -265 187q-108 0 -168.5 -50
t-60.5 -130q0 -45 16.5 -77.5t56 -57t77 -39.5t108.5 -37l103 -31q86 -27 144 -51t113.5 -59t87.5 -76.5t51 -101t19 -136.5q0 -203 -150.5 -330t-389.5 -127q-236 0 -389.5 122.5t-165.5 324.5zM774 1559h-276q-78 87 -217 233h243l115 -119l113 119h243
q-38 -42 -110.5 -116.5t-110.5 -116.5z" />
    <glyph glyph-name="scaron" unicode="&#x161;" horiz-adv-x="1026" 
d="M59 340h236q24 -81 83.5 -126.5t149.5 -45.5q82 0 136.5 36.5t54.5 96.5q0 34 -27.5 59t-55 35t-95.5 29q-9 3 -13 4l-118 33q-73 21 -123.5 43t-97 58t-70 90t-23.5 126q0 147 116.5 239.5t297.5 92.5q176 0 294 -90t130 -246h-221q-46 137 -209 137q-81 0 -123.5 -33
t-42.5 -85q0 -50 36.5 -73t129.5 -50l119 -31q176 -48 252.5 -116.5t76.5 -200.5q0 -159 -119.5 -257t-308.5 -98q-403 0 -465 373zM664 1221h-277q-16 18 -94 107t-123 136h244l114 -127l113 127h244q-33 -37 -107.5 -117.5t-113.5 -125.5z" />
    <glyph glyph-name="uni0162" unicode="&#x162;" horiz-adv-x="1136" 
d="M731 -100l-170 -244h-237l120 244h287zM438 0v1233h-366v231h993v-231h-367v-1233h-260z" />
    <glyph glyph-name="uni0163" unicode="&#x163;" horiz-adv-x="698" 
d="M555 -100l-170 -244h-238l121 244h287zM444 1366v-291h201v-186h-201v-588q0 -72 32 -102.5t97 -30.5q24 0 52 4v-184q-31 -8 -97 -8q-163 0 -248 63t-85 215v631h-162v186h162v291h249z" />
    <glyph glyph-name="Tcaron" unicode="&#x164;" horiz-adv-x="1136" 
d="M438 0v1233h-366v231h993v-231h-367v-1233h-260zM705 1559h-277q-78 87 -217 233h244l114 -119l113 119h244q-38 -42 -110.5 -116.5t-110.5 -116.5z" />
    <glyph glyph-name="tcaron" unicode="&#x165;" horiz-adv-x="882" 
d="M444 1366v-291h201v-186h-201v-588q0 -72 32 -102.5t97 -30.5q24 0 52 4v-184q-31 -8 -97 -8q-163 0 -248 63t-85 215v631h-162v186h162v291h249zM1077 1464l-182 -522h-215l147 522h250z" />
    <glyph glyph-name="Tbar" unicode="&#x166;" horiz-adv-x="1157" 
d="M158 643v201h288v387h-356v233h977v-233h-358v-387h288v-201h-288v-643h-263v643h-288z" />
    <glyph glyph-name="tbar" unicode="&#x167;" horiz-adv-x="710" 
d="M203 885h-160v190h160v291h252v-291h196v-190h-196v-150h194v-194h-194v-242q0 -74 32.5 -103.5t98.5 -29.5q25 0 45 4v-188q-51 -7 -80 -7q-171 0 -259.5 62.5t-88.5 214.5v289h-160v194h160v150z" />
    <glyph glyph-name="Utilde" unicode="&#x168;" horiz-adv-x="1400" 
d="M700 -33q-140 0 -259 53.5t-185 145.5q-57 75 -77.5 168t-20.5 231v899h260v-884q0 -91 7 -146.5t30 -99.5q33 -63 97.5 -101t147.5 -38t148 38t98 101q23 44 30 99.5t7 146.5v884h260v-899q0 -138 -20.5 -231t-77.5 -168q-64 -92 -185 -145.5t-260 -53.5zM700 1595
q-64 37 -94 37q-29 0 -41 -15t-18 -54h-154q0 100 55.5 173.5t137.5 73.5q27 0 55 -7.5t43.5 -14.5t48.5 -23q73 -36 96 -36q28 0 40 15t18 54h147q0 -103 -49.5 -175.5t-132.5 -72.5q-60 0 -152 45z" />
    <glyph glyph-name="utilde" unicode="&#x169;" horiz-adv-x="1234" 
d="M856 0v76v78q-102 -183 -334 -183q-188 0 -288.5 115t-100.5 354v635h250v-573q0 -75 10.5 -131.5t35 -101t68.5 -68t107 -23.5q238 0 238 334v563h250v-913q0 -111 2 -162h-238zM621 1255q-64 37 -95 37q-28 0 -40.5 -17t-18.5 -58h-154q0 101 56 177t137 76
q27 0 55 -7.5t43.5 -14.5t48.5 -23q73 -36 97 -36q27 0 38.5 17.5t18.5 57.5h147q0 -104 -49.5 -179t-132.5 -75q-59 0 -151 45z" />
    <glyph glyph-name="Umacron" unicode="&#x16a;" horiz-adv-x="1400" 
d="M700 -33q-140 0 -259 53.5t-185 145.5q-57 75 -77.5 168t-20.5 231v899h260v-884q0 -91 7 -146.5t30 -99.5q33 -63 97.5 -101t147.5 -38t148 38t98 101q23 44 30 99.5t7 146.5v884h260v-899q0 -138 -20.5 -231t-77.5 -168q-64 -92 -185 -145.5t-260 -53.5zM426 1583v174
h559v-174h-559z" />
    <glyph glyph-name="umacron" unicode="&#x16b;" horiz-adv-x="1234" 
d="M856 0v76v78q-102 -183 -334 -183q-188 0 -288.5 115t-100.5 354v635h250v-573q0 -75 10.5 -131.5t35 -101t68.5 -68t107 -23.5q238 0 238 334v563h250v-913q0 -111 2 -162h-238zM354 1266v174h559v-174h-559z" />
    <glyph glyph-name="Ubreve" unicode="&#x16c;" horiz-adv-x="1400" 
d="M700 -33q-140 0 -259 53.5t-185 145.5q-57 75 -77.5 168t-20.5 231v899h260v-884q0 -91 7 -146.5t30 -99.5q33 -63 97.5 -101t147.5 -38t148 38t98 101q23 44 30 99.5t7 146.5v884h260v-899q0 -138 -20.5 -231t-77.5 -168q-64 -92 -185 -145.5t-260 -53.5zM705 1538
q-127 0 -206.5 68.5t-97.5 187.5h168q13 -45 47.5 -72.5t88.5 -27.5q93 0 135 100h166q-18 -119 -96 -187.5t-205 -68.5z" />
    <glyph glyph-name="ubreve" unicode="&#x16d;" horiz-adv-x="1234" 
d="M856 0v76v78q-102 -183 -334 -183q-188 0 -288.5 115t-100.5 354v635h250v-573q0 -75 10.5 -131.5t35 -101t68.5 -68t107 -23.5q238 0 238 334v563h250v-913q0 -111 2 -162h-238zM641 1196q-128 0 -207 70t-96 198h168q28 -100 135 -100q55 0 85 26t50 74h166
q-17 -128 -95 -198t-206 -70z" />
    <glyph glyph-name="Uring" unicode="&#x16e;" horiz-adv-x="1400" 
d="M700 -33q-140 0 -259 53.5t-185 145.5q-57 75 -77.5 168t-20.5 231v899h260v-884q0 -91 7 -146.5t30 -99.5q33 -63 97.5 -101t147.5 -38t148 38t98 101q23 44 30 99.5t7 146.5v884h260v-899q0 -138 -20.5 -231t-77.5 -168q-64 -92 -185 -145.5t-260 -53.5zM707 1511
q-85 0 -142 58.5t-57 144.5q0 82 59 140.5t142 58.5q84 0 142 -58.5t58 -140.5q0 -86 -58 -144.5t-144 -58.5zM618 1714q0 -38 26 -65t63 -27q39 0 64.5 25.5t25.5 66.5q0 36 -26 62t-64 26q-37 0 -63 -26t-26 -62z" />
    <glyph glyph-name="uring" unicode="&#x16f;" horiz-adv-x="1234" 
d="M856 0v76v78q-102 -183 -334 -183q-188 0 -288.5 115t-100.5 354v635h250v-573q0 -75 10.5 -131.5t35 -101t68.5 -68t107 -23.5q238 0 238 334v563h250v-913q0 -111 2 -162h-238zM635 1184q-85 0 -142 58t-57 144q0 82 59 140.5t142 58.5q84 0 142.5 -58.5t58.5 -140.5
q0 -86 -58.5 -144t-144.5 -58zM547 1386q0 -38 25.5 -65t62.5 -27q39 0 64.5 25.5t25.5 66.5q0 36 -26 62.5t-64 26.5q-36 0 -62 -26.5t-26 -62.5z" />
    <glyph glyph-name="Uhungarumlaut" unicode="&#x170;" horiz-adv-x="1400" 
d="M700 -33q-140 0 -259 53.5t-185 145.5q-57 75 -77.5 168t-20.5 231v899h260v-884q0 -91 7 -146.5t30 -99.5q33 -63 97.5 -101t147.5 -38t148 38t98 101q23 44 30 99.5t7 146.5v884h260v-899q0 -138 -20.5 -231t-77.5 -168q-64 -92 -185 -145.5t-260 -53.5zM868 1794
l-268 -235h-256l217 235h307zM1280 1794l-268 -235h-256l217 235h307z" />
    <glyph glyph-name="uhungarumlaut" unicode="&#x171;" horiz-adv-x="1234" 
d="M856 0v76v78q-102 -183 -334 -183q-188 0 -288.5 115t-100.5 354v635h250v-573q0 -75 10.5 -131.5t35 -101t68.5 -68t107 -23.5q238 0 238 334v563h250v-913q0 -111 2 -162h-238zM774 1464l-289 -243h-252l234 243h307zM1188 1464l-289 -243h-252l234 243h307z" />
    <glyph glyph-name="Uogonek" unicode="&#x172;" horiz-adv-x="1400" 
d="M700 -33q-140 0 -259 53.5t-185 145.5q-57 75 -77.5 168t-20.5 231v899h260v-884q0 -91 7 -146.5t30 -99.5q33 -63 97.5 -101t147.5 -38t148 38t98 101q23 44 30 99.5t7 146.5v884h260v-899q0 -138 -20.5 -231t-77.5 -168q-64 -92 -185 -145.5t-260 -53.5zM801 -100
l190 -234h-286l-156 234h252z" />
    <glyph glyph-name="uogonek" unicode="&#x173;" horiz-adv-x="1234" 
d="M856 0v76v78q-102 -183 -334 -183q-188 0 -288.5 115t-100.5 354v635h250v-573q0 -75 10.5 -131.5t35 -101t68.5 -68t107 -23.5q238 0 238 334v563h250v-913q0 -111 2 -162h-238zM690 -100l191 -234h-287l-156 234h252z" />
    <glyph glyph-name="Wcircumflex" unicode="&#x174;" horiz-adv-x="1947" 
d="M1901 1464l-318 -1464h-342l-186 862q-30 136 -70 381h-4q-21 -126 -76 -381l-186 -862h-359l-309 1464h275l155 -846q47 -240 64 -370h6q18 115 74 368l190 848h344l184 -837q35 -151 70 -379h4q7 68 15.5 117.5t25.5 131t27 132.5l162 835h254zM842 1792h276
q38 -42 110.5 -116.5t110.5 -116.5h-243l-113 118l-115 -118h-243q139 146 217 233z" />
    <glyph glyph-name="wcircumflex" unicode="&#x175;" horiz-adv-x="1638" 
d="M631 0h-254q-68 195 -182.5 566.5t-159.5 508.5h256l121 -420q21 -68 49 -185t47 -187h4q22 81 52 213.5t48 203.5l93 375h237l107 -420q12 -47 39.5 -164.5t52.5 -211.5h4q21 73 51 194t55 207l113 395h244l-344 -1075h-260q-42 132 -94.5 339t-86.5 372h-6
q-3 -14 -32.5 -134t-41 -164t-35 -136.5t-42 -157t-35.5 -119.5zM686 1464h277q39 -45 113.5 -125.5t107.5 -117.5h-244l-113 127l-114 -127h-244q45 47 123 136t94 107z" />
    <glyph glyph-name="Ycircumflex" unicode="&#x176;" horiz-adv-x="1253" 
d="M496 0v565q-183 329 -488 899h289q169 -369 338 -676q89 173 192 379t150 297h274l-495 -899v-565h-260zM489 1792h277q38 -42 110.5 -116.5t110.5 -116.5h-244l-112 118l-115 -118h-244q139 146 217 233z" />
    <glyph glyph-name="ycircumflex" unicode="&#x177;" horiz-adv-x="1103" 
d="M512 -369h-254l168 398q-73 191 -225 580.5t-181 465.5h275q62 -177 143.5 -421.5t118.5 -346.5q38 105 138.5 402.5t123.5 365.5h268q-431 -1094 -575 -1444zM422 1464h276q39 -45 114 -125t108 -118h-244l-113 127l-114 -127h-244q45 47 123 136t94 107z" />
    <glyph glyph-name="Ydieresis" unicode="&#x178;" horiz-adv-x="1253" 
d="M496 0v565q-183 329 -488 899h289q169 -369 338 -676q89 173 192 379t150 297h274l-495 -899v-565h-260zM328 1622v225h229v-225h-229zM711 1622v225h227v-225h-227z" />
    <glyph glyph-name="Zacute" unicode="&#x179;" horiz-adv-x="1163" 
d="M76 0v197q13 22 77 117t97 149l391 606l107 166h-646v229h959v-202q-19 -24 -43 -64l-105 -160l-413 -639q-24 -37 -63.5 -94.5t-51.5 -77.5h707v-227h-1016zM946 1794l-268 -235h-270l217 235h321z" />
    <glyph glyph-name="zacute" unicode="&#x17a;" horiz-adv-x="1019" 
d="M78 0v188l424 535q112 141 125 156q-74 -2 -254 -2h-279v198h826v-192l-404 -506q-12 -15 -45 -58.5t-55 -71t-43 -50.5q39 0 136 1t144 1h293v-199h-868zM852 1464l-285 -243h-270l233 243h322z" />
    <glyph glyph-name="Zdotaccent" unicode="&#x17b;" horiz-adv-x="1163" 
d="M76 0v197q13 22 77 117t97 149l391 606l107 166h-646v229h959v-202q-19 -24 -43 -64l-105 -160l-413 -639q-24 -37 -63.5 -94.5t-51.5 -77.5h707v-227h-1016zM465 1563v225h229v-225h-229z" />
    <glyph glyph-name="zdotaccent" unicode="&#x17c;" horiz-adv-x="1019" 
d="M78 0v188l424 535q112 141 125 156q-74 -2 -254 -2h-279v198h826v-192l-404 -506q-12 -15 -45 -58.5t-55 -71t-43 -50.5q39 0 136 1t144 1h293v-199h-868zM389 1235v225h229v-225h-229z" />
    <glyph glyph-name="Zcaron" unicode="&#x17d;" horiz-adv-x="1163" 
d="M76 0v197q13 22 77 117t97 149l391 606l107 166h-646v229h959v-202q-19 -24 -43 -64l-105 -160l-413 -639q-24 -37 -63.5 -94.5t-51.5 -77.5h707v-227h-1016zM725 1559h-276q-60 67 -218 233h244l115 -119l112 119h244q-38 -42 -110.5 -116.5t-110.5 -116.5z" />
    <glyph glyph-name="zcaron" unicode="&#x17e;" horiz-adv-x="1019" 
d="M78 0v188l424 535q112 141 125 156q-74 -2 -254 -2h-279v198h826v-192l-404 -506q-12 -15 -45 -58.5t-55 -71t-43 -50.5q39 0 136 1t144 1h293v-199h-868zM662 1221h-277q-16 18 -94 107t-123 136h244l114 -127l113 127h244q-33 -37 -107.5 -117.5t-113.5 -125.5z" />
    <glyph glyph-name="uni0186" unicode="&#x186;" horiz-adv-x="1538" 
d="M66 424h274q132 -229 377 -229q142 0 249 70.5t162.5 191.5t55.5 274t-53 274t-158.5 193t-247.5 72q-133 0 -231 -64.5t-150 -181.5h-285q59 213 233.5 341t430.5 128q163 0 300.5 -58.5t231 -160.5t145.5 -242t52 -301q0 -216 -90 -388.5t-256 -272t-379 -99.5
q-127 0 -238.5 36.5t-193.5 100t-139.5 144t-89.5 172.5z" />
    <glyph glyph-name="uni018F" unicode="&#x18f;" horiz-adv-x="1601" 
d="M74 819h1167q-21 201 -145 321t-326 120q-258 0 -387 -224h-283q69 201 246 327t430 126q221 0 390 -95.5t259.5 -267.5t90.5 -395q0 -216 -92.5 -389t-261.5 -272t-384 -99q-170 0 -306.5 61t-223 167t-132.5 244.5t-46 297.5q0 16 4 78zM1239 612h-893
q5 -192 118 -305.5t318 -113.5q100 0 183.5 35.5t139 96t90 133.5t44.5 154z" />
    <glyph glyph-name="uni0190" unicode="&#x190;" horiz-adv-x="1146" 
d="M852 422h250q-12 -198 -146 -323.5t-358 -125.5q-235 0 -374.5 127t-139.5 332q0 136 70 234.5t200 140.5q-196 106 -196 303q0 171 118.5 277t315.5 106q195 0 314 -110t124 -283h-235q-10 85 -63 132.5t-134 47.5q-83 0 -135.5 -45t-52.5 -133q0 -205 288 -205v-205
h-57q-134 0 -216.5 -62.5t-82.5 -189.5q0 -107 68.5 -179.5t181.5 -72.5q117 0 182 62.5t78 171.5z" />
    <glyph glyph-name="florin" unicode="&#x192;" horiz-adv-x="899" 
d="M573 989h234l-25 -192h-233l-86 -617q-42 -302 -137 -424.5t-306 -122.5q-66 0 -126 17l22 188q38 -10 70 -10q50 0 86.5 15.5t59.5 40.5t39.5 71t25.5 91.5t18 117.5l88 633h-203l23 192h205q32 250 136.5 375t305.5 125q68 0 92 -8l-24 -197q-18 6 -54 6
q-43 0 -76 -14.5t-55 -39t-38 -64.5t-25.5 -82.5t-16.5 -100.5z" />
    <glyph glyph-name="uni019D" unicode="&#x19d;" horiz-adv-x="1560" 
d="M174 1464h320l487 -839q28 -50 84.5 -145t69.5 -118l2 3q0 35 -1 166.5t-1 209.5v723h251v-1464h-311l-469 803q-51 89 -110 188t-66 111h-2q0 -35 1 -215t1 -252v-682q0 -107 -13 -171t-51.5 -108t-103.5 -60.5t-174 -16.5q-80 0 -113 8v198q100 -11 149.5 18t49.5 116
v1527z" />
    <glyph glyph-name="uni019F" unicode="&#x19f;" horiz-adv-x="1646" 
d="M823 -29q-216 0 -384.5 97.5t-260.5 270t-92 390.5q0 219 92.5 392t260.5 270.5t382 97.5q215 0 384 -97.5t262.5 -270.5t93.5 -392q0 -218 -91.5 -390.5t-260 -270t-386.5 -97.5zM821 199q188 0 313 118t150 310h-924q30 -193 152 -310.5t309 -117.5zM819 1264
q-183 0 -305 -112.5t-152 -297.5h920q-33 187 -154.5 298.5t-308.5 111.5z" />
    <glyph glyph-name="Ohorn" unicode="&#x1a0;" horiz-adv-x="1646" 
d="M821 1493q215 0 384 -97.5t262.5 -271t93.5 -393.5q0 -219 -91.5 -392t-260 -270.5t-386.5 -97.5q-216 0 -384.5 97.5t-260.5 270.5t-92 392q0 218 92.5 391.5t260.5 272t382 98.5zM819 1270q-214 0 -339.5 -149.5t-125.5 -387.5q0 -235 126.5 -386.5t340.5 -151.5
q213 0 341 151t128 387q0 239 -126.5 388t-344.5 149zM1567 1855l-144 -391h-215l113 391h246z" />
    <glyph glyph-name="ohorn" unicode="&#x1a1;" horiz-adv-x="1280" 
d="M637 1112q253 0 408 -160t155 -415q0 -253 -154.5 -411.5t-412.5 -158.5q-169 0 -296.5 74t-194 203t-66.5 293q0 255 154.5 415t406.5 160zM633 903q-139 0 -220 -101t-81 -263q0 -167 80.5 -265t220.5 -98q142 0 222.5 98t80.5 265q0 162 -82 263t-221 101zM1286 1464
l-143 -391h-215l112 391h246z" />
    <glyph glyph-name="Uhorn" unicode="&#x1af;" horiz-adv-x="1396" 
d="M1229 1853l-144 -389h152v-899q0 -138 -20.5 -231t-77.5 -168q-66 -92 -185 -145.5t-258 -53.5q-140 0 -257 53t-183 146q-57 75 -77.5 168t-20.5 231v899h264v-880q0 -91 7 -146.5t30 -99.5q34 -64 94.5 -101.5t142.5 -37.5t144.5 37.5t95.5 101.5q23 44 30 99.5
t7 146.5v878h-103l113 391h246z" />
    <glyph glyph-name="uhorn" unicode="&#x1b0;" horiz-adv-x="1234" 
d="M1108 1464l-143 -389h127v-911q0 -109 2 -164h-240v156q-104 -187 -332 -187q-187 0 -288 117t-101 352v637h252v-565q0 -75 10.5 -131.5t35 -101t68.5 -68t107 -23.5q58 0 101 19.5t68 51t40 77t20 90t5 98.5v551h-90l112 391h246z" />
    <glyph glyph-name="uni01C4" unicode="&#x1c4;" horiz-adv-x="2652" 
d="M174 0v1464h320q98 0 162.5 -3t151 -13t158.5 -34.5t132 -63.5q141 -91 222 -256t81 -365q0 -180 -67.5 -329t-188.5 -248q-63 -51 -132 -82.5t-153.5 -46t-160.5 -19t-191 -4.5h-334zM434 1233v-1008h144q276 0 415.5 116t139.5 388q0 247 -139 376.5t-390 129.5
q-115 0 -170 -2zM1565 0v197q13 22 77 117t97 149l391 606l106 166h-645v229h959v-202q-19 -24 -43 -64l-105 -160l-413 -639q-24 -37 -63.5 -94.5t-51.5 -77.5h706v-227h-1015zM2214 1559h-277q-78 87 -217 233h244l115 -119l112 119h244q-38 -42 -110.5 -116.5
t-110.5 -116.5z" />
    <glyph glyph-name="uni01C5" unicode="&#x1c5;" horiz-adv-x="2508" 
d="M174 0v1464h320q98 0 162.5 -3t151 -13t158.5 -34.5t132 -63.5q141 -91 222 -256t81 -365q0 -180 -67.5 -329t-188.5 -248q-63 -51 -132 -82.5t-153.5 -46t-160.5 -19t-191 -4.5h-334zM434 1233v-1008h144q276 0 415.5 116t139.5 388q0 247 -139 376.5t-390 129.5
q-115 0 -170 -2zM1567 0v188l424 535q112 141 125 156q-74 -2 -254 -2h-279v198h825v-192l-403 -506q-12 -15 -45 -58.5t-55 -71t-43 -50.5q38 0 135 1t145 1h293v-199h-868zM2150 1221h-276q-16 18 -94 107t-123 136h244l114 -127l113 127h244q-33 -38 -108 -118t-114 -125
z" />
    <glyph glyph-name="uni01C6" unicode="&#x1c6;" horiz-adv-x="2342" 
d="M1180 0h-236v152q-52 -79 -146 -128t-225 -49q-221 0 -358 157t-137 409q0 248 137.5 408.5t364.5 160.5q119 0 211 -49.5t141 -122.5q-2 76 -2 213v313h250v-1464zM633 903q-137 0 -218 -104t-81 -262q0 -157 80 -258t217 -101q143 0 227 102.5t84 264.5q0 156 -87 257
t-222 101zM1401 0v188l424 535q112 141 125 156q-74 -2 -254 -2h-279v198h826v-192l-404 -506q-12 -15 -45 -58.5t-55 -71t-43 -50.5q38 0 135 1t145 1h293v-199h-868zM1985 1221h-277q-16 18 -94 107t-123 136h244l114 -127l113 127h244q-33 -37 -107.5 -117.5
t-113.5 -125.5z" />
    <glyph glyph-name="uni01C7" unicode="&#x1c7;" horiz-adv-x="2111" 
d="M174 0v1464h260v-1237h588v-227h-848zM1126 360h236q11 -82 47.5 -123.5t108.5 -41.5q45 0 77 17t50 43t28.5 69t13.5 84.5t3 99.5v956h260v-1030q0 -102 -22.5 -183.5t-70 -145.5t-129 -99t-192.5 -35q-404 0 -410 389z" />
    <glyph glyph-name="uni01C8" unicode="&#x1c8;" horiz-adv-x="1613" 
d="M174 0v1464h260v-1237h588v-227h-848zM1221 1075h249v-1120q0 -107 -14 -172t-53 -109t-103.5 -60.5t-169.5 -16.5q-72 0 -108 8v184q36 -4 51 -4q76 0 112 31t36 110v1149zM1217 1231v233h258v-233h-258z" />
    <glyph glyph-name="uni01C9" unicode="&#x1c9;" horiz-adv-x="1085" 
d="M150 0v1464h249v-1464h-249zM692 1075h250v-1120q0 -107 -14 -172t-53 -109t-103.5 -60.5t-169.5 -16.5q-72 0 -108 8v184q36 -4 51 -4q76 0 111.5 31t35.5 110v1149zM688 1231v233h258v-233h-258z" />
    <glyph glyph-name="uni01CA" unicode="&#x1ca;" horiz-adv-x="2596" 
d="M174 0v1464h320l487 -839q27 -47 85 -145t75 -128l2 2q0 35 -1 172t-1 215v723h248v-1464h-310l-471 803q-51 89 -112 192t-68 115h-2q0 -35 1 -219t1 -256v-635h-254zM1612 360h235q11 -82 47.5 -123.5t108.5 -41.5q45 0 77 17t50 43t28.5 69t13.5 84.5t3 99.5v956h260
v-1030q0 -102 -22.5 -183.5t-70 -145.5t-129 -99t-192.5 -35q-403 0 -409 389z" />
    <glyph glyph-name="uni01CB" unicode="&#x1cb;" horiz-adv-x="2099" 
d="M174 0v1464h320l487 -839q27 -47 85 -145t75 -128l2 2q0 35 -1 172t-1 215v723h248v-1464h-310l-471 803q-51 89 -112 192t-68 115h-2q0 -35 1 -219t1 -256v-635h-254zM1706 1075h250v-1120q0 -107 -14 -172t-53 -109t-103.5 -60.5t-169.5 -16.5q-73 0 -109 8v184
q36 -4 52 -4q76 0 111.5 31t35.5 110v1149zM1702 1231v233h258v-233h-258z" />
    <glyph glyph-name="uni01CC" unicode="&#x1cc;" horiz-adv-x="1775" 
d="M381 1077v-67q0 -45 -2 -68q0 -2 2 -2q114 170 336 170q186 0 287.5 -116t101.5 -326v-668h-250v555q0 170 -49 258t-170 88q-122 0 -183 -83.5t-61 -217.5v-600h-250v913q0 109 -2 164h240zM1382 1075h250v-1120q0 -107 -14 -172t-53 -109t-103.5 -60.5t-169.5 -16.5
q-72 0 -108 8v184q36 -4 51 -4q76 0 111.5 31t35.5 110v1149zM1378 1231v233h258v-233h-258z" />
    <glyph glyph-name="uni01F1" unicode="&#x1f1;" horiz-adv-x="2625" 
d="M174 0v1464h320q98 0 162.5 -3t151 -13t158.5 -34.5t132 -63.5q141 -91 222 -256t81 -365q0 -180 -67.5 -329t-188.5 -248q-63 -51 -132 -82.5t-153.5 -46t-160.5 -19t-191 -4.5h-334zM434 1233v-1008h144q276 0 415.5 116t139.5 388q0 247 -139 376.5t-390 129.5
q-115 0 -170 -2zM1538 0v197q13 22 77 117t97 149l391 606l107 166h-645v229h958v-202q-19 -24 -43 -64l-104 -160l-414 -639q-24 -37 -63.5 -94.5t-51.5 -77.5h707v-227h-1016z" />
    <glyph glyph-name="uni01F2" unicode="&#x1f2;" horiz-adv-x="2508" 
d="M174 0v1464h320q98 0 162.5 -3t151 -13t158.5 -34.5t132 -63.5q141 -91 222 -256t81 -365q0 -180 -67.5 -329t-188.5 -248q-63 -51 -132 -82.5t-153.5 -46t-160.5 -19t-191 -4.5h-334zM434 1233v-1008h144q276 0 415.5 116t139.5 388q0 247 -139 376.5t-390 129.5
q-115 0 -170 -2zM1567 0v188l424 535q112 141 125 156q-74 -2 -254 -2h-279v198h825v-192l-403 -506q-12 -15 -45 -58.5t-55 -71t-43 -50.5q38 0 135 1t145 1h293v-199h-868z" />
    <glyph glyph-name="uni01F3" unicode="&#x1f3;" horiz-adv-x="2342" 
d="M1180 0h-236v152q-52 -79 -146 -128t-225 -49q-221 0 -358 157t-137 409q0 248 137.5 408.5t364.5 160.5q119 0 211 -49.5t141 -122.5q-2 76 -2 213v313h250v-1464zM633 903q-137 0 -218 -104t-81 -262q0 -157 80 -258t217 -101q143 0 227 102.5t84 264.5q0 156 -87 257
t-222 101zM1401 0v188l424 535q112 141 125 156q-74 -2 -254 -2h-279v198h826v-192l-404 -506q-12 -15 -45 -58.5t-55 -71t-43 -50.5q38 0 135 1t145 1h293v-199h-868z" />
    <glyph glyph-name="Aringacute" unicode="&#x1fa;" horiz-adv-x="1460" 
d="M254 0h-266q51 117 221.5 537t382.5 927h282l594 -1464h-270q-40 98 -166 422h-614zM729 1229h-4q-27 -69 -88.5 -233.5t-95.5 -250.5l-37 -100h442q-9 27 -14 37l-25 63l-71 189q-62 165 -107 295zM723 1511q-85 0 -142 58.5t-57 144.5q0 82 59 140.5t142 58.5
q84 0 142.5 -58.5t58.5 -140.5q0 -86 -58.5 -144.5t-144.5 -58.5zM635 1714q0 -38 25.5 -65t62.5 -27q39 0 64.5 25.5t25.5 66.5q0 36 -26 62t-64 26q-36 0 -62 -26t-26 -62zM1065 2206l-285 -244h-270l233 244h322z" />
    <glyph glyph-name="aringacute" unicode="&#x1fb;" horiz-adv-x="1153" 
d="M354 739h-237q8 160 132 265.5t329 105.5q82 0 147 -14t122 -47.5t94.5 -87.5t59 -136t21.5 -190v-301q0 -209 25 -334h-230q-12 62 -12 143q-48 -71 -140 -117t-216 -46q-171 0 -277 85t-106 234q0 274 466 342q121 18 248 29q-4 133 -53 189t-156 56q-193 0 -217 -176z
M782 451q0 22 2 45l-55 -7q-212 -21 -304.5 -61.5t-92.5 -122.5q0 -72 49 -109.5t137 -37.5q132 0 198 76.5t66 216.5zM573 1155q-85 0 -141.5 58.5t-56.5 144.5q0 82 58.5 140t141.5 58q84 0 142.5 -58t58.5 -140q0 -86 -58.5 -144.5t-144.5 -58.5zM485 1358
q0 -38 25.5 -65t62.5 -27q39 0 65 25.5t26 66.5q0 36 -26.5 62t-64.5 26q-36 0 -62 -26t-26 -62zM915 1847l-284 -243h-271l234 243h321z" />
    <glyph glyph-name="AEacute" unicode="&#x1fc;" horiz-adv-x="1865" 
d="M1757 1464v-229h-618l12 -375h557v-229h-551l12 -404h603v-227h-852l-9 340h-485l-184 -340h-271l822 1464h964zM903 561l-6 250q-1 25 -1 161t-3 212h-14q-12 -21 -67 -127.5t-87 -165.5l-180 -330h358zM1559 1794l-269 -235h-270l217 235h322z" />
    <glyph glyph-name="aeacute" unicode="&#x1fd;" horiz-adv-x="1896" 
d="M1829 475l-823 2q12 -134 96 -218.5t213 -84.5q170 0 246 133h251q-51 -153 -182.5 -246.5t-320.5 -93.5q-139 0 -251.5 52t-185.5 147q-55 -79 -162.5 -132.5t-254.5 -53.5q-170 0 -277.5 85t-107.5 234q0 194 229 283q97 36 240 59t245 29q0 129 -52 187t-159 58
q-100 0 -153 -47t-64 -127h-245q9 77 42 142.5t90 117t143.5 80.5t193.5 29q250 0 354 -141q156 143 371 143q125 0 226 -44.5t166 -122.5t99.5 -181t34.5 -221q0 -17 -0.5 -32.5t-1 -24.5t-0.5 -11zM1014 655h567q-12 115 -86 189t-192 74q-119 0 -195.5 -68t-93.5 -195z
M786 498l-49 -6q-75 -9 -124.5 -16.5t-99 -18.5t-79 -24t-54 -31t-34.5 -41t-10 -54q0 -70 51.5 -106.5t136.5 -36.5q145 0 203.5 83t58.5 251zM1305 1464l-285 -243h-270l233 243h322z" />
    <glyph glyph-name="Oslashacute" unicode="&#x1fe;" horiz-adv-x="1646" 
d="M823 -29q-153 0 -272 45l-105 -184l-202 111l106 186q-126 104 -195 258t-69 342q0 219 92.5 392t260.5 270.5t382 97.5q143 0 273 -47l106 188l203 -110l-109 -191q127 -105 197 -259t70 -341q0 -218 -91.5 -390.5t-260 -270t-386.5 -97.5zM356 731q0 -232 121 -377
l500 885q-73 25 -158 25q-141 0 -247 -70t-161 -190t-55 -273zM1288 731q0 225 -119 375l-501 -883q70 -24 153 -24q214 0 340.5 149t126.5 383zM1182 1794l-269 -235h-270l217 235h322z" />
    <glyph glyph-name="oslashacute" unicode="&#x1ff;" horiz-adv-x="1277" 
d="M1022 1464l-285 -243h-270l233 243h322zM635 -33q-93 0 -189 27l-79 -139l-179 96l78 137q-190 161 -190 449q0 254 155 413.5t408 159.5q94 0 192 -29l78 136l181 -95l-80 -139q192 -162 192 -446q0 -250 -155 -410t-412 -160zM334 539q0 -143 57 -232l330 580
q-41 12 -86 12q-139 0 -220 -100t-81 -260zM635 180q140 0 220.5 97t80.5 262q0 130 -53 219l-326 -570q31 -8 78 -8z" />
    <glyph glyph-name="uni0218" unicode="&#x218;" horiz-adv-x="1247" 
d="M819 -100l-170 -244h-237l120 244h287zM70 416h252q24 -106 104 -167t207 -61q126 0 195 60.5t69 161.5q0 40 -13 70.5t-33 50.5t-58 37.5t-72 28.5t-92 26l-97 26q-204 57 -309.5 158.5t-105.5 269.5q0 183 143.5 301.5t364.5 118.5q222 0 354.5 -112t150.5 -300h-247
q-50 187 -265 187q-108 0 -168.5 -50t-60.5 -130q0 -45 16.5 -77.5t56 -57t77 -39.5t108.5 -37l103 -31q86 -27 144 -51t113.5 -59t87.5 -76.5t51 -101t19 -136.5q0 -203 -150.5 -330t-389.5 -127q-236 0 -389.5 122.5t-165.5 324.5z" />
    <glyph glyph-name="uni0219" unicode="&#x219;" horiz-adv-x="1026" 
d="M686 -100l-170 -244h-237l120 244h287zM59 340h236q24 -81 83.5 -126.5t149.5 -45.5q82 0 136.5 36.5t54.5 96.5q0 34 -27.5 59t-55 35t-95.5 29q-9 3 -13 4l-118 33q-73 21 -123.5 43t-97 58t-70 90t-23.5 126q0 147 116.5 239.5t297.5 92.5q176 0 294 -90t130 -246
h-221q-46 137 -209 137q-81 0 -123.5 -33t-42.5 -85q0 -50 36.5 -73t129.5 -50l119 -31q176 -48 252.5 -116.5t76.5 -200.5q0 -159 -119.5 -257t-308.5 -98q-403 0 -465 373z" />
    <glyph glyph-name="uni021A" unicode="&#x21a;" horiz-adv-x="1136" 
d="M731 -100l-170 -244h-237l120 244h287zM438 0v1233h-366v231h993v-231h-367v-1233h-260z" />
    <glyph glyph-name="uni021B" unicode="&#x21b;" horiz-adv-x="698" 
d="M555 -100l-170 -244h-238l121 244h287zM444 1366v-291h201v-186h-201v-588q0 -72 32 -102.5t97 -30.5q24 0 52 4v-184q-31 -8 -97 -8q-163 0 -248 63t-85 215v631h-162v186h162v291h249z" />
    <glyph glyph-name="uni021D" unicode="&#x21d;" horiz-adv-x="1101" 
d="M35 37h250q13 -109 78 -171.5t182 -62.5q113 0 181.5 72.5t68.5 179.5q0 127 -82.5 189.5t-216.5 62.5h-58v205q289 0 289 205q0 88 -52.5 133t-135.5 45q-81 0 -134 -47.5t-63 -132.5h-236q5 173 124.5 283t314.5 110q197 0 315.5 -106t118.5 -277q0 -100 -52.5 -176.5
t-144.5 -126.5q130 -43 200.5 -141t70.5 -234q0 -205 -139.5 -332t-374.5 -127q-224 0 -358 125.5t-146 323.5z" />
    <glyph glyph-name="uni0226" unicode="&#x226;" horiz-adv-x="1460" 
d="M254 0h-266q51 117 221.5 537t382.5 927h282l594 -1464h-270q-40 98 -166 422h-614zM729 1229h-4q-27 -69 -88.5 -233.5t-95.5 -250.5l-37 -100h442q-9 27 -14 37l-25 63l-71 189q-62 165 -107 295zM612 1563v225h230v-225h-230z" />
    <glyph glyph-name="uni0227" unicode="&#x227;" horiz-adv-x="1153" 
d="M354 739h-237q8 160 132 265.5t329 105.5q82 0 147 -14t122 -47.5t94.5 -87.5t59 -136t21.5 -190v-301q0 -209 25 -334h-230q-12 62 -12 143q-48 -71 -140 -117t-216 -46q-171 0 -277 85t-106 234q0 274 466 342q121 18 248 29q-4 133 -53 189t-156 56q-193 0 -217 -176z
M782 451q0 22 2 45l-55 -7q-212 -21 -304.5 -61.5t-92.5 -122.5q0 -72 49 -109.5t137 -37.5q132 0 198 76.5t66 216.5zM457 1235v225h229v-225h-229z" />
    <glyph glyph-name="uni0232" unicode="&#x232;" horiz-adv-x="1253" 
d="M496 0v565q-183 329 -488 899h289q169 -369 338 -676q89 173 192 379t150 297h274l-495 -899v-565h-260zM362 1583v174h560v-174h-560z" />
    <glyph glyph-name="uni0233" unicode="&#x233;" horiz-adv-x="1103" 
d="M512 -369h-254l168 398q-73 191 -225 580.5t-181 465.5h275q62 -177 143.5 -421.5t118.5 -346.5q38 105 138.5 402.5t123.5 365.5h268q-431 -1094 -575 -1444zM287 1266v174h559v-174h-559z" />
    <glyph glyph-name="dotlessj" unicode="&#x237;" horiz-adv-x="538" 
d="M395 1075v-1122q0 -107 -13 -171t-51.5 -108t-103.5 -60.5t-174 -16.5q-75 0 -108 8v184q100 -11 149 17.5t49 115.5v1153h252z" />
    <glyph glyph-name="uni0254" unicode="&#x254;" horiz-adv-x="1196" 
d="M311 733h-245q48 170 177.5 273.5t327.5 103.5q251 0 400 -159.5t149 -411.5q0 -162 -68 -292.5t-194.5 -206t-290.5 -75.5q-203 0 -334.5 108t-169.5 285h261q34 -90 93 -137t154 -47q133 0 213 101t80 260q0 168 -81 268t-222 100q-90 0 -154 -45t-96 -125z" />
    <glyph glyph-name="uni0259" unicode="&#x259;" horiz-adv-x="1216" 
d="M68 600l823 -2q-12 134 -96 218.5t-213 84.5q-170 0 -246 -133h-252q51 153 183 246.5t321 93.5q250 0 401.5 -159.5t151.5 -413.5q0 -163 -68 -293t-194 -204.5t-287 -74.5q-125 0 -226 44.5t-166 122.5t-99.5 181t-34.5 221q0 17 0.5 32.5t1 24.5t0.5 11zM883 420h-568
q12 -114 86.5 -188t192.5 -74q119 0 195.5 67.5t93.5 194.5z" />
    <glyph glyph-name="uni025B" unicode="&#x25b;" horiz-adv-x="1101" 
d="M819 37h250q-12 -198 -146 -323.5t-358 -125.5q-235 0 -374.5 127t-139.5 332q0 136 70.5 234t200.5 141q-92 50 -144.5 126.5t-52.5 176.5q0 171 118.5 277t315.5 106q195 0 314 -110t124 -283h-235q-10 85 -63 132.5t-134 47.5q-83 0 -135.5 -45t-52.5 -133
q0 -205 289 -205v-205h-58q-134 0 -216.5 -62.5t-82.5 -189.5q0 -107 68.5 -179.5t181.5 -72.5q117 0 182 62.5t78 171.5z" />
    <glyph glyph-name="uni0272" unicode="&#x272;" horiz-adv-x="1239" 
d="M143 -78v989q0 109 -2 164h242v-139q115 168 334 168q185 0 287 -116.5t102 -321.5v-666h-252v541q0 83 -10 144t-34.5 108.5t-67.5 71.5t-105 24q-119 0 -180.5 -83.5t-61.5 -217.5v-635q0 -107 -13 -171t-51.5 -108t-103.5 -60.5t-174 -16.5q-75 0 -108 8v184
q100 -11 149 17.5t49 115.5z" />
    <glyph glyph-name="uni0275" unicode="&#x275;" horiz-adv-x="1277" 
d="M635 -33q-171 0 -299 74.5t-194 203t-66 292.5q0 254 155 413.5t408 159.5t408 -159.5t155 -413.5q0 -250 -155 -410t-412 -160zM635 180q120 0 198.5 71t98.5 195h-596q24 -125 101.5 -195.5t197.5 -70.5zM635 899q-113 0 -190.5 -67.5t-102.5 -180.5h586
q-27 112 -105 180t-188 68z" />
    <glyph glyph-name="apostrophemod" unicode="&#x2bc;" horiz-adv-x="491" 
d="M449 1464l-183 -522h-215l148 522h250z" />
    <glyph glyph-name="circumflex" unicode="&#x2c6;" horiz-adv-x="1030" 
d="M377 1464h276q39 -45 113.5 -125.5t107.5 -117.5h-243l-113 127l-115 -127h-243q45 47 123 136t94 107z" />
    <glyph glyph-name="caron" unicode="&#x2c7;" horiz-adv-x="1028" 
d="M653 1221h-276q-16 18 -94 107t-123 136h243l115 -127l113 127h243q-33 -37 -107.5 -117.5t-113.5 -125.5z" />
    <glyph glyph-name="breve" unicode="&#x2d8;" horiz-adv-x="952" 
d="M477 1196q-128 0 -207 70t-96 198h168q28 -100 135 -100q55 0 85 26t50 74h166q-17 -128 -95 -198t-206 -70z" />
    <glyph glyph-name="dotaccent" unicode="&#x2d9;" horiz-adv-x="671" 
d="M221 1235v225h230v-225h-230z" />
    <glyph glyph-name="ring" unicode="&#x2da;" horiz-adv-x="829" 
d="M489 1184q-85 0 -141.5 58t-56.5 144q0 82 59 140.5t142 58.5q84 0 142 -58.5t58 -140.5q0 -86 -58.5 -144t-144.5 -58zM401 1386q0 -38 25.5 -65t62.5 -27q39 0 65 25.5t26 66.5q0 36 -26.5 62.5t-64.5 26.5q-36 0 -62 -26.5t-26 -62.5z" />
    <glyph glyph-name="ogonek" unicode="&#x2db;" horiz-adv-x="677" 
d="M385 -100l190 -234h-286l-156 234h252z" />
    <glyph glyph-name="tilde" unicode="&#x2dc;" horiz-adv-x="962" 
d="M621 1255q-64 37 -95 37q-28 0 -40.5 -17t-18.5 -58h-154q0 101 56 177t137 76q27 0 55 -7.5t43.5 -14.5t48.5 -23q73 -36 97 -36q27 0 38.5 17.5t18.5 57.5h147q0 -104 -49.5 -179t-132.5 -75q-59 0 -151 45z" />
    <glyph glyph-name="hungarumlaut" unicode="&#x2dd;" horiz-adv-x="1253" 
d="M748 1464l-289 -243h-252l233 243h308zM1161 1464l-289 -243h-251l233 243h307z" />
    <glyph glyph-name="uni032C" unicode="&#x32c;" horiz-adv-x="1030" 
d="M367 -98h276q39 -46 114 -127t107 -117h-243l-113 127l-115 -127h-243q44 46 120.5 134t96.5 110z" />
    <glyph glyph-name="uni0394" unicode="&#x394;" horiz-adv-x="1406" 
d="M547 1464h313l533 -1464h-1379zM705 1249l-361 -1036h721z" />
    <glyph glyph-name="uni03A9" unicode="&#x3a9;" horiz-adv-x="1648" 
d="M109 803q0 106 30.5 206.5t91.5 187t145.5 152t200.5 103t248 37.5q164 0 301 -57.5t226.5 -153.5t138.5 -219t49 -256q0 -187 -68 -324t-208 -250h272v-229h-610v215q344 199 344 573q0 132 -50 238.5t-152.5 172t-242.5 65.5t-243 -65.5t-153 -172t-50 -238.5
q0 -374 344 -573v-215h-610v229h272q-140 113 -208 250t-68 324z" />
    <glyph glyph-name="uni03BC" unicode="&#x3bc;" horiz-adv-x="1245" 
d="M395 -369h-252v1444h252v-565q0 -75 10.5 -131.5t35 -101t68.5 -68t107 -23.5q58 0 101 19.5t68 51t40 77t20 90t5 98.5v553h252v-911q0 -109 2 -164h-240v156q-47 -85 -126 -130.5t-177 -45.5q-95 0 -166 32v-381z" />
    <glyph glyph-name="pi" unicode="&#x3c0;" horiz-adv-x="1355" 
d="M1282 1075v-201h-192v-575q0 -74 32.5 -103.5t98.5 -29.5q25 0 45 4v-188q-51 -7 -80 -7q-171 0 -259.5 62.5t-88.5 214.5v622h-349v-874h-251v874h-207v201h1251z" />
    <glyph glyph-name="Wgrave" unicode="&#x1e80;" horiz-adv-x="1947" 
d="M1901 1464l-318 -1464h-342l-186 862q-30 136 -70 381h-4q-21 -126 -76 -381l-186 -862h-359l-309 1464h275l155 -846q47 -240 64 -370h6q18 115 74 368l190 848h344l184 -837q35 -151 70 -379h4q7 68 15.5 117.5t25.5 131t27 132.5l162 835h254zM934 1559l-268 235h321
l217 -235h-270z" />
    <glyph glyph-name="wgrave" unicode="&#x1e81;" horiz-adv-x="1638" 
d="M631 0h-254q-68 195 -182.5 566.5t-159.5 508.5h256l121 -420q21 -68 49 -185t47 -187h4q22 81 52 213.5t48 203.5l93 375h237l107 -420q12 -47 39.5 -164.5t52.5 -211.5h4q21 73 51 194t55 207l113 395h244l-344 -1075h-260q-42 132 -94.5 339t-86.5 372h-6
q-3 -14 -32.5 -134t-41 -164t-35 -136.5t-42 -157t-35.5 -119.5zM766 1221l-285 243h322l233 -243h-270z" />
    <glyph glyph-name="Wacute" unicode="&#x1e82;" horiz-adv-x="1947" 
d="M1901 1464l-318 -1464h-342l-186 862q-30 136 -70 381h-4q-21 -126 -76 -381l-186 -862h-359l-309 1464h275l155 -846q47 -240 64 -370h6q18 115 74 368l190 848h344l184 -837q35 -151 70 -379h4q7 68 15.5 117.5t25.5 131t27 132.5l162 835h254zM1325 1794l-268 -235
h-271l218 235h321z" />
    <glyph glyph-name="wacute" unicode="&#x1e83;" horiz-adv-x="1638" 
d="M631 0h-254q-68 195 -182.5 566.5t-159.5 508.5h256l121 -420q21 -68 49 -185t47 -187h4q22 81 52 213.5t48 203.5l93 375h237l107 -420q12 -47 39.5 -164.5t52.5 -211.5h4q21 73 51 194t55 207l113 395h244l-344 -1075h-260q-42 132 -94.5 339t-86.5 372h-6
q-3 -14 -32.5 -134t-41 -164t-35 -136.5t-42 -157t-35.5 -119.5zM1165 1464l-284 -243h-271l234 243h321z" />
    <glyph glyph-name="Wdieresis" unicode="&#x1e84;" horiz-adv-x="1947" 
d="M1901 1464l-318 -1464h-342l-186 862q-30 136 -70 381h-4q-21 -126 -76 -381l-186 -862h-359l-309 1464h275l155 -846q47 -240 64 -370h6q18 115 74 368l190 848h344l184 -837q35 -151 70 -379h4q7 68 15.5 117.5t25.5 131t27 132.5l162 835h254zM678 1563v225h229v-225
h-229zM1061 1563v225h227v-225h-227z" />
    <glyph glyph-name="wdieresis" unicode="&#x1e85;" horiz-adv-x="1638" 
d="M631 0h-254q-68 195 -182.5 566.5t-159.5 508.5h256l121 -420q21 -68 49 -185t47 -187h4q22 81 52 213.5t48 203.5l93 375h237l107 -420q12 -47 39.5 -164.5t52.5 -211.5h4q21 73 51 194t55 207l113 395h244l-344 -1075h-260q-42 132 -94.5 339t-86.5 372h-6
q-3 -14 -32.5 -134t-41 -164t-35 -136.5t-42 -157t-35.5 -119.5zM512 1235v225h229v-225h-229zM895 1235v225h227v-225h-227z" />
    <glyph glyph-name="uni1EA0" unicode="&#x1ea0;" horiz-adv-x="1460" 
d="M254 0h-266q51 117 221.5 537t382.5 927h282l594 -1464h-270q-40 98 -166 422h-614zM729 1229h-4q-27 -69 -88.5 -233.5t-95.5 -250.5l-37 -100h442q-9 27 -14 37l-25 63l-71 189q-62 165 -107 295zM606 -324v226h230v-226h-230z" />
    <glyph glyph-name="uni1EA1" unicode="&#x1ea1;" horiz-adv-x="1153" 
d="M354 739h-237q8 160 132 265.5t329 105.5q82 0 147 -14t122 -47.5t94.5 -87.5t59 -136t21.5 -190v-301q0 -209 25 -334h-230q-12 62 -12 143q-48 -71 -140 -117t-216 -46q-171 0 -277 85t-106 234q0 274 466 342q121 18 248 29q-4 133 -53 189t-156 56q-193 0 -217 -176z
M782 451q0 22 2 45l-55 -7q-212 -21 -304.5 -61.5t-92.5 -122.5q0 -72 49 -109.5t137 -37.5q132 0 198 76.5t66 216.5zM424 -324v226h229v-226h-229z" />
    <glyph glyph-name="uni1EB8" unicode="&#x1eb8;" horiz-adv-x="1183" 
d="M174 0v1464h899v-231h-641v-373h592v-229h-592v-404h655v-227h-913zM510 -324v226h229v-226h-229z" />
    <glyph glyph-name="uni1EB9" unicode="&#x1eb9;" horiz-adv-x="1216" 
d="M1149 475l-823 2q12 -134 96 -218.5t213 -84.5q170 0 246 133h252q-51 -153 -183 -246.5t-321 -93.5q-250 0 -401.5 160t-151.5 414q0 248 152.5 409.5t396.5 161.5q125 0 226 -44.5t166 -122.5t99.5 -181t34.5 -221q0 -17 -0.5 -32.5t-1 -24.5t-0.5 -11zM334 655h567
q-12 115 -86 189t-192 74q-119 0 -195.5 -68t-93.5 -195zM510 -324v226h229v-226h-229z" />
    <glyph glyph-name="uni1ECA" unicode="&#x1eca;" horiz-adv-x="608" 
d="M174 0v1464h260v-1464h-260zM190 -324v226h230v-226h-230z" />
    <glyph glyph-name="uni1ECB" unicode="&#x1ecb;" horiz-adv-x="536" 
d="M143 1075h250v-1075h-250v1075zM139 1231v233h256v-233h-256zM154 -324v226h229v-226h-229z" />
    <glyph glyph-name="uni1ECC" unicode="&#x1ecc;" horiz-adv-x="1646" 
d="M821 1493q215 0 384 -97.5t262.5 -271t93.5 -393.5q0 -219 -91.5 -392t-260 -270.5t-386.5 -97.5q-216 0 -384.5 97.5t-260.5 270.5t-92 392q0 218 92.5 391.5t260.5 272t382 98.5zM819 1270q-214 0 -339.5 -149.5t-125.5 -387.5q0 -235 126.5 -386.5t340.5 -151.5
q213 0 341 151t128 387q0 239 -126.5 388t-344.5 149zM717 -324v226h229v-226h-229z" />
    <glyph glyph-name="uni1ECD" unicode="&#x1ecd;" horiz-adv-x="1277" 
d="M637 1112q253 0 408 -160t155 -415q0 -253 -154.5 -411.5t-412.5 -158.5q-169 0 -296.5 74t-194 203t-66.5 293q0 255 154.5 415t406.5 160zM633 903q-139 0 -220 -101t-81 -263q0 -167 80.5 -265t220.5 -98q142 0 222.5 98t80.5 265q0 162 -82 263t-221 101zM516 -324
v226h229v-226h-229z" />
    <glyph glyph-name="uni1EE4" unicode="&#x1ee4;" horiz-adv-x="1400" 
d="M700 -33q-140 0 -259 53.5t-185 145.5q-57 75 -77.5 168t-20.5 231v899h260v-884q0 -91 7 -146.5t30 -99.5q33 -63 97.5 -101t147.5 -38t148 38t98 101q23 44 30 99.5t7 146.5v884h260v-899q0 -138 -20.5 -231t-77.5 -168q-64 -92 -185 -145.5t-260 -53.5zM582 -324v226
h229v-226h-229z" />
    <glyph glyph-name="uni1EE5" unicode="&#x1ee5;" horiz-adv-x="1234" 
d="M856 0v76v78q-102 -183 -334 -183q-188 0 -288.5 115t-100.5 354v635h250v-573q0 -75 10.5 -131.5t35 -101t68.5 -68t107 -23.5q238 0 238 334v563h250v-913q0 -111 2 -162h-238zM506 -324v226h229v-226h-229z" />
    <glyph glyph-name="Ygrave" unicode="&#x1ef2;" horiz-adv-x="1253" 
d="M496 0v565q-183 329 -488 899h289q169 -369 338 -676q89 173 192 379t150 297h274l-495 -899v-565h-260zM578 1559l-269 235h322l217 -235h-270z" />
    <glyph glyph-name="ygrave" unicode="&#x1ef3;" horiz-adv-x="1103" 
d="M512 -369h-254l168 398q-73 191 -225 580.5t-181 465.5h275q62 -177 143.5 -421.5t118.5 -346.5q38 105 138.5 402.5t123.5 365.5h268q-431 -1094 -575 -1444zM496 1221l-285 243h321l234 -243h-270z" />
    <glyph glyph-name="enspace" unicode="&#x2002;" horiz-adv-x="1024" 
 />
    <glyph glyph-name="emspace" unicode="&#x2003;" horiz-adv-x="2048" 
 />
    <glyph glyph-name="threeperemspace" unicode="&#x2004;" horiz-adv-x="0" 
 />
    <glyph glyph-name="fourperemspace" unicode="&#x2005;" horiz-adv-x="512" 
 />
    <glyph glyph-name="thinspace" unicode="&#x2009;" horiz-adv-x="272" 
 />
    <glyph glyph-name="hairspace" unicode="&#x200a;" horiz-adv-x="153" 
 />
    <glyph glyph-name="endash" unicode="&#x2013;" horiz-adv-x="1236" 
d="M131 514v211h975v-211h-975z" />
    <glyph glyph-name="emdash" unicode="&#x2014;" horiz-adv-x="1984" 
d="M131 514v211h1722v-211h-1722z" />
    <glyph glyph-name="quoteleft" unicode="&#x2018;" horiz-adv-x="555" 
d="M90 942l182 522h215l-147 -522h-250z" />
    <glyph glyph-name="quoteright" unicode="&#x2019;" horiz-adv-x="550" 
d="M494 1464l-183 -522h-215l148 522h250z" />
    <glyph glyph-name="quotesinglbase" unicode="&#x201a;" horiz-adv-x="546" 
d="M432 274l-182 -522h-221l147 522h256z" />
    <glyph glyph-name="quotedblleft" unicode="&#x201c;" horiz-adv-x="944" 
d="M479 942l183 522h215l-148 -522h-250zM90 942l182 522h215l-147 -522h-250z" />
    <glyph glyph-name="quotedblright" unicode="&#x201d;" horiz-adv-x="940" 
d="M494 1464l-183 -522h-215l148 522h250zM883 1464l-183 -522h-215l148 522h250z" />
    <glyph glyph-name="quotedblbase" unicode="&#x201e;" horiz-adv-x="948" 
d="M432 274l-182 -522h-221l147 522h256zM834 274l-183 -522h-221l148 522h256z" />
    <glyph glyph-name="dagger" unicode="&#x2020;" horiz-adv-x="1048" 
d="M649 1464v-370h332v-215h-332v-1018h-248v1018h-333v215h333v370h248z" />
    <glyph glyph-name="daggerdbl" unicode="&#x2021;" horiz-adv-x="1114" 
d="M1014 373h-332v-512h-248v512h-334v215h334v291h-334v215h334v370h248v-370h332v-215h-332v-291h332v-215z" />
    <glyph glyph-name="bullet" unicode="&#x2022;" horiz-adv-x="1050" 
d="M526 319q-154 0 -260 106.5t-106 258.5q0 153 106 258t260 105q153 0 259 -105t106 -258q0 -152 -106.5 -258.5t-258.5 -106.5z" />
    <glyph glyph-name="ellipsis" unicode="&#x2026;" horiz-adv-x="1894" 
d="M129 0v274h264v-274h-264zM815 0v274h264v-274h-264zM1501 0v274h264v-274h-264z" />
    <glyph glyph-name="perthousand" unicode="&#x2030;" horiz-adv-x="2650" 
d="M416 662q-169 0 -257.5 109t-88.5 304q0 193 88 302.5t256 109.5t256 -110.5t88 -303.5q0 -196 -86.5 -303.5t-255.5 -107.5zM260 1071q0 -244 154 -244q83 0 118 63.5t35 180.5q0 122 -33.5 186t-119.5 64q-85 0 -119.5 -65t-34.5 -185zM551 0l561 1462h174l-559 -1462
h-176zM1423 -31q-169 0 -257.5 109.5t-88.5 304.5q0 193 88 302.5t256 109.5t256 -110.5t88 -303.5q0 -196 -86.5 -304t-255.5 -108zM1268 379q0 -244 153 -244q83 0 118.5 63.5t35.5 180.5q0 122 -34 186t-120 64q-85 0 -119 -64.5t-34 -185.5zM2241 -31q-169 0 -258 109.5
t-89 304.5q0 193 88 302.5t256 109.5t256.5 -110.5t88.5 -303.5q0 -196 -86.5 -304t-255.5 -108zM2085 379q0 -244 153 -244q83 0 118.5 63.5t35.5 180.5q0 122 -34 186t-120 64q-85 0 -119 -64.5t-34 -185.5z" />
    <glyph glyph-name="guilsinglleft" unicode="&#x2039;" horiz-adv-x="653" 
d="M549 969l-187 -383l187 -385h-250l-209 385l209 383h250z" />
    <glyph glyph-name="guilsinglright" unicode="&#x203a;" horiz-adv-x="655" 
d="M299 586l-197 383h254l209 -383l-209 -385h-254z" />
    <glyph glyph-name="fraction" unicode="&#x2044;" horiz-adv-x="829" 
d="M0 -215l594 1679h237l-589 -1679h-242z" />
    <glyph glyph-name="Euro" unicode="&#x20ac;" 
d="M14 766l58 217h110q18 233 145.5 371.5t352.5 138.5q438 0 483 -469h-250q-21 121 -77 181.5t-158 60.5q-112 0 -166.5 -72t-73.5 -211h461l-57 -217h-414v-92h389l-57 -217h-320q30 -264 238 -264q101 0 156 60.5t79 182.5h246q-21 -218 -140.5 -342.5t-338.5 -124.5
t-342 129.5t-154 358.5h-170l58 217h96v92h-154z" />
    <glyph glyph-name="trademark" unicode="&#x2122;" horiz-adv-x="1949" 
d="M1397 608h-160q-43 120 -115.5 365t-107.5 348h-6q2 -123 2 -424v-289h-168v856h288q34 -108 108 -348.5t89 -286.5q19 59 193 635h280v-856h-172v414q0 56 1 159t1 142h-6q-21 -66 -101 -323.5t-126 -391.5zM719 1464v-137h-215v-719h-176v719h-215v137h606z" />
    <glyph glyph-name="Omega" unicode="&#x2126;" horiz-adv-x="1648" 
d="M109 803q0 106 30.5 206.5t91.5 187t145.5 152t200.5 103t248 37.5q164 0 301 -57.5t226.5 -153.5t138.5 -219t49 -256q0 -187 -68 -324t-208 -250h272v-229h-610v215q344 199 344 573q0 132 -50 238.5t-152.5 172t-242.5 65.5t-243 -65.5t-153 -172t-50 -238.5
q0 -374 344 -573v-215h-610v229h272q-140 113 -208 250t-68 324z" />
    <glyph glyph-name="onethird" unicode="&#x2153;" horiz-adv-x="1654" 
d="M539 0h-166l563 1464h166q-217 -557 -563 -1464zM283 1204h-217v123q118 5 168.5 34.5t60.5 102.5h158v-899h-170v639zM1190 424v141q83 0 128.5 24.5t45.5 86.5q0 49 -29 74.5t-75 25.5q-48 0 -75 -27.5t-32 -76.5h-162q2 110 76 180t197 70t196.5 -63t73.5 -169
q0 -118 -109 -186q154 -68 154 -230q0 -129 -86.5 -207.5t-232.5 -78.5q-141 0 -222 79t-92 207h170q6 -62 46 -100.5t102 -38.5q64 0 102.5 41t38.5 103q0 74 -47.5 109.5t-124.5 35.5h-43z" />
    <glyph glyph-name="twothirds" unicode="&#x2154;" horiz-adv-x="1855" 
d="M745 0h-165l563 1464h166q-277 -713 -564 -1464zM1397 424v141q83 0 128.5 24.5t45.5 86.5q0 49 -29 74.5t-76 25.5q-48 0 -74.5 -27.5t-31.5 -76.5h-162q2 110 75.5 180t196.5 70t197 -63t74 -169q0 -118 -109 -186q154 -68 154 -230q0 -129 -86.5 -207.5t-233.5 -78.5
q-141 0 -221.5 78.5t-91.5 207.5h170q6 -63 45.5 -101t101.5 -38q64 0 103 41t39 103q0 74 -47.5 109.5t-124.5 35.5h-43zM104 561v150q112 91 172.5 146t141.5 140q32 35 51 59.5t36 64.5t17 81q0 57 -33.5 92t-93.5 35q-65 0 -100 -44.5t-37 -119.5h-162q-2 2 -2 11v24
q0 126 87 205.5t216 79.5q138 0 220.5 -80t82.5 -201q0 -89 -59 -182q-55 -87 -168 -191q-6 -6 -137 -116h362v-154h-594z" />
    <glyph glyph-name="oneeighth" unicode="&#x215b;" horiz-adv-x="1671" 
d="M940 254q0 81 37 142t108 93q-108 77 -108 195q0 101 79.5 170.5t209.5 69.5q131 0 210.5 -69t79.5 -171q0 -120 -108 -195q69 -36 108 -97t39 -138q0 -124 -91 -200.5t-238 -76.5q-146 0 -236 76.5t-90 200.5zM1266 416q-68 0 -108 -40.5t-40 -107.5q0 -63 39 -104
t109 -41t109.5 41.5t39.5 103.5q0 67 -39 107.5t-110 40.5zM1266 774q-56 0 -88.5 -31t-32.5 -79q0 -49 33 -82t88 -33q58 0 90.5 33t32.5 82t-32.5 79.5t-90.5 30.5zM539 0h-166l563 1464h166q-217 -557 -563 -1464zM283 1204h-217v123q118 5 168.5 34.5t60.5 102.5h158
v-899h-170v639z" />
    <glyph glyph-name="threeeighths" unicode="&#x215c;" horiz-adv-x="1853" 
d="M1126 254q0 81 37.5 142t108.5 93q-109 78 -109 195q0 101 79.5 170.5t209.5 69.5q131 0 211 -69.5t80 -170.5q0 -120 -109 -195q69 -36 108.5 -97t39.5 -138q0 -124 -91.5 -200.5t-238.5 -76.5q-146 0 -236 76.5t-90 200.5zM1452 416q-68 0 -107.5 -40.5t-39.5 -107.5
q0 -63 39 -104t108 -41q70 0 110 41.5t40 103.5q0 67 -39.5 107.5t-110.5 40.5zM1452 774q-56 0 -88.5 -31t-32.5 -79q0 -49 33 -82t88 -33q58 0 90.5 33t32.5 82t-32.5 79.5t-90.5 30.5zM725 0h-166l563 1464h166q-217 -557 -563 -1464zM313 989v141q83 0 128.5 24.5
t45.5 86.5q0 49 -29 74.5t-75 25.5q-48 0 -75 -27.5t-32 -76.5h-161q2 110 75.5 180t196.5 70t196.5 -63t73.5 -169q0 -119 -108 -186q153 -67 153 -229q0 -129 -86.5 -208t-232.5 -79q-141 0 -221.5 79t-91.5 208h170q6 -63 45.5 -101.5t101.5 -38.5q64 0 102.5 41
t38.5 103q0 74 -47.5 109.5t-124.5 35.5h-43z" />
    <glyph glyph-name="fiveeighths" unicode="&#x215d;" horiz-adv-x="1855" 
d="M104 973l54 491h489v-147h-352l-23 -184q62 36 144 36q131 0 212 -80.5t81 -214.5q0 -139 -90 -230t-232 -91q-137 0 -221 79.5t-96 207.5h168q11 -62 47 -100t98 -38q73 0 113.5 45t40.5 121q0 71 -41 114.5t-113 43.5q-89 0 -127 -78zM1126 254q0 81 37.5 142t108.5 93
q-109 78 -109 195q0 101 79.5 170.5t209.5 69.5q131 0 211 -69.5t80 -170.5q0 -120 -109 -195q69 -36 108.5 -97t39.5 -138q0 -124 -91.5 -200.5t-238.5 -76.5q-146 0 -236 76.5t-90 200.5zM1452 416q-68 0 -107.5 -40.5t-39.5 -107.5q0 -63 39 -104t108 -41q70 0 110 41.5
t40 103.5q0 67 -39.5 107.5t-110.5 40.5zM1452 774q-56 0 -88.5 -31t-32.5 -79q0 -49 33 -82t88 -33q58 0 90.5 33t32.5 82t-32.5 79.5t-90.5 30.5zM725 0h-166l563 1464h166q-217 -557 -563 -1464z" />
    <glyph glyph-name="seveneighths" unicode="&#x215e;" horiz-adv-x="1685" 
d="M961 254q0 81 37 142t108 93q-109 78 -109 195q0 101 79.5 170.5t209.5 69.5q131 0 211 -69.5t80 -170.5q0 -120 -109 -195q69 -36 108.5 -97t39.5 -138q0 -124 -91.5 -200.5t-238.5 -76.5q-146 0 -235.5 76t-89.5 201zM1286 416q-68 0 -107.5 -40.5t-39.5 -107.5
q0 -63 39 -104t108 -41q70 0 110 41.5t40 103.5q0 67 -39.5 107.5t-110.5 40.5zM1286 774q-56 0 -88.5 -31t-32.5 -79q0 -49 33 -82t88 -33q58 0 90.5 33t32.5 82t-32.5 79.5t-90.5 30.5zM559 0h-166l563 1464h166q-217 -557 -563 -1464zM330 563h-197q141 359 344 740v2
q-25 -2 -69 -2h-338v161h592v-141v-4l-31 -64q-159 -320 -301 -692z" />
    <glyph glyph-name="arrowleft" unicode="&#x2190;" horiz-adv-x="1679" 
d="M1599 553h-1157q17 -17 75.5 -77.5t123 -125t119.5 -117.5q144 -148 229 -233h-313q-35 37 -284.5 301.5t-348.5 366.5q76 76 195.5 201t258 272t179.5 190h313l-229 -233q-46 -46 -118.5 -120t-122.5 -125t-77 -75h1157v-225z" />
    <glyph glyph-name="arrowup" unicode="&#x2191;" horiz-adv-x="1474" 
d="M621 0v1135l-318 -318l-231 -227v313q48 46 191 180.5t270.5 255.5t203.5 197q74 -77 201.5 -198t272 -255t192.5 -180v-313l-232 227q-183 174 -317 318v-1135h-233z" />
    <glyph glyph-name="arrowright" unicode="&#x2192;" horiz-adv-x="1679" 
d="M1237 553h-1157v225h1157q-110 102 -317 320q-170 170 -230 233h314q56 -57 295.5 -311.5t336.5 -351.5q-103 -103 -356.5 -374t-275.5 -294h-314l230 233z" />
    <glyph glyph-name="arrowdown" unicode="&#x2193;" horiz-adv-x="1474" 
d="M621 328v1134h233v-1134q126 135 317 317l232 227v-313q-30 -28 -141.5 -133t-189 -178t-176.5 -167.5t-159 -154.5q-102 99 -368 351.5t-297 281.5v313l231 -227z" />
    <glyph glyph-name="uni2196" unicode="&#x2196;" horiz-adv-x="1536" 
d="M1255 -41l-819 821q0 -29 1 -192t1 -262q0 -213 -2 -330l-215 221q0 103 4 452.5t4 475.5q126 0 470 5t448 5l217 -209q-117 -2 -326 -2h-448l825 -825z" />
    <glyph glyph-name="uni2197" unicode="&#x2197;" horiz-adv-x="1536" 
d="M1098 780l-819 -821l-160 160l825 825h-448q-209 0 -326 2l217 209q104 0 448 -5t470 -5q0 -126 4 -475.5t4 -452.5l-215 -221q-2 117 -2 330q0 99 1 262t1 192z" />
    <glyph glyph-name="uni2198" unicode="&#x2198;" horiz-adv-x="1536" 
d="M281 1190l819 -821q0 29 -1 192t-1 262q0 213 2 330l215 -221q0 -103 -4 -452.5t-4 -475.5q-126 0 -470 -5t-448 -5l-217 209q226 0 326 2h448l-825 825z" />
    <glyph glyph-name="uni2199" unicode="&#x2199;" horiz-adv-x="1536" 
d="M434 369l819 821l160 -160l-825 -825h448q100 -2 326 -2l-217 -209q-104 0 -448 5t-470 5q0 126 -4 475.5t-4 452.5l215 221q2 -117 2 -330q0 -99 -1 -262t-1 -192z" />
    <glyph glyph-name="partialdiff" unicode="&#x2202;" horiz-adv-x="1288" 
d="M246 1464h420q538 -338 538 -891q0 -282 -149.5 -443t-417.5 -161q-253 0 -406 154t-153 409q0 129 42 237.5t113.5 180t167 111t203.5 39.5q63 0 119 -13.5t82 -31.5l6 6q-82 109 -235.5 213.5t-329.5 189.5zM637 180q140 0 220.5 97t80.5 262q0 160 -81 260t-220 100
t-220 -100t-81 -260q0 -165 80.5 -262t220.5 -97z" />
    <glyph glyph-name="Delta" unicode="&#x2206;" horiz-adv-x="1476" 
d="M582 1464h313l532 -1464h-1378zM739 1249l-360 -1036h721z" />
    <glyph glyph-name="product" unicode="&#x220f;" horiz-adv-x="1671" 
d="M1384 1243v-1474h-251v1474h-594v-1474h-252v1474h-219v221h1536v-221h-220z" />
    <glyph glyph-name="summation" unicode="&#x2211;" horiz-adv-x="1294" 
d="M84 -31l512 639l-504 645v211h1092v-221h-774l483 -614l-506 -637h819v-223h-1122v200z" />
    <glyph glyph-name="minus" unicode="&#x2212;" 
d="M147 549v219h906v-219h-906z" />
    <glyph glyph-name="uni2219" unicode="&#x2219;" horiz-adv-x="522" 
d="M129 518v275h264v-275h-264z" />
    <glyph glyph-name="radical" unicode="&#x221a;" 
d="M39 864v211h379l127 -397q18 -57 47 -161t55 -187h4l97 372l204 762h258l-450 -1464h-240q-145 416 -297 864h-184z" />
    <glyph glyph-name="infinity" unicode="&#x221e;" horiz-adv-x="1755" 
d="M477 1049q55 0 104 -14.5t105.5 -51t90 -63t104.5 -86.5q64 56 100.5 85.5t89.5 64.5t103 50t104 15q164 0 260 -101t96 -264q0 -69 -21 -131.5t-62.5 -114t-109.5 -82t-155 -30.5q-61 0 -118 18t-111.5 56t-89.5 68t-90 83q-115 -105 -164 -140q-121 -85 -244 -85
q-87 0 -155 30.5t-109.5 82t-62.5 114t-21 131.5q0 163 96 264t260 101zM1272 541q69 0 108 40t39 109q0 63 -39.5 105.5t-103.5 42.5q-59 0 -124 -40t-148 -112q10 -8 42.5 -34.5t44.5 -36t39.5 -28t46 -26t44 -14t51.5 -6.5zM483 541q26 0 52 7t43.5 13.5t46 26t40 28
t45 36t42.5 34.5q-82 71 -148 111.5t-125 40.5q-64 0 -103.5 -42.5t-39.5 -105.5q0 -69 39 -109t108 -40z" />
    <glyph glyph-name="integral" unicode="&#x222b;" 
d="M797 989l-111 -809q-21 -153 -52 -252.5t-82 -167.5t-125.5 -97.5t-182.5 -29.5q-68 0 -127 17l22 188q38 -10 70 -10q50 0 86.5 15.5t59.5 40.5t39.5 71t25.5 91.5t18 117.5l113 831q33 250 136 372t306 122q68 0 92 -8l-24 -197q-18 6 -53 6q-43 0 -76 -14.5t-55 -39
t-38 -64.5t-25.5 -82.5t-16.5 -100.5z" />
    <glyph glyph-name="approxequal" unicode="&#x2248;" 
d="M995 1032l140 -100q-62 -111 -132.5 -171.5t-166.5 -60.5q-26 0 -51.5 4t-57.5 15t-46.5 16.5t-54.5 23.5t-46 21l-54 23q-88 43 -147 43q-56 0 -99 -39.5t-69 -99.5l-139 102q58 108 136 175t171 67q38 0 83 -12t68.5 -22t87.5 -38l27 -12q7 -3 28 -13t29 -13.5
t25.5 -11t27.5 -10.5t24.5 -7t27 -5.5t24.5 -1.5q55 0 93 33t71 94zM991 520l139 -100q-62 -111 -132.5 -171.5t-166.5 -60.5q-26 0 -51.5 4t-57.5 15t-46.5 16.5t-54.5 23.5t-46 21l-53 23q-88 43 -147 43q-56 0 -99 -39.5t-69 -99.5l-139 102q58 108 136 175t171 67
q38 0 83 -12t68.5 -22t87.5 -38l27 -12q7 -3 28 -13t29 -13.5t25.5 -11t27.5 -10.5t24.5 -7t27 -5.5t24.5 -1.5q55 0 93 33t71 94z" />
    <glyph glyph-name="notequal" unicode="&#x2260;" 
d="M147 721v215h471l103 211h223l-102 -211h211v-215h-316l-55 -115h371v-215h-475l-111 -227h-223l110 227h-207v215h312l55 115h-367z" />
    <glyph glyph-name="lessequal" unicode="&#x2264;" 
d="M184 635v186l811 367v-236q-446 -172 -542 -213v-6q18 -8 118.5 -47.5t219 -87.5t204.5 -84v-240q-136 61 -405.5 180t-405.5 181zM995 0h-811v219h811v-219z" />
    <glyph glyph-name="greaterequal" unicode="&#x2265;" 
d="M1016 821v-186q-136 -62 -405.5 -180.5t-405.5 -180.5v240q86 36 205 84t219 87.5t119 47.5v6q-86 37 -543 213v236zM1016 0h-811v219h811v-219z" />
    <glyph glyph-name="dotmath" unicode="&#x22c5;" horiz-adv-x="522" 
d="M129 518v275h264v-275h-264z" />
    <glyph glyph-name="lozenge" unicode="&#x25ca;" 
d="M707 0h-213l-451 729l451 735h213l448 -735zM600 256l274 473l-274 479l-276 -479z" />
    <glyph glyph-name="commaaccent" unicode="&#xf6c3;" horiz-adv-x="550" 
d="M483 -100l-170 -244h-237l121 244h286z" />
    <glyph glyph-name="uniF8FF" unicode="&#xf8ff;" horiz-adv-x="1083" 
d="M543 236q-185 0 -313 127t-128 311q0 183 128 308.5t313 125.5q181 0 309.5 -126t128.5 -308q0 -183 -128.5 -310.5t-309.5 -127.5z" />
    <glyph glyph-name="acute.caps" horiz-adv-x="874" 
d="M799 1794l-269 -235h-270l217 235h322z" />
    <glyph glyph-name="grave.caps" horiz-adv-x="1048" 
d="M537 1559l-269 235h322l217 -235h-270z" />
    <glyph glyph-name="circumflex.caps" horiz-adv-x="1030" 
d="M377 1792h276q38 -42 110.5 -116.5t110.5 -116.5h-243l-113 118l-115 -118h-243q139 146 217 233z" />
    <glyph glyph-name="caron.caps" horiz-adv-x="1028" 
d="M653 1559h-276q-78 87 -217 233h243l115 -119l113 119h243q-38 -42 -110.5 -116.5t-110.5 -116.5z" />
    <glyph glyph-name="tilde.caps" horiz-adv-x="962" 
d="M494 1595q-64 37 -95 37q-29 0 -41 -15t-18 -54h-154q0 100 55.5 173.5t137.5 73.5q27 0 55 -7.5t43.5 -14.5t48.5 -23q73 -36 97 -36q28 0 39.5 15t17.5 54h147q0 -103 -49.5 -175.5t-132.5 -72.5q-59 0 -151 45z" />
    <glyph glyph-name="macron.caps" horiz-adv-x="876" 
d="M225 1583v174h559v-174h-559z" />
    <glyph glyph-name="breve.caps" horiz-adv-x="952" 
d="M510 1538q-127 0 -206 68.5t-97 187.5h168q13 -45 47 -72.5t88 -27.5q93 0 135 100h166q-18 -119 -96 -187.5t-205 -68.5z" />
    <glyph glyph-name="dotaccent.caps" horiz-adv-x="671" 
d="M221 1563v225h230v-225h-230z" />
    <glyph glyph-name="ring.caps" horiz-adv-x="829" 
d="M504 1511q-85 0 -142 58.5t-57 144.5q0 82 59 140.5t142 58.5q84 0 142.5 -58.5t58.5 -140.5q0 -86 -58.5 -144.5t-144.5 -58.5zM416 1714q0 -38 25.5 -65t62.5 -27q39 0 64.5 25.5t25.5 66.5q0 36 -26 62t-64 26q-36 0 -62 -26t-26 -62z" />
    <glyph glyph-name="cedilla.caps" horiz-adv-x="755" 
d="M195 -334l190 234h252l-156 -234h-286z" />
    <glyph glyph-name="ogonek.caps" horiz-adv-x="677" 
d="M385 -100l190 -234h-286l-156 234h252z" />
    <glyph glyph-name="hungarumlaut.caps" horiz-adv-x="1253" 
d="M793 1794l-269 -235h-256l217 235h308zM1204 1794l-268 -235h-256l217 235h307z" />
    <glyph glyph-name="dieresis.caps" horiz-adv-x="1005" 
d="M233 1563v225h230v-225h-230zM616 1563v225h228v-225h-228z" />
    <glyph glyph-name="horn" horiz-adv-x="540" 
d="M473 1464l-143 -391h-215l112 391h246z" />
    <glyph glyph-name="zero.plf" horiz-adv-x="1245" 
d="M623 1493q124 0 217 -43t149 -113t90.5 -172t47 -206t12.5 -230q0 -136 -13.5 -245t-49 -207.5t-92.5 -164.5t-148.5 -104.5t-212.5 -38.5t-212.5 38.5t-148.5 104.5t-93 164.5t-49.5 207.5t-13.5 245q0 126 12.5 230t47 206t91 172t149.5 113t217 43zM623 1266
q-50 0 -89.5 -19t-66 -56.5t-44 -84t-27 -110.5t-13.5 -126.5t-4 -140.5q0 -99 6.5 -177t23 -148t43.5 -116t70 -73t101 -27t101.5 27t70 72.5t43 116.5t22.5 148t6 177q0 78 -4 140.5t-13 126.5t-27 110.5t-44 84t-65.5 56.5t-89.5 19z" />
    <glyph glyph-name="one.plf" horiz-adv-x="870" 
d="M412 0v1047h-353v194q191 5 277.5 54t105.5 169h226v-1464h-256z" />
    <glyph glyph-name="two.plf" horiz-adv-x="1179" 
d="M1069 0h-958v213l151 137l283 260q141 131 202.5 228.5t61.5 199.5q0 105 -60 167.5t-165 62.5q-118 0 -178 -75t-62 -198h-244q0 3 -1 7.5t-1 7.5q0 209 129 346t357 137q223 0 354 -126.5t131 -322.5q0 -89 -32.5 -177t-80 -155.5t-120 -142.5t-133.5 -125.5
t-141.5 -117.5t-123.5 -107h631v-219z" />
    <glyph glyph-name="three.plf" horiz-adv-x="1183" 
d="M74 422h250q13 -109 78 -171.5t182 -62.5q113 0 181.5 72.5t68.5 179.5q0 127 -82.5 189.5t-216.5 62.5h-58v205q289 0 289 205q-1 88 -53 133t-135 45q-81 0 -134 -47.5t-63 -132.5h-236q5 173 124.5 283t314.5 110q197 0 315.5 -106t118.5 -277q0 -100 -52.5 -176.5
t-144.5 -126.5q130 -43 200.5 -141t70.5 -234q0 -205 -139.5 -332t-374.5 -127q-224 0 -358 125.5t-146 323.5z" />
    <glyph glyph-name="four.plf" horiz-adv-x="1224" 
d="M1143 514v-215h-193v-299h-231v299h-664v201l439 630q225 332 227 334h229v-950h193zM723 1137h-4q-74 -126 -160 -256l-96 -142q-87 -128 -103 -149q-34 -47 -51 -76h410v360q0 42 2 135t2 128z" />
    <glyph glyph-name="five.plf" horiz-adv-x="1173" 
d="M129 674q19 159 51 443.5t39 346.5h774v-225h-573q-8 -43 -16 -121t-11 -100l-16 -117q116 76 254 76q207 0 336 -137t129 -355q0 -224 -143 -370t-371 -146q-214 0 -350.5 119.5t-157.5 312.5h252q18 -98 81 -157.5t168 -59.5q126 0 196.5 80.5t70.5 212.5
q0 122 -72 203.5t-192 81.5q-152 0 -220 -125q-168 29 -229 37z" />
    <glyph glyph-name="six.plf" horiz-adv-x="1243" 
d="M1124 1087h-252q-14 78 -71 133.5t-152 55.5q-76 0 -133.5 -35.5t-92.5 -98.5t-53 -141.5t-20 -173.5h4q117 129 328 129q207 0 335 -133.5t128 -351.5q0 -219 -142 -359.5t-368 -140.5q-266 0 -399.5 179.5t-133.5 521.5q0 395 137.5 608t411.5 213q203 0 325 -110.5
t148 -295.5zM631 750q-111 0 -185.5 -77.5t-74.5 -197.5q0 -123 73 -199.5t189 -76.5q110 0 184 77.5t74 194.5q0 118 -75 198.5t-185 80.5z" />
    <glyph glyph-name="seven.plf" horiz-adv-x="1021" 
d="M446 0h-280q113 291 307 719q17 37 58 125.5t64 138t58 121t66 129.5v2q-39 -2 -113 -2h-538v231h917v-213v-4l-49 -102q-288 -600 -490 -1145z" />
    <glyph glyph-name="eight.plf" horiz-adv-x="1216" 
d="M348 793q-192 118 -192 319q0 161 124 271t328 110q205 0 329 -109.5t124 -273.5q0 -210 -193 -317q123 -56 189.5 -153.5t66.5 -229.5q0 -198 -144 -320.5t-372 -122.5t-371 122t-143 321q0 132 65.5 230.5t188.5 152.5zM608 680q-116 0 -186 -70.5t-70 -181.5
q0 -106 69.5 -177t186.5 -71q115 0 184.5 70.5t69.5 177.5q0 112 -69 182t-185 70zM608 1274q-95 0 -152 -55.5t-57 -137.5q0 -84 56.5 -140t152.5 -56t152.5 56t56.5 140q0 82 -57 137.5t-152 55.5z" />
    <glyph glyph-name="nine.plf" horiz-adv-x="1243" 
d="M115 375h256q13 -79 70 -133t155 -54q276 0 295 459h-4q-46 -55 -130 -95t-204 -40q-201 0 -328 134.5t-127 346.5q0 217 141.5 358.5t366.5 141.5q263 0 399 -182.5t136 -519.5q0 -399 -136 -610.5t-411 -211.5q-204 0 -329 110.5t-150 295.5zM610 1270
q-111 0 -184.5 -77t-73.5 -194q0 -120 73.5 -198t186.5 -78q111 0 184.5 75.5t73.5 194.5q0 124 -72 200.5t-188 76.5z" />
    <glyph glyph-name="Gtilde" horiz-adv-x="1622" 
d="M764 774h741v-774h-235v70v77q-72 -79 -190 -127.5t-279 -48.5q-152 0 -284.5 55.5t-227 154t-149 241t-54.5 309.5q0 218 92 391t263.5 272t392.5 99q250 0 428.5 -130.5t242.5 -334.5h-295q-52 117 -148 179.5t-231 62.5q-222 0 -349.5 -149.5t-127.5 -385.5
q0 -241 131.5 -393t354.5 -152q196 0 306.5 106t123.5 271h-506v207zM827 1595q-64 37 -94 37q-29 0 -41 -15t-18 -54h-154q0 100 55.5 173.5t137.5 73.5q27 0 55 -7.5t43.5 -14.5t48.5 -23q73 -36 96 -36q28 0 40 15t18 54h147q0 -103 -49.5 -175.5t-132.5 -72.5
q-60 0 -152 45z" />
    <glyph glyph-name="gtilde" horiz-adv-x="1327" 
d="M1186 1075v-897q0 -266 -146 -418.5t-411 -152.5q-200 0 -334 95.5t-178 258.5h264q32 -71 96.5 -109t151.5 -38q173 0 249 102.5t76 306.5h-4q-46 -75 -140 -125.5t-226 -50.5q-230 0 -367 146.5t-137 379.5q0 237 140.5 386t357.5 149q132 0 225 -50t147 -126
q-2 25 -2 72v71h238zM641 901q-140 0 -222.5 -89t-82.5 -237q0 -146 81 -235.5t224 -89.5q135 0 221 87.5t86 244.5q0 143 -83.5 231t-223.5 88zM666 1255q-64 37 -95 37q-28 0 -40.5 -17t-18.5 -58h-154q0 101 56 177t137 76q27 0 55 -7.5t43.5 -14.5t48.5 -23
q73 -36 97 -36q27 0 38.5 17.5t18.5 57.5h147q0 -104 -49.5 -179t-132.5 -75q-59 0 -151 45z" />
    <glyph glyph-name="Mcircumflex" horiz-adv-x="1931" 
d="M174 0v1464h410l262 -778q16 -50 57.5 -185.5t61.5 -197.5h2q25 69 73.5 216.5t59.5 180.5l260 764h397v-1464h-258v745q0 83 2 265.5t2 236.5h-2q-5 -19 -155 -485l-256 -762h-256l-308 915q-26 79 -57 192t-43 150h-2q4 -242 4 -491v-766h-254zM823 1792h277
q38 -42 110.5 -116.5t110.5 -116.5h-244l-112 118l-115 -118h-244q139 146 217 233z" />
    <glyph glyph-name="mcircumflex" horiz-adv-x="1906" 
d="M381 1075v-67q0 -43 -2 -68q44 77 126 123.5t197 46.5q224 0 322 -182q131 182 362 182q186 0 287 -114.5t101 -327.5v-668h-250v573q0 168 -49 248t-158 80q-114 0 -174 -76t-60 -202v-623h-249v580q0 166 -49 243.5t-160 77.5q-118 0 -175 -82t-57 -219v-600h-250v909
q0 109 -2 166h240zM829 1464h277q39 -45 113.5 -125.5t107.5 -117.5h-244l-112 127l-115 -127h-244q45 47 123 136t94 107z" />
    <glyph glyph-name="Mmacron" horiz-adv-x="1931" 
d="M174 0v1464h410l262 -778q16 -50 57.5 -185.5t61.5 -197.5h2q25 69 73.5 216.5t59.5 180.5l260 764h397v-1464h-258v745q0 83 2 265.5t2 236.5h-2q-5 -19 -155 -485l-256 -762h-256l-308 915q-26 79 -57 192t-43 150h-2q4 -242 4 -491v-766h-254zM684 1583v174h559v-174
h-559z" />
    <glyph glyph-name="mmacron" horiz-adv-x="1906" 
d="M381 1075v-67q0 -43 -2 -68q44 77 126 123.5t197 46.5q224 0 322 -182q131 182 362 182q186 0 287 -114.5t101 -327.5v-668h-250v573q0 168 -49 248t-158 80q-114 0 -174 -76t-60 -202v-623h-249v580q0 166 -49 243.5t-160 77.5q-118 0 -175 -82t-57 -219v-600h-250v909
q0 109 -2 166h240zM694 1266v174h559v-174h-559z" />
    <glyph glyph-name="Ncircumflex" horiz-adv-x="1562" 
d="M174 0v1464h320l487 -839q27 -47 85 -145t75 -128l2 2q0 35 -1 172t-1 215v723h248v-1464h-310l-471 803q-51 89 -112 192t-68 115h-2q0 -35 1 -219t1 -256v-635h-254zM647 1792h277q38 -42 110.5 -116.5t110.5 -116.5h-244l-113 118l-114 -118h-244q139 146 217 233z
" />
    <glyph glyph-name="ncircumflex" horiz-adv-x="1239" 
d="M381 1077v-67q0 -45 -2 -68q0 -2 2 -2q114 170 336 170q186 0 287.5 -116t101.5 -326v-668h-250v555q0 170 -49 258t-170 88q-122 0 -183 -83.5t-61 -217.5v-600h-250v913q0 109 -2 164h240zM518 1464h277q39 -45 113.5 -125.5t107.5 -117.5h-244l-113 127l-114 -127
h-244q45 47 123 136t94 107z" />
    <glyph glyph-name="Ndieresis" horiz-adv-x="1562" 
d="M174 0v1464h320l487 -839q27 -47 85 -145t75 -128l2 2q0 35 -1 172t-1 215v723h248v-1464h-310l-471 803q-51 89 -112 192t-68 115h-2q0 -35 1 -219t1 -256v-635h-254zM485 1563v225h230v-225h-230zM868 1563v225h228v-225h-228z" />
    <glyph glyph-name="ndieresis" horiz-adv-x="1239" 
d="M381 1077v-67q0 -45 -2 -68q0 -2 2 -2q114 170 336 170q186 0 287.5 -116t101.5 -326v-668h-250v555q0 170 -49 258t-170 88q-122 0 -183 -83.5t-61 -217.5v-600h-250v913q0 109 -2 164h240zM371 1235v225h229v-225h-229zM754 1235v225h227v-225h-227z" />
    <glyph glyph-name="Nmacron" horiz-adv-x="1562" 
d="M174 0v1464h320l487 -839q27 -47 85 -145t75 -128l2 2q0 35 -1 172t-1 215v723h248v-1464h-310l-471 803q-51 89 -112 192t-68 115h-2q0 -35 1 -219t1 -256v-635h-254zM516 1583v174h559v-174h-559z" />
    <glyph glyph-name="nmacron" horiz-adv-x="1239" 
d="M381 1077v-67q0 -45 -2 -68q0 -2 2 -2q114 170 336 170q186 0 287.5 -116t101.5 -326v-668h-250v555q0 170 -49 258t-170 88q-122 0 -183 -83.5t-61 -217.5v-600h-250v913q0 109 -2 164h240zM393 1266v174h559v-174h-559z" />
    <glyph glyph-name="Pmacron" horiz-adv-x="1267" 
d="M174 0v1464h434q150 0 228.5 -12.5t162.5 -56.5q96 -51 148.5 -147.5t52.5 -221.5q0 -118 -44.5 -213t-133.5 -154q-79 -52 -174.5 -68t-241.5 -16h-172v-575h-260zM434 1237v-436h219q131 0 210 54t79 169q0 213 -301 213h-207zM371 1583v174h559v-174h-559z" />
    <glyph glyph-name="pmacron" horiz-adv-x="1323" 
d="M379 1075v-69v-74q49 77 143 127.5t226 50.5q221 0 359 -158.5t138 -410.5q0 -163 -60.5 -291t-176 -201.5t-267.5 -73.5q-119 0 -210 48.5t-140 121.5h-2q4 -51 4 -211v-303h-250v1444h236zM690 905q-145 0 -227 -102t-82 -266q0 -155 87 -256t222 -101q138 0 218.5 103
t80.5 262q0 158 -80.5 259t-218.5 101zM440 1266v174h559v-174h-559z" />
    <glyph glyph-name="at.case" horiz-adv-x="1685" 
d="M1122 1102h183l-105 -592q-12 -70 49 -70q86 0 152.5 116.5t66.5 274.5q0 113 -41 211.5t-115 170.5t-184.5 113.5t-242.5 41.5q-189 0 -337.5 -85.5t-229 -233.5t-80.5 -330q0 -191 87 -337.5t238.5 -225t343.5 -78.5q142 0 249 40t206 118l119 -54q-245 -235 -586 -235
q-233 0 -416.5 97t-286 273.5t-102.5 401.5q0 161 59.5 304.5t163.5 247.5t253 165t319 61q151 0 284.5 -48.5t229 -132t150.5 -200.5t55 -250q0 -244 -125.5 -400.5t-313.5 -156.5q-128 0 -155 80q-31 -31 -91.5 -58.5t-146.5 -27.5q-149 0 -236 92t-87 256q0 123 48 228.5
t143.5 173t219.5 67.5q85 0 150 -31t98 -75zM879 963q-79 0 -136 -46.5t-82.5 -115.5t-25.5 -150q0 -91 47.5 -146.5t136.5 -55.5q81 0 139.5 47t84.5 115.5t26 148.5q0 203 -190 203z" />
    <glyph glyph-name="bar.case" horiz-adv-x="628" 
d="M199 -86v1624h231v-1624h-231z" />
    <glyph glyph-name="plus.case" 
d="M147 631v219h342v358h220v-358h344v-219h-344v-361h-220v361h-342z" />
    <glyph glyph-name="minus.case" 
d="M147 631v219h906v-219h-906z" />
    <glyph glyph-name="plusminus.case" 
d="M147 717v219h342v274h220v-274h344v-219h-344v-279h-220v279h-342zM1053 82h-906v219h906v-219z" />
    <glyph glyph-name="multiply.case" 
d="M289 281l-150 149l310 309l-310 310l150 149l309 -309l311 311l150 -149l-311 -312l311 -311l-150 -149l-311 311z" />
    <glyph glyph-name="divide.case" 
d="M147 631v219h906v-219h-906zM477 963v245h240v-245h-240zM477 270v246h240v-246h-240z" />
    <glyph glyph-name="equal.case" 
d="M147 473v215h906v-215h-906zM147 803v215h906v-215h-906z" />
    <glyph glyph-name="notequal.case" 
d="M147 803v215h471l103 211h223l-102 -211h211v-215h-316l-55 -115h371v-215h-475l-111 -227h-223l110 227h-207v215h312l55 115h-367z" />
    <glyph glyph-name="approxequal.case" 
d="M995 1032l140 -100q-62 -111 -132.5 -171.5t-166.5 -60.5q-26 0 -51.5 4t-57.5 15t-46.5 16.5t-54.5 23.5t-46 21l-54 23q-88 43 -147 43q-56 0 -99 -39.5t-69 -99.5l-139 102q58 108 136 175t171 67q38 0 83 -12t68.5 -22t87.5 -38l27 -12q7 -3 28 -13t29 -13.5
t25.5 -11t27.5 -10.5t24.5 -7t27 -5.5t24.5 -1.5q55 0 93 33t71 94zM991 520l139 -100q-62 -111 -132.5 -171.5t-166.5 -60.5q-26 0 -51.5 4t-57.5 15t-46.5 16.5t-54.5 23.5t-46 21l-53 23q-88 43 -147 43q-56 0 -99 -39.5t-69 -99.5l-139 102q58 108 136 175t171 67
q38 0 83 -12t68.5 -22t87.5 -38l27 -12q7 -3 28 -13t29 -13.5t25.5 -11t27.5 -10.5t24.5 -7t27 -5.5t24.5 -1.5q55 0 93 33t71 94z" />
    <glyph glyph-name="logicalnot.case" 
d="M66 819v219h1032v-676h-224v457h-808z" />
    <glyph glyph-name="parenleft.case" horiz-adv-x="700" 
d="M84 715q0 311 143.5 574t378.5 368v-236q-138 -138 -207 -309t-69 -395q0 -221 69 -392t207 -309v-235q-155 67 -275 213t-183.5 334.5t-63.5 386.5z" />
    <glyph glyph-name="parenright.case" horiz-adv-x="700" 
d="M616 715q0 -198 -63.5 -386.5t-183.5 -334.5t-275 -213v235q138 138 207.5 309t69.5 392q0 224 -69.5 395t-207.5 309v236q235 -105 378.5 -368t143.5 -574z" />
    <glyph glyph-name="hyphen.case" horiz-adv-x="823" 
d="M133 616v215h557v-215h-557z" />
    <glyph glyph-name="bracketleft.case" horiz-adv-x="755" 
d="M670 39v-168h-471v1696h471v-168h-232v-1360h232z" />
    <glyph glyph-name="bracketright.case" horiz-adv-x="753" 
d="M86 -129v168h231v1360h-231v168h469v-1696h-469z" />
    <glyph glyph-name="braceleft.case" horiz-adv-x="686" 
d="M82 676v84q52 16 77.5 35.5t40.5 63.5t15 124v334q0 149 59 203.5t228 54.5q8 0 25 -1t24 -1h24v-162q-74 -5 -100 -37t-26 -129v-213q0 -72 -3 -113.5t-10 -76.5t-23.5 -55t-39.5 -35t-62 -31v-4q48 -19 73.5 -37.5t41 -55t19.5 -83.5t4 -135v-216q0 -67 12 -101
t37.5 -47.5t76.5 -16.5v-162q-8 -2 -24 -2h-49q-169 0 -228 54.5t-59 203.5v334q0 80 -15 124t-40.5 63.5t-77.5 35.5z" />
    <glyph glyph-name="braceright.case" horiz-adv-x="686" 
d="M604 760v-84q-52 -16 -77.5 -35.5t-40.5 -63.5t-15 -124v-334q0 -149 -59 -203.5t-228 -54.5h-49q-16 0 -24 2v162q75 5 101 36.5t26 128.5v216q0 117 9 170t36.5 84.5t91.5 56.5v4q-64 25 -91.5 56t-36.5 84t-9 171v213q0 97 -26.5 129t-100.5 37v162h24q7 0 23 1t26 1
q169 0 228 -54.5t59 -203.5v-334q0 -80 15 -124t40.5 -63.5t77.5 -35.5z" />
    <glyph glyph-name="guillemotleft.case" horiz-adv-x="1079" 
d="M561 1092l-196 -383l196 -385h-254l-209 385l209 383h254zM967 1092l-187 -383l187 -385h-250l-209 385l209 383h250z" />
    <glyph glyph-name="guillemotright.case" horiz-adv-x="1079" 
d="M715 709l-197 383h254l209 -383l-209 -385h-254zM299 709l-186 383h249l209 -383l-209 -385h-249z" />
    <glyph glyph-name="endash.case" horiz-adv-x="1245" 
d="M135 637v211h975v-211h-975z" />
    <glyph glyph-name="emdash.case" horiz-adv-x="1992" 
d="M135 637v211h1723v-211h-1723z" />
    <glyph glyph-name="guilsinglleft.case" horiz-adv-x="669" 
d="M557 1092l-186 -383l186 -385h-250l-209 385l209 383h250z" />
    <glyph glyph-name="guilsinglright.case" horiz-adv-x="671" 
d="M307 709l-196 383h254l208 -383l-208 -385h-254z" />
    <glyph glyph-name="brokenbar.case" horiz-adv-x="518" 
d="M143 979v620h232v-620h-232zM143 -25v621h232v-621h-232z" />
    <glyph glyph-name="registered.alt" horiz-adv-x="1710" 
d="M561 289v882h307q156 0 234 -51q106 -73 106 -211q0 -205 -196 -262l217 -358h-205l-199 336h-86v-336h-178zM739 1018v-240h119q174 0 174 121q0 64 -44.5 91.5t-129.5 27.5h-119zM1626 737q0 -159 -60.5 -302t-164 -246t-247 -163.5t-302.5 -60.5q-157 0 -299.5 61
t-245 164t-163 246t-60.5 301q0 157 60 299.5t162.5 245.5t246 164t303.5 61q157 0 299.5 -61t245.5 -164t164 -245.5t61 -299.5zM1497 737q0 132 -51 252t-137 206.5t-204.5 137.5t-248.5 51q-176 0 -323.5 -86.5t-232.5 -235.5t-85 -325q0 -132 50.5 -252.5t136 -207.5
t204 -139t248.5 -52q174 0 322 87t234.5 237t86.5 327z" />
    <glyph glyph-name="less.case" 
d="M162 629v215q431 223 811 426v-256q-470 -219 -563 -266v-7q155 -78 563 -270v-262q-121 64 -256.5 134.5t-298 154t-256.5 131.5z" />
    <glyph glyph-name="greater.case" 
d="M1038 844v-215q-94 -48 -256.5 -131.5t-298 -154t-256.5 -134.5v262q425 201 564 270v7q-79 40 -564 266v256q380 -203 811 -426z" />
    <glyph glyph-name="lessequal.case" 
d="M184 717v186l811 367v-236q-446 -172 -542 -213v-6q18 -8 118.5 -47.5t219 -87.5t204.5 -84v-240q-136 62 -405.5 181t-405.5 180zM995 82h-811v219h811v-219z" />
    <glyph glyph-name="greaterequal.case" 
d="M1018 903v-186q-136 -61 -405.5 -180t-405.5 -181v240q86 36 205 84t219 87.5t119 47.5v6q-86 37 -543 213v236zM1018 82h-811v219h811v-219z" />
    <glyph glyph-name="infinity.case" horiz-adv-x="1705" 
d="M455 1110q44 0 88.5 -12.5t76.5 -27t81 -50t73.5 -55.5t83.5 -70q64 56 100.5 85.5t89.5 64.5t103 50t104 15q164 0 260.5 -101t96.5 -264q0 -69 -21 -131.5t-62.5 -114t-109.5 -82t-155 -30.5q-61 0 -118 18t-111.5 55.5t-90.5 68.5t-90 83q-115 -105 -164 -140
q-121 -85 -244 -85q-87 0 -155 30.5t-109.5 82t-62.5 114t-21 131.5q0 163 96.5 264t260.5 101zM1249 602q69 0 108.5 40.5t39.5 109.5q0 63 -39.5 105t-104.5 42q-59 0 -124.5 -40t-147.5 -111q12 -9 43 -34.5t44 -36t40 -28.5t45.5 -26t44 -14.5t51.5 -6.5zM461 602
q26 0 51.5 6.5t44 14.5t45.5 26t40 28.5t44 36t43 34.5q-82 71 -147.5 111t-124.5 40q-65 0 -104.5 -42t-39.5 -105q0 -69 39.5 -109.5t108.5 -40.5z" />
    <glyph glyph-name="uni00AD.case" horiz-adv-x="823" 
d="M133 616v215h557v-215h-557z" />
    <glyph glyph-name="zero.posf" horiz-adv-x="1249" 
d="M625 1464q124 0 217 -42t149 -110.5t90.5 -168.5t47 -202t12.5 -226q0 -133 -13.5 -239.5t-49 -203.5t-92.5 -162t-148.5 -103t-212.5 -38t-212.5 38t-148.5 103t-92.5 162t-49 203.5t-13.5 239.5q0 124 12.5 226t47 202t90.5 168.5t149 110.5t217 42zM625 1241
q-50 0 -89.5 -19t-66 -55.5t-44 -82t-27 -108t-13.5 -124t-4 -137.5q0 -97 6.5 -173t23 -145t43.5 -114.5t70 -72t101 -26.5t101.5 26.5t70 72t43 114.5t22.5 145t6 173q0 76 -4 137.5t-13 124t-27 108t-44 82.5t-65.5 55.5t-89.5 18.5z" />
    <glyph glyph-name="one.posf" horiz-adv-x="872" 
d="M414 0v1026h-353v191q193 5 278 53t105 166h226v-1436h-256z" />
    <glyph glyph-name="two.posf" horiz-adv-x="1181" 
d="M1069 0h-958v209l151 135l283 254q141 129 202.5 225t61.5 195q0 103 -60 164t-165 61q-118 0 -178 -72.5t-62 -193.5h-244q0 3 -1 6t-1 6q0 98 32 184t92 151t153.5 102.5t208.5 37.5q223 0 354 -123.5t131 -316.5q0 -87 -32.5 -173.5t-79.5 -152.5t-120.5 -140
t-133.5 -123.5t-141.5 -115.5t-123.5 -104h631v-215z" />
    <glyph glyph-name="three.posf" horiz-adv-x="1183" 
d="M74 414h250q12 -108 77 -169t183 -61q113 0 181.5 71t68.5 177q0 123 -82.5 184.5t-216.5 61.5h-58v201q289 0 289 200q-1 87 -53.5 131.5t-134.5 44.5q-81 0 -134 -46.5t-63 -131.5h-236q5 170 124.5 278.5t314.5 108.5q197 0 315.5 -104.5t118.5 -272.5
q0 -96 -52.5 -171.5t-144.5 -124.5q130 -41 200.5 -137t70.5 -230q0 -201 -139.5 -326t-374.5 -125q-223 0 -357.5 124t-146.5 317z" />
    <glyph glyph-name="four.posf" horiz-adv-x="1228" 
d="M1145 504v-211h-193v-293h-231v293h-664v196l439 619q37 55 92 134.5t94 135.5t41 58h229v-932h193zM725 1114h-4q-92 -155 -160 -250l-96 -139l-103 -147q-33 -46 -51 -74h410v354q0 120 4 256z" />
    <glyph glyph-name="five.posf" horiz-adv-x="1173" 
d="M129 659q19 154 49.5 424t40.5 353h774v-222h-573q-8 -41 -16 -118t-11 -99l-16 -114q112 73 254 73q207 0 336 -133t129 -348q0 -143 -64 -258t-181.5 -181.5t-268.5 -66.5q-213 0 -350 118t-158 306h252q18 -97 80.5 -155t168.5 -58q126 0 196.5 79.5t70.5 207.5
q0 120 -72 200.5t-192 80.5q-149 0 -220 -123q-148 26 -229 34z" />
    <glyph glyph-name="six.posf" horiz-adv-x="1243" 
d="M1124 1067h-252q-13 77 -70 130.5t-153 53.5q-76 0 -133.5 -34.5t-92.5 -96t-53 -139t-20 -170.5h4q123 127 328 127q208 0 335.5 -130t127.5 -345q0 -216 -142 -354t-368 -138q-266 0 -399.5 176.5t-133.5 511.5q0 389 137.5 597t411.5 208q203 0 325 -108.5t148 -288.5
zM631 735q-111 0 -185.5 -75.5t-74.5 -192.5q0 -122 73 -197t189 -75q110 0 184 76.5t74 191.5q0 117 -74.5 194.5t-185.5 77.5z" />
    <glyph glyph-name="seven.posf" horiz-adv-x="1028" 
d="M451 0h-281q97 246 307 705q12 26 57 122.5t65.5 139t56.5 114t67 127.5v2q-39 -2 -113 -2h-538v228h917v-209v-4l-49 -101q-281 -573 -489 -1122z" />
    <glyph glyph-name="eight.posf" horiz-adv-x="1218" 
d="M348 776q-192 118 -192 314q0 158 124 266t328 108t328.5 -108.5t124.5 -268.5q0 -204 -193 -311q123 -55 189.5 -151t66.5 -224q0 -194 -144 -314t-372 -120t-371 120t-143 314q0 128 66 224.5t188 150.5zM608 666q-116 0 -186 -67.5t-70 -178.5q0 -106 69 -175t187 -69
q115 0 184.5 69t69.5 175q0 111 -69 178.5t-185 67.5zM608 1249q-96 0 -152.5 -53.5t-56.5 -134.5q0 -82 57 -138.5t152 -56.5t152 56.5t57 138.5q0 81 -56.5 134.5t-152.5 53.5z" />
    <glyph glyph-name="nine.posf" horiz-adv-x="1243" 
d="M115 367h256q11 -78 69.5 -130.5t155.5 -52.5q276 0 295 451h-4q-45 -55 -129.5 -94t-204.5 -39q-201 0 -328 132t-127 339q0 215 141 353t367 138q265 0 400 -178t135 -512q0 -389 -136.5 -597t-410.5 -208q-204 0 -328.5 109t-150.5 289zM610 1245q-111 0 -184.5 -75.5
t-73.5 -190.5q0 -117 73.5 -193.5t186.5 -76.5q111 0 184.5 74t73.5 190q0 122 -72 197t-188 75z" />
    <glyph glyph-name="zero.slash" 
d="M600 1495q124 0 217.5 -43.5t150 -113.5t91.5 -172.5t48 -206.5t13 -230q0 -136 -14 -245t-50 -207.5t-94 -164.5t-149.5 -104.5t-212.5 -38.5t-212.5 38.5t-149.5 104.5t-94 164.5t-50 207.5t-14 245q0 126 13 230t48 206.5t91.5 172.5t150 113.5t217.5 43.5zM842 729
q0 185 -23 297l-293 -825q37 -13 74 -13q72 0 120.5 39t74.5 115.5t36.5 168.5t10.5 218zM600 1268q-50 0 -89.5 -19.5t-65.5 -57t-43.5 -84.5t-27 -111t-13 -126.5t-3.5 -140.5q0 -167 21 -293l293 819q-33 13 -72 13z" />
    <glyph glyph-name="zero.sub" horiz-adv-x="944" 
d="M471 -102q53 0 88.5 29t54 86t26 124.5t7.5 161.5q0 69 -3.5 121.5t-14.5 107t-29.5 89.5t-51 57t-77.5 22q-44 0 -76.5 -22t-51 -57t-29 -89.5t-14 -107t-3.5 -121.5q0 -93 7.5 -161t26 -125t54 -86t86.5 -29zM471 872q395 0 395 -575q0 -101 -10.5 -182t-38 -155.5
t-71 -124t-113.5 -78.5t-162 -29t-161 29t-112.5 78.5t-71 124t-38 155.5t-10.5 182q0 575 393 575z" />
    <glyph glyph-name="one.sub" horiz-adv-x="659" 
d="M309 528h-264v154q143 2 206.5 38.5t76.5 127.5h180v-1100h-199v780z" />
    <glyph glyph-name="two.sub" horiz-adv-x="882" 
d="M82 -252v168q199 169 326 291q104 104 148 173.5t44 143.5q0 76 -43.5 123t-120.5 47q-87 0 -129.5 -55t-44.5 -147h-188q-2 10 -2 26q0 152 98 251t266 99t266.5 -95t98.5 -243q0 -66 -23.5 -131t-67.5 -123.5t-87 -103.5t-101 -96q-92 -80 -188 -158h467v-170h-719z
" />
    <glyph glyph-name="three.sub" horiz-adv-x="884" 
d="M352 254v156q100 0 155.5 32.5t55.5 112.5q0 64 -38.5 98.5t-96.5 34.5q-56 0 -94.5 -35t-44.5 -96h-183q5 129 94 212t232 83q151 0 238.5 -78.5t87.5 -208.5q0 -147 -142 -223q98 -32 148.5 -105t50.5 -178q0 -155 -104.5 -249.5t-282.5 -94.5q-167 0 -265.5 93.5
t-111.5 242.5h193q8 -75 59.5 -122.5t128.5 -47.5q84 0 134 53.5t50 131.5q0 95 -61 141.5t-160 46.5h-43z" />
    <glyph glyph-name="four.sub" horiz-adv-x="921" 
d="M537 -31h-494v156l330 471q45 68 108 160l62 92h174v-711h141v-168h-141v-221h-180v221zM537 137v266q0 83 4 181q-74 -113 -115 -181q-32 -48 -111 -159l-73 -107h295z" />
    <glyph glyph-name="five.sub" horiz-adv-x="880" 
d="M246 43l2 -2q14 -70 61 -114t123 -44q90 0 142.5 60t52.5 155q0 90 -52 150.5t-141 60.5q-102 0 -160 -92l-75 12l-103 19q30 237 70 592h577v-176h-421l-31 -240q76 49 180 49q158 0 255 -101.5t97 -267.5q0 -168 -107 -277.5t-282 -109.5q-159 0 -261 90.5t-120 235.5
h193z" />
    <glyph glyph-name="six.sub" horiz-adv-x="935" 
d="M848 561h-195q-8 59 -50.5 100t-113.5 41q-201 0 -210 -323q92 88 237 88q157 0 252.5 -100.5t95.5 -264.5q0 -165 -107 -269.5t-278 -104.5q-200 0 -301.5 133t-101.5 391q0 299 103.5 458.5t309.5 159.5q155 0 248 -84.5t111 -224.5zM477 -96q82 0 136.5 56t54.5 142
q0 88 -54.5 146.5t-136.5 58.5q-81 0 -134.5 -56t-53.5 -145q0 -91 53.5 -146.5t134.5 -55.5z" />
    <glyph glyph-name="seven.sub" horiz-adv-x="770" 
d="M336 -252h-217q152 381 411 918h-477v182h686v-166q-183 -379 -403 -934z" />
    <glyph glyph-name="eight.sub" horiz-adv-x="901" 
d="M451 860q150 0 239.5 -82.5t89.5 -206.5q0 -142 -129 -235q89 -42 136 -115t47 -172q0 -151 -107 -242.5t-276 -91.5q-170 0 -275.5 91.5t-105.5 242.5q0 97 47.5 171t134.5 116q-129 93 -129 235q0 123 89.5 206t238.5 83zM451 690q-67 0 -107.5 -41t-40.5 -100
q0 -61 41 -102t107 -41q67 0 107 40.5t40 102.5q0 59 -40 100t-107 41zM451 248q-84 0 -134.5 -51.5t-50.5 -133.5q0 -80 50 -131t135 -51t134.5 51t49.5 131q0 83 -50 134t-134 51z" />
    <glyph glyph-name="nine.sub" horiz-adv-x="937" 
d="M86 33h197q12 -57 54 -96t112 -39q194 0 206 325q-88 -92 -241 -92t-247.5 101t-94.5 260q0 165 107 271.5t276 106.5q201 0 304 -135t103 -391q0 -300 -104.5 -458t-311.5 -158q-154 0 -248 83t-112 222zM457 696q-80 0 -134.5 -56t-54.5 -142q0 -87 54.5 -145
t134.5 -58q83 0 136.5 54.5t53.5 144.5q0 91 -53.5 146.5t-136.5 55.5z" />
    <glyph glyph-name="zero.sup" horiz-adv-x="940" 
d="M469 768q53 0 88.5 29t54 86t26 124.5t7.5 161.5q0 88 -6 151t-23.5 123.5t-54.5 92t-92 31.5t-91 -31.5t-53.5 -91.5t-23.5 -123.5t-6 -151.5q0 -93 7.5 -161t26 -125t54 -86t86.5 -29zM469 1743q395 0 395 -576q0 -101 -10.5 -182t-38 -155.5t-71 -124t-113.5 -78.5
t-162 -29t-161 29t-112.5 78.5t-71 124t-38 155.5t-10.5 182q0 576 393 576z" />
    <glyph glyph-name="one.sup" horiz-adv-x="657" 
d="M307 1399h-264v153q143 2 206.5 38.5t76.5 127.5h180v-1100h-199v781z" />
    <glyph glyph-name="two.sup" horiz-adv-x="880" 
d="M80 618v168q199 169 326 291q104 104 148 173.5t44 144.5q0 76 -43.5 123t-120.5 47q-86 0 -129 -55.5t-45 -147.5h-188q-2 10 -2 27q0 152 98 251t266 99t266.5 -95t98.5 -243q0 -66 -23.5 -131t-67.5 -124t-87 -104t-101 -96q-91 -80 -188 -158h467v-170h-719z" />
    <glyph glyph-name="three.sup" horiz-adv-x="882" 
d="M352 1124v156q100 0 155.5 32.5t55.5 112.5q0 64 -38.5 99t-96.5 35q-56 0 -94.5 -35.5t-44.5 -96.5h-183q5 129 94 212t232 83q151 0 238.5 -78t87.5 -208q0 -148 -142 -224q98 -32 148.5 -104.5t50.5 -177.5q0 -155 -104.5 -249.5t-282.5 -94.5q-167 0 -265.5 93.5
t-111.5 242.5h193q8 -75 59.5 -122.5t128.5 -47.5q84 0 134 53t50 131q0 95 -61 141.5t-160 46.5h-43z" />
    <glyph glyph-name="four.sup" horiz-adv-x="919" 
d="M535 840h-494v155l330 471q45 68 108 160l62 92h174v-710h141v-168h-141v-222h-180v222zM535 1008v266q0 82 4 180q-80 -121 -115 -180q-41 -62 -111 -160l-73 -106h295z" />
    <glyph glyph-name="five.sup" horiz-adv-x="878" 
d="M246 913l2 -2q14 -70 61 -113.5t123 -43.5q90 0 142.5 60t52.5 155q0 90 -52 150.5t-141 60.5q-101 0 -160 -93l-75 13l-103 18q30 237 70 592h577v-176h-421l-31 -240q76 49 180 49q158 0 255 -101t97 -267q0 -168 -107 -277.5t-282 -109.5q-159 0 -261 90.5t-120 234.5
h193z" />
    <glyph glyph-name="six.sup" horiz-adv-x="933" 
d="M846 1432h-195q-8 59 -50.5 100t-113.5 41q-202 0 -211 -324q92 88 238 88q157 0 252.5 -100t95.5 -264q0 -165 -107 -270t-278 -105q-200 0 -301.5 133t-101.5 391q0 299 103.5 459t309.5 160q155 0 248 -84.5t111 -224.5zM475 774q82 0 136.5 56.5t54.5 142.5
q0 88 -54.5 146.5t-136.5 58.5q-81 0 -134.5 -56t-53.5 -145q0 -91 53.5 -147t134.5 -56z" />
    <glyph glyph-name="seven.sup" horiz-adv-x="768" 
d="M334 618h-217q152 381 411 918h-477v182h686v-166q-183 -379 -403 -934z" />
    <glyph glyph-name="eight.sup" horiz-adv-x="899" 
d="M449 1731q150 0 239.5 -82.5t89.5 -206.5q0 -143 -129 -236q182 -86 182 -286q0 -151 -106.5 -242.5t-275.5 -91.5q-170 0 -275.5 91.5t-105.5 242.5q0 97 47.5 170.5t134.5 115.5q-129 93 -129 236q0 123 89.5 206t238.5 83zM449 1561q-67 0 -107.5 -41.5t-40.5 -100.5
q0 -61 41 -102t107 -41q67 0 107 40.5t40 102.5q0 59 -40 100.5t-107 41.5zM449 1118q-84 0 -134.5 -51t-50.5 -133q0 -80 50 -131t135 -51t134.5 51t49.5 131q0 82 -50 133t-134 51z" />
    <glyph glyph-name="nine.sup" horiz-adv-x="935" 
d="M86 903h197q12 -57 54 -96t112 -39q194 0 206 326q-88 -93 -241 -93t-247.5 101t-94.5 260q0 165 107 272t276 107q201 0 304 -135.5t103 -391.5q0 -300 -104.5 -458t-311.5 -158q-154 0 -248 83t-112 222zM457 1567q-80 0 -134.5 -56.5t-54.5 -142.5q0 -87 54.5 -145
t134.5 -58q83 0 136.5 54.5t53.5 144.5q0 91 -53.5 147t-136.5 56z" />
    <glyph glyph-name="a.sup" horiz-adv-x="854" 
d="M270 1174h-192q13 117 105.5 196.5t246.5 79.5q171 0 254.5 -83.5t83.5 -276.5v-64q0 -20 -1 -57t-1 -51v-46q0 -144 10 -254h-176l-6 91q-98 -105 -256 -105q-128 0 -208.5 63.5t-80.5 176.5q0 236 494 276q3 0 11.5 1t12.5 1q11 0 15 2q-6 174 -156 174
q-139 0 -156 -124zM553 985q-162 -19 -230.5 -46t-68.5 -89q0 -52 37 -77t100 -25q186 0 189 241q-16 -4 -27 -4z" />
    <glyph glyph-name="b.sup" horiz-adv-x="985" 
d="M94 618v1100h195v-243q0 -91 -2 -146q39 52 106 85.5t154 33.5q172 0 275.5 -120t103.5 -304q0 -190 -104.5 -307t-270.5 -117q-97 0 -166 35t-109 88v-105h-182zM506 1286q-99 0 -163 -73t-64 -187q0 -119 61.5 -193.5t165.5 -74.5q102 0 162.5 73.5t60.5 188.5
t-60.5 190.5t-162.5 75.5z" />
    <glyph glyph-name="c.sup" horiz-adv-x="894" 
d="M662 872h190q-34 -125 -133.5 -203.5t-247.5 -78.5q-189 0 -301.5 121t-112.5 309q0 187 114.5 306.5t301.5 119.5q154 0 251 -80.5t128 -214.5h-201q-54 135 -182 135q-97 0 -156 -73.5t-59 -190.5q0 -124 61 -198t166 -74q62 0 109.5 33t71.5 89z" />
    <glyph glyph-name="d.sup" horiz-adv-x="985" 
d="M891 1718v-1100h-182v105q-40 -53 -109 -88t-166 -35q-166 0 -270.5 117t-104.5 307q0 183 104.5 303.5t274.5 120.5q88 0 155.5 -33.5t106.5 -85.5q-2 49 -2 146v243h193zM477 1286q-102 0 -160.5 -75t-58.5 -191q0 -115 58.5 -188.5t160.5 -73.5q108 0 170 74t62 194
q0 115 -65.5 187.5t-166.5 72.5z" />
    <glyph glyph-name="e.sup" horiz-adv-x="913" 
d="M862 963h-307q-53 0 -151 1t-148 1q14 -95 73.5 -156t145.5 -61q128 0 184 96h193q-39 -113 -139 -184.5t-242 -71.5q-188 0 -301 117.5t-113 308.5q0 186 114.5 307t297.5 121q189 0 293 -122.5t104 -309.5q0 -27 -2 -37q0 -1 -1 -5t-1 -5zM469 1290q-86 0 -142 -49
t-69 -139h414q-12 87 -65.5 137.5t-137.5 50.5zM672 1100l2 2h-2v-2z" />
    <glyph glyph-name="f.sup" horiz-adv-x="503" 
d="M473 1722v-155q-28 4 -35 4q-94 0 -94 -90v-56h129v-147h-129v-660h-192v660h-105v147h105v50q0 114 70 184t190 70q26 0 61 -7z" />
    <glyph glyph-name="g.sup" horiz-adv-x="991" 
d="M475 481q243 0 240 295q-36 -53 -107 -90t-168 -37q-176 0 -277.5 108.5t-101.5 284.5q0 179 105 289.5t270 110.5q97 0 167.5 -34t109.5 -87v98h184v-669q0 -200 -111 -316.5t-311 -116.5q-150 0 -252 74.5t-135 196.5h205q49 -107 182 -107zM485 805q100 0 164 64.5
t64 179.5q0 105 -62 170t-166 65t-165.5 -65.5t-61.5 -174.5q0 -106 61.5 -172.5t165.5 -66.5z" />
    <glyph glyph-name="h.sup" horiz-adv-x="903" 
d="M94 1718h191v-291q0 -15 -1 -46t-1 -48q85 115 241 115q140 0 216.5 -87.5t76.5 -242.5v-500h-192v406q0 127 -36.5 192.5t-125.5 65.5q-87 0 -131.5 -61t-44.5 -160v-443h-193v1100z" />
    <glyph glyph-name="i.sup" horiz-adv-x="382" 
d="M94 618v807h195v-807h-195zM92 1538v180h199v-180h-199z" />
    <glyph glyph-name="j.sup" horiz-adv-x="380" 
d="M287 1425v-839q0 -81 -10 -129t-38.5 -81.5t-78 -46t-131.5 -12.5q-57 0 -84 7v141q77 -6 113 14.5t36 83.5v862h193zM291 1718v-180h-201v180h201z" />
    <glyph glyph-name="k.sup" horiz-adv-x="825" 
d="M846 618h-254q-62 74 -189 240l-116 150v-390h-193v1100h193v-637l284 344h236l-219 -243q-97 -108 -115 -125q12 -18 44 -56t96.5 -112.5t91.5 -106.5z" />
    <glyph glyph-name="l.sup" horiz-adv-x="382" 
d="M94 618v1100h195v-1100h-195z" />
    <glyph glyph-name="m.sup" horiz-adv-x="1404" 
d="M94 618v807h185v-98q79 121 239 121q163 0 240 -133q95 133 272 133q139 0 214 -87t75 -243v-500h-193v424q0 122 -35.5 182t-115.5 60q-83 0 -127.5 -57.5t-44.5 -147.5v-461h-193v424q0 122 -35.5 182t-115.5 60q-86 0 -128 -61.5t-42 -161.5v-443h-195z" />
    <glyph glyph-name="n.sup" horiz-adv-x="903" 
d="M94 618v682q0 84 -2 125h184v-98q90 121 248 121q140 0 216.5 -87.5t76.5 -242.5v-500h-192v406q0 127 -36.5 193.5t-125.5 66.5q-87 0 -131.5 -62t-44.5 -161v-443h-193z" />
    <glyph glyph-name="o.sup" horiz-adv-x="960" 
d="M475 748q104 0 164.5 71.5t60.5 194.5q0 118 -61 193t-164 75q-101 0 -161 -74.5t-60 -193.5q0 -124 58.5 -195t162.5 -71zM475 586q-192 0 -305 118t-113 308q0 192 115.5 311t306.5 119q190 0 307 -119.5t117 -310.5q0 -190 -116 -308t-312 -118z" />
    <glyph glyph-name="p.sup" horiz-adv-x="985" 
d="M94 332v1083h182v-100q40 53 109 88t166 35q166 0 270.5 -117t104.5 -307q0 -186 -103.5 -305t-275.5 -119q-87 0 -154 33.5t-106 85.5q2 -49 2 -146v-231h-195zM506 750q102 0 162.5 76t60.5 190q0 117 -60 190.5t-163 73.5q-104 0 -165.5 -75.5t-61.5 -194.5
q0 -114 64 -187t163 -73z" />
    <glyph glyph-name="q.sup" horiz-adv-x="985" 
d="M891 1415v-1083h-193v231q0 91 2 146q-39 -52 -106.5 -85.5t-155.5 -33.5q-171 0 -275 119t-104 305q0 190 104.5 307t270.5 117q97 0 166 -35t109 -88v100h182zM477 750q101 0 166.5 72.5t65.5 187.5q0 120 -62 195t-170 75q-102 0 -160.5 -73t-58.5 -191
q0 -114 59.5 -190t159.5 -76z" />
    <glyph glyph-name="r.sup" horiz-adv-x="528" 
d="M506 1440v-180q-28 4 -53 4q-98 0 -132 -65.5t-34 -199.5v-381h-193v662q0 96 -2 145h182v-92q23 54 72 82.5t115 28.5q25 0 45 -4z" />
    <glyph glyph-name="s.sup" horiz-adv-x="770" 
d="M45 872h180q34 -124 174 -124q59 0 96 24.5t37 67.5q0 16 -7 28.5t-15.5 20.5t-30.5 17t-34.5 13t-45.5 13l-90 24q-54 15 -92 32.5t-73 45.5t-52.5 69t-17.5 95q0 110 87 178t224 68q133 0 219 -66.5t96 -185.5h-170q-35 96 -149 96q-60 0 -91.5 -21t-31.5 -57
q0 -35 27.5 -52.5t95.5 -37.5l86 -24q126 -34 187 -89t61 -153q0 -119 -89 -191.5t-231 -72.5q-303 0 -350 282z" />
    <glyph glyph-name="t.sup" horiz-adv-x="540" 
d="M150 1270h-121v147h121v217h192v-217h145v-147h-145v-436q0 -53 23.5 -75t70.5 -22q29 0 35 2l-4 -143q-36 -4 -57 -4q-127 0 -193.5 47t-66.5 160v471z" />
    <glyph glyph-name="u.sup" horiz-adv-x="901" 
d="M612 1423h195v-805h-182v111q-83 -135 -246 -135q-140 0 -216.5 88t-76.5 264v477h193v-424q0 -239 161 -239q53 0 88.5 21t53 59t24 78t6.5 92v413z" />
    <glyph glyph-name="v.sup" horiz-adv-x="808" 
d="M317 618l-2 3q-77 193 -153 399l-154 403h209l105 -313l34 -98l54 -158l53 166l37 108l98 295h205l-309 -805h-177z" />
    <glyph glyph-name="w.sup" horiz-adv-x="1208" 
d="M276 618l-2 3q-48 137 -149 460q-17 52 -52.5 166.5t-56.5 175.5h197l92 -313q27 -93 45 -168l27 -96q8 32 21 87.5t20 82.5q21 103 28 127l68 280h180l80 -313l70 -266l35 133q9 40 41 151l84 295h188l-258 -805h-197q-32 100 -137 498q-16 -59 -62.5 -240t-68.5 -258
h-193z" />
    <glyph glyph-name="x.sup" horiz-adv-x="790" 
d="M-2 618l-2 5l289 407l-262 393h221l75 -118l78 -123q13 20 30 49t30.5 50.5t27.5 39.5l66 102h217l-133 -196l-129 -193q110 -153 192 -276l101 -140h-226l-98 150l-80 125l-86 -133q-18 -26 -48.5 -74.5t-43.5 -67.5h-219z" />
    <glyph glyph-name="y.sup" horiz-adv-x="815" 
d="M379 340h-193l123 307q-118 308 -303 776h213q28 -76 65.5 -190.5t43.5 -130.5l82 -242q17 43 106 311q12 40 41.5 126t42.5 126h209q-134 -340 -152 -387q-23 -57 -86.5 -219t-99.5 -250q-70 -171 -92 -227z" />
    <glyph glyph-name="z.sup" horiz-adv-x="763" 
d="M57 618v144l318 399l57 74l33 39q-55 -2 -184 -2h-211v151h620v-145l-297 -379q-3 -5 -11 -15.5t-11 -15.5l-82 -100h90q19 0 56 1t57 1h217v-152h-652z" />
    <glyph glyph-name="a.sub" horiz-adv-x="854" 
d="M270 303h-192q13 117 105.5 197t246.5 80q171 0 254.5 -84t83.5 -277v-63q0 -20 -1 -57t-1 -52v-45q0 -144 10 -254h-176l-6 90q-97 -104 -256 -104q-128 0 -208.5 63t-80.5 176q0 237 494 277q3 0 11.5 1t12.5 1q11 0 15 2q-6 174 -156 174q-71 0 -109.5 -33.5
t-46.5 -91.5zM553 115q-162 -19 -230.5 -46t-68.5 -89q0 -52 37 -77.5t100 -25.5q186 0 189 242q-16 -4 -27 -4z" />
    <glyph glyph-name="b.sub" horiz-adv-x="985" 
d="M94 -252v1100h195v-244q0 -90 -2 -145q39 52 106 85.5t154 33.5q172 0 275.5 -120t103.5 -304q0 -190 -104.5 -307t-270.5 -117q-97 0 -166 35t-109 88v-105h-182zM506 416q-99 0 -163 -73t-64 -187q0 -119 61.5 -194t165.5 -75q102 0 162.5 74t60.5 189t-60.5 190.5
t-162.5 75.5z" />
    <glyph glyph-name="c.sub" horiz-adv-x="901" 
d="M664 2h190q-34 -125 -133.5 -204t-247.5 -79q-189 0 -301.5 121.5t-112.5 309.5q0 187 114.5 306t301.5 119q154 0 251 -80.5t128 -213.5h-201q-54 135 -182 135q-97 0 -156 -73.5t-59 -190.5q0 -124 61 -198.5t166 -74.5q62 0 109.5 33t71.5 90z" />
    <glyph glyph-name="d.sub" horiz-adv-x="985" 
d="M891 848v-1100h-182v105q-40 -53 -109 -88t-166 -35q-166 0 -270.5 117t-104.5 307q0 183 104.5 303.5t274.5 120.5q88 0 155.5 -33.5t106.5 -85.5q-2 49 -2 145v244h193zM477 416q-102 0 -160.5 -75t-58.5 -191t58.5 -189.5t160.5 -73.5q108 0 170 74.5t62 194.5
q0 115 -65.5 187.5t-166.5 72.5z" />
    <glyph glyph-name="e.sub" horiz-adv-x="917" 
d="M864 92h-307q-53 0 -151 1t-148 1q14 -95 73.5 -156t145.5 -61q129 0 185 96h192q-39 -113 -139 -184.5t-242 -71.5q-188 0 -301 117.5t-113 308.5q0 186 114.5 307t297.5 121q189 0 293 -122.5t104 -309.5q0 -27 -2 -37q0 -1 -1 -5t-1 -5zM471 420q-86 0 -142 -49.5
t-69 -139.5h414q-12 87 -65.5 138t-137.5 51zM674 229l2 2h-2v-2z" />
    <glyph glyph-name="f.sub" horiz-adv-x="501" 
d="M473 852v-156q-28 4 -35 4q-94 0 -94 -90v-55h129v-147h-129v-660h-192v660h-105v147h105v49q0 114 70 184t190 70q31 0 61 -6z" />
    <glyph glyph-name="g.sub" horiz-adv-x="991" 
d="M475 -389q243 0 240 295q-36 -53 -107 -90t-168 -37q-176 0 -277.5 108.5t-101.5 284.5q0 179 105 289t270 110q97 0 167.5 -34t109.5 -86v98h184v-670q0 -200 -111 -316t-311 -116q-150 0 -252 74t-135 196h205q49 -106 182 -106zM485 -66q100 0 164 64.5t64 179.5
q0 105 -62.5 170.5t-165.5 65.5q-104 0 -165.5 -65.5t-61.5 -174.5q0 -106 61.5 -173t165.5 -67z" />
    <glyph glyph-name="h.sub" horiz-adv-x="903" 
d="M94 848h191v-291q0 -15 -1 -46t-1 -48q85 115 241 115q140 0 216.5 -87.5t76.5 -242.5v-500h-192v406q0 127 -36.5 192.5t-125.5 65.5q-87 0 -131.5 -61.5t-44.5 -160.5v-442h-193v1100z" />
    <glyph glyph-name="i.sub" horiz-adv-x="382" 
d="M94 -252v807h195v-807h-195zM92 668v180h199v-180h-199z" />
    <glyph glyph-name="j.sub" horiz-adv-x="380" 
d="M287 555v-840q0 -81 -10 -129t-38.5 -81t-78 -45.5t-131.5 -12.5q-61 0 -84 6v141q76 -6 112.5 15t36.5 84v862h193zM291 848v-180h-201v180h201z" />
    <glyph glyph-name="k.sub" horiz-adv-x="827" 
d="M846 -252h-254q-62 74 -189 240l-116 149v-389h-193v1100h193v-637l284 344h236l-219 -244q-97 -107 -115 -125q12 -18 45 -57t94.5 -109.5t92.5 -107.5z" />
    <glyph glyph-name="l.sub" horiz-adv-x="382" 
d="M94 -252v1100h195v-1100h-195z" />
    <glyph glyph-name="m.sub" horiz-adv-x="1404" 
d="M94 -252v807h185v-98q79 121 239 121q162 0 240 -134q95 134 272 134q139 0 214 -87t75 -243v-500h-193v424q0 122 -35.5 182t-115.5 60q-83 0 -127.5 -57.5t-44.5 -147.5v-461h-193v424q0 122 -35.5 182t-115.5 60q-86 0 -128 -62t-42 -162v-442h-195z" />
    <glyph glyph-name="n.sub" horiz-adv-x="903" 
d="M94 -252v682q0 84 -2 125h184v-98q90 121 248 121q140 0 216.5 -87.5t76.5 -242.5v-500h-192v406q0 127 -36.5 193.5t-125.5 66.5q-87 0 -131.5 -62.5t-44.5 -161.5v-442h-193z" />
    <glyph glyph-name="o.sub" horiz-adv-x="960" 
d="M475 -123q104 0 164.5 71.5t60.5 194.5q0 118 -61.5 193.5t-163.5 75.5q-101 0 -161 -75t-60 -194q0 -124 58.5 -195t162.5 -71zM475 -285q-192 0 -305 118t-113 308q0 192 115.5 311t306.5 119q190 0 307 -119.5t117 -310.5q0 -190 -116 -308t-312 -118z" />
    <glyph glyph-name="p.sub" horiz-adv-x="985" 
d="M94 -539v1084h182v-101q40 53 109 88t166 35q166 0 270.5 -117t104.5 -307q0 -186 -103.5 -305t-275.5 -119q-87 0 -154 33.5t-106 85.5q2 -49 2 -145v-232h-195zM506 -121q102 0 162.5 76t60.5 190q0 118 -60 191.5t-163 73.5q-104 0 -165.5 -76t-61.5 -195
q0 -114 64 -187t163 -73z" />
    <glyph glyph-name="q.sub" horiz-adv-x="985" 
d="M891 545v-1084h-193v232q0 90 2 145q-39 -52 -106.5 -85.5t-155.5 -33.5q-171 0 -275 119t-104 305q0 190 104.5 307t270.5 117q97 0 166 -35t109 -88v101h182zM477 -121q101 0 166.5 72.5t65.5 187.5q0 120 -62 195.5t-170 75.5q-102 0 -160.5 -73.5t-58.5 -191.5
q0 -114 59.5 -190t159.5 -76z" />
    <glyph glyph-name="r.sub" horiz-adv-x="526" 
d="M506 569v-180q-28 4 -53 4q-51 0 -85 -18t-51 -55t-23.5 -81.5t-6.5 -109.5v-381h-193v662q0 96 -2 145h182v-92q23 54 71.5 82t115.5 28q25 0 45 -4z" />
    <glyph glyph-name="s.sub" horiz-adv-x="770" 
d="M45 2h180q34 -125 174 -125q59 0 96 24.5t37 67.5q0 16 -7 28.5t-15.5 20.5t-30.5 17t-34.5 13t-45.5 13l-90 25q-54 15 -92 32.5t-73 45.5t-52.5 69t-17.5 95q0 110 87 177.5t224 67.5q133 0 219 -66t96 -185h-170q-35 96 -149 96q-60 0 -91.5 -21t-31.5 -57
q0 -35 27.5 -52.5t95.5 -37.5l86 -25q126 -34 187 -88.5t61 -152.5q0 -119 -89 -192t-231 -73q-303 0 -350 283z" />
    <glyph glyph-name="t.sub" horiz-adv-x="536" 
d="M147 399h-120v148h120v217h193v-217h145v-148h-145v-436q0 -53 23.5 -74.5t70.5 -21.5q29 0 35 2l-4 -143q-45 -5 -57 -5q-127 0 -194 47t-67 160v471z" />
    <glyph glyph-name="u.sub" horiz-adv-x="899" 
d="M610 553h195v-805h-182v111q-83 -135 -246 -135q-140 0 -216.5 88t-76.5 264v477h192v-424q0 -240 162 -240q53 0 88.5 21t53 59t24 78t6.5 92v414z" />
    <glyph glyph-name="v.sub" horiz-adv-x="813" 
d="M319 -252l-2 2q-70 177 -153 400l-154 403h209l105 -313l34 -99l54 -157l53 166l37 108l98 295h205l-309 -805h-177z" />
    <glyph glyph-name="w.sub" horiz-adv-x="1212" 
d="M279 -252l-3 2q-44 128 -149 461q-17 52 -52.5 166.5t-56.5 175.5h197l92 -313q27 -93 45 -168l27 -97q8 32 21 87.5t20 82.5q19 90 29 127l67 281h180l80 -313l70 -267l35 133q11 46 41 152l84 295h188l-258 -805h-197q-32 100 -137 498q-16 -59 -62.5 -240t-68.5 -258
h-192z" />
    <glyph glyph-name="x.sub" horiz-adv-x="790" 
d="M-2 -252l-2 4l289 408l-262 393h221l75 -119l78 -123q8 13 39 64.5t49 75.5l66 102h217l-133 -197l-129 -192q99 -138 192 -277l101 -139h-226l-98 150l-80 125l-86 -134q-18 -26 -48.5 -74t-43.5 -67h-219z" />
    <glyph glyph-name="y.sub" horiz-adv-x="819" 
d="M381 -530h-193l123 307q-118 308 -303 776h213q28 -76 65.5 -189.5t43.5 -132.5l82 -241q17 43 106 311q13 40 42.5 126t41.5 126h209q-134 -340 -152 -387q-23 -57 -86.5 -219t-99.5 -250q-70 -171 -92 -227z" />
    <glyph glyph-name="z.sub" horiz-adv-x="763" 
d="M57 -252v143l318 400l57 74l33 38q-55 -2 -184 -2h-211v152h620v-145l-297 -379q-3 -5 -11 -15.5t-11 -15.5l-82 -100h90q19 0 56 1t57 1h217v-152h-652z" />
    <glyph glyph-name="zero.tosf" 
d="M600 1464q124 0 217 -42t149 -110.5t90.5 -168.5t47 -202t12.5 -226q0 -133 -13.5 -239.5t-49 -203.5t-92.5 -162t-148.5 -103t-212.5 -38t-212.5 38t-148.5 103t-92.5 162t-49 203.5t-13.5 239.5q0 124 12.5 226t47 202t90.5 168.5t149 110.5t217 42zM600 1241
q-50 0 -89.5 -19t-66 -55.5t-44 -82t-27 -108t-13.5 -124t-4 -137.5q0 -97 6.5 -173t23 -145t43.5 -114.5t70 -72t101 -26.5t101.5 26.5t70.5 72t43.5 114.5t22.5 145t6 173q0 76 -4 137.5t-13.5 124t-27 108t-44 82t-66 55.5t-89.5 19z" />
    <glyph glyph-name="one.tosf" 
d="M578 0v1026h-353v191q193 5 278 53t105 166h226v-1436h-256z" />
    <glyph glyph-name="two.tosf" 
d="M1077 0h-958v209l151 135l283 254q141 129 202.5 225t61.5 195q0 103 -60 164t-165 61q-118 0 -178 -72.5t-62 -193.5h-243q0 3 -1.5 6t-1.5 6q0 98 32 184t92 151t153.5 102.5t208.5 37.5q223 0 354 -123.5t131 -316.5q0 -87 -32.5 -173.5t-79.5 -152.5t-120.5 -140
t-133.5 -123.5t-141.5 -115.5t-123.5 -104h631v-215z" />
    <glyph glyph-name="three.tosf" 
d="M82 414h250q12 -108 77 -169t183 -61q113 0 181.5 71t68.5 177q0 123 -82.5 184.5t-216.5 61.5h-58v201q289 0 289 200q0 87 -52.5 131.5t-135.5 44.5q-81 0 -134 -46.5t-63 -131.5h-235q5 170 124 278.5t314 108.5q197 0 315.5 -104.5t118.5 -272.5q0 -96 -52.5 -171.5
t-144.5 -124.5q130 -41 200.5 -137t70.5 -230q0 -201 -139.5 -326t-374.5 -125q-223 0 -357.5 124t-146.5 317z" />
    <glyph glyph-name="four.tosf" 
d="M1130 504v-211h-192v-293h-231v293h-664v196l438 619q37 55 92 134.5t94.5 135.5t41.5 58h229v-932h192zM711 1114h-4q-92 -155 -160 -250l-96 -139l-103 -147q-33 -46 -51 -74h410v354q0 120 4 256z" />
    <glyph glyph-name="five.tosf" 
d="M139 664q19 155 50 425.5t40 350.5h775v-221h-574q-8 -41 -16 -118.5t-11 -99.5l-16 -114q113 74 254 74q207 0 336 -133.5t129 -348.5q0 -143 -64 -258t-181.5 -181.5t-268.5 -66.5q-213 0 -350 118t-158 306h252q18 -97 81 -155t169 -58q126 0 196 79.5t70 207.5
q0 120 -72 200.5t-192 80.5q-148 0 -219 -123q-160 28 -230 35z" />
    <glyph glyph-name="six.tosf" 
d="M1102 1071h-252q-13 77 -70 130.5t-153 53.5q-76 0 -133.5 -34.5t-92.5 -96t-53 -139t-20 -170.5h4q123 127 327 127q208 0 335.5 -130t127.5 -345q0 -216 -142 -354t-368 -138q-265 0 -398.5 176.5t-133.5 512.5q0 389 137.5 596.5t411.5 207.5q203 0 325 -108.5
t148 -288.5zM608 739q-111 0 -185.5 -75.5t-74.5 -192.5q0 -122 73 -197t189 -75q110 0 184 76.5t74 191.5q0 117 -74.5 194.5t-185.5 77.5z" />
    <glyph glyph-name="seven.tosf" 
d="M537 0h-281q97 246 307 705q12 26 57 122.5t65.5 139t56.5 114t67 127.5v2q-39 -2 -113 -2h-538v228h917v-209v-4l-49 -101q-281 -573 -489 -1122z" />
    <glyph glyph-name="eight.tosf" 
d="M338 782q-193 119 -193 314q0 158 124.5 266t328.5 108t328.5 -108t124.5 -268q0 -205 -193 -312q123 -55 189.5 -150.5t66.5 -223.5q0 -194 -144 -314.5t-372 -120.5t-371 120.5t-143 314.5q0 128 66 224t188 150zM598 672q-116 0 -186 -67.5t-70 -178.5q0 -106 69 -175
t187 -69q115 0 184.5 69t69.5 175q0 111 -69 178.5t-185 67.5zM598 1255q-96 0 -152.5 -53.5t-56.5 -134.5q0 -82 57 -138.5t152 -56.5t152 56.5t57 138.5q0 81 -56.5 134.5t-152.5 53.5z" />
    <glyph glyph-name="nine.tosf" 
d="M92 371h256q11 -78 69.5 -130.5t155.5 -52.5q276 0 295 451h-4q-45 -55 -129.5 -94t-204.5 -39q-201 0 -327.5 132t-126.5 339q0 215 141 353t367 138q265 0 399.5 -178t134.5 -512q0 -389 -136.5 -597t-410.5 -208q-204 0 -328.5 109t-150.5 289zM588 1249
q-111 0 -184.5 -75.5t-73.5 -190.5q0 -117 73.5 -193.5t186.5 -76.5q111 0 184.5 74t73.5 190q0 122 -72 197t-188 75z" />
    <glyph glyph-name="zero.slashplf" horiz-adv-x="1253" 
d="M627 1495q124 0 217.5 -43.5t150 -113.5t91.5 -172.5t48 -206.5t13 -230q0 -136 -14 -245t-50 -207.5t-94 -164.5t-149.5 -104.5t-212.5 -38.5t-213 38.5t-149.5 104.5t-94 164.5t-50.5 207.5t-14 245q0 103 9.5 192t31 178.5t60.5 159t95 124t138.5 83.5t186.5 29z
M868 729q0 189 -22 297l-293 -825q37 -13 74 -13q48 0 86 18t64 53t44 81.5t28 109.5t14.5 129.5t4.5 149.5zM627 1268q-50 0 -89.5 -19.5t-65.5 -57t-43.5 -84.5t-27 -111t-13 -126.5t-3.5 -140.5q0 -167 21 -293l292 819q-32 13 -71 13z" />
    <glyph glyph-name="idotaccent" horiz-adv-x="536" 
d="M143 1075h250v-1075h-250v1075zM139 1231v233h256v-233h-256z" />
    </font>
</defs>
</svg>
